osu file format v14

[General]
AudioFilename: audio.mp3
AudioLeadIn: 0
PreviewTime: 48002
Countdown: 1
SampleSet: Normal
StackLeniency: 0.7
Mode: 0
LetterboxInBreaks: 0
WidescreenStoryboard: 0

[Editor]
Bookmarks: 52835
DistanceSpacing: 0.3
BeatDivisor: 4
GridSize: 4
TimelineZoom: 1

[Metadata]
Title:One More Time
TitleUnicode:One More Time
Artist:Mr.Marmok
ArtistUnicode:Mr.Marmok
Creator:-jeffrey-
Version:Bass Boosted
Source:YouTube
Tags:Marmok One More Time Bass Boosted Jeffrey Trek Marmoka
BeatmapID:1348556
BeatmapSetID:635502

[Difficulty]
HPDrainRate:4
CircleSize:4
OverallDifficulty:9
ApproachRate:9.6
SliderMultiplier:1.4
SliderTickRate:1

[Events]
//Background and Video events
0,0,"marmok_out.jpg",0,0
//Break Periods
//Storyboard Layer 0 (Background)
//Storyboard Layer 1 (Fail)
//Storyboard Layer 2 (Pass)
//Storyboard Layer 3 (Foreground)
//Storyboard Sound Samples

[TimingPoints]
2,666.666666666667,4,1,0,100,1,0
10668,-66.6666666666667,4,1,0,100,0,0
15668,-100,4,1,0,100,0,0
27002,-66.6666666666667,4,1,0,100,0,0
27502,-100,4,1,0,100,0,0
49335,-100,4,1,0,100,0,1
54002,-133.333333333333,4,1,0,100,0,1
54668,-100,4,1,0,100,0,1
70668,-100,4,1,0,100,0,1
70768,-100,4,1,0,100,0,0

[HitObjects]
148,124,2,6,0,P|136:180|148:284,1,140
256,260,1002,1,0,0:0:0:0:
364,260,1335,6,0,P|376:204|364:100,1,140
252,80,2335,1,0,0:0:0:0:
168,164,2668,6,0,L|268:284,1,140
348,304,3668,1,0,0:0:0:0:
344,220,4002,2,0,L|244:100,1,140
176,108,5002,1,0,0:0:0:0:
236,76,5335,5,0,0:0:0:0:
268,300,5668,1,0,0:0:0:0:
275,77,6002,1,0,0:0:0:0:
228,298,6335,1,0,0:0:0:0:
311,91,6668,5,0,0:0:0:0:
192,284,7002,1,0,0:0:0:0:
340,118,7335,1,0,0:0:0:0:
163,257,7668,1,0,0:0:0:0:
359,152,8002,5,0,0:0:0:0:
144,223,8335,1,0,0:0:0:0:
365,192,8668,1,0,0:0:0:0:
138,183,9002,1,0,0:0:0:0:
324,228,9335,5,0,0:0:0:0:
294,209,9501,1,0,0:0:0:0:
265,190,9668,1,0,0:0:0:0:
235,171,9834,1,0,0:0:0:0:
204,148,10002,2,0,B|180:120|180:120|144:104,1,70
144,180,10668,5,0,0:0:0:0:
172,212,10835,2,0,L|208:256,1,52.5000020027161
182,142,11335,5,0,0:0:0:0:
199,178,11502,2,0,L|224:232,1,52.5000020027161
210,109,12002,5,0,0:0:0:0:
214,149,12169,2,0,L|216:212,1,52.5000020027161
248,116,12668,5,0,0:0:0:0:
238,154,12835,2,0,L|216:212,1,52.5000020027161
291,109,13335,5,0,0:0:0:0:
268,142,13502,2,0,L|232:188,1,52.5000020027161
328,136,14002,5,0,0:0:0:0:
295,159,14169,2,0,L|240:188,1,52.5000020027161
352,184,14668,5,0,0:0:0:0:
313,194,14835,2,0,L|252:208,1,52.5000020027161
352,236,15335,5,0,0:0:0:0:
311,228,15502,2,0,L|252:216,1,52.5000020027161
160,292,16002,5,0,0:0:0:0:
160,257,16168,1,0,0:0:0:0:
159,222,16335,1,0,0:0:0:0:
144,84,16668,5,0,0:0:0:0:
179,84,16834,1,0,0:0:0:0:
214,83,17001,1,0,0:0:0:0:
352,68,17335,5,0,0:0:0:0:
352,103,17501,1,0,0:0:0:0:
353,138,17668,1,0,0:0:0:0:
368,276,18002,5,0,0:0:0:0:
333,276,18168,1,0,0:0:0:0:
298,277,18335,1,0,0:0:0:0:
210,270,18668,5,0,0:0:0:0:
210,113,18835,1,0,0:0:0:0:
346,192,19002,1,0,0:0:0:0:
177,237,19335,5,0,0:0:0:0:
256,101,19502,1,0,0:0:0:0:
334,237,19669,1,0,0:0:0:0:
165,192,20002,5,0,0:0:0:0:
301,113,20169,1,0,0:0:0:0:
301,270,20336,1,0,0:0:0:0:
177,146,20668,5,0,0:0:0:0:
334,146,20835,1,0,0:0:0:0:
255,282,21002,1,0,0:0:0:0:
210,112,21335,5,0,0:0:0:0:
346,191,21502,1,0,0:0:0:0:
210,269,21669,1,0,0:0:0:0:
168,232,22002,5,0,0:0:0:0:
132,192,22335,1,0,0:0:0:0:
148,141,22668,5,0,0:0:0:0:
306,84,22835,1,0,0:0:0:0:
363,242,23002,1,0,0:0:0:0:
205,299,23168,1,0,0:0:0:0:
187,94,23335,5,0,0:0:0:0:
353,123,23502,1,0,0:0:0:0:
324,289,23669,1,0,0:0:0:0:
158,260,23835,1,0,0:0:0:0:
207,196,24002,5,0,0:0:0:0:
276,148,24168,1,0,0:0:0:0:
284,232,24335,1,0,0:0:0:0:
284,256,24668,1,0,0:0:0:0:
284,284,25002,1,0,0:0:0:0:
198,158,25335,5,0,0:0:0:0:
289,134,25502,1,0,0:0:0:0:
313,225,25668,1,0,0:0:0:0:
222,249,25835,1,0,0:0:0:0:
163,138,26002,5,0,0:0:0:0:
309,99,26168,1,0,0:0:0:0:
348,245,26335,1,0,0:0:0:0:
202,284,26502,1,0,0:0:0:0:
156,232,26668,5,0,0:0:0:0:
256,164,26835,1,0,0:0:0:0:
348,232,27002,2,0,P|392:168|368:160,1,105.000004005432
392,152,27668,1,0,0:0:0:0:
256,108,28002,5,0,0:0:0:0:
388,240,28168,1,0,0:0:0:0:
256,108,28335,5,0,0:0:0:0:
124,240,28502,1,0,0:0:0:0:
256,108,28668,5,0,0:0:0:0:
388,240,28835,1,0,0:0:0:0:
256,108,29002,5,0,0:0:0:0:
224,252,29335,6,0,B|264:256|264:256|312:252,2,70
184,248,30335,1,0,0:0:0:0:
176,156,30668,5,0,0:0:0:0:
198,151,30834,1,0,0:0:0:0:
222,148,31001,1,0,0:0:0:0:
245,147,31168,1,0,0:0:0:0:
268,148,31334,1,0,0:0:0:0:
291,150,31501,1,0,0:0:0:0:
314,155,31668,1,0,0:0:0:0:
180,204,32002,5,0,0:0:0:0:
212,216,32168,2,0,L|256:236,1,35
184,164,32669,5,0,0:0:0:0:
228,184,33002,1,0,0:0:0:0:
217,109,33335,5,0,0:0:0:0:
346,199,33502,1,0,0:0:0:0:
203,266,33668,1,0,0:0:0:0:
287,106,33835,5,0,0:0:0:0:
314,261,34002,1,0,0:0:0:0:
166,207,34168,1,0,0:0:0:0:
308,117,34335,1,0,0:0:0:0:
256,224,34668,6,0,L|196:144,1,70
184,232,35335,5,0,2:0:0:0:
304,200,35668,1,0,2:0:0:0:
297,120,36002,5,0,0:0:0:0:
297,263,36168,1,0,0:0:0:0:
173,191,36335,1,0,0:0:0:0:
234,111,36502,5,0,0:0:0:0:
336,213,36668,1,0,0:0:0:0:
197,250,36835,1,0,0:0:0:0:
184,150,37002,5,0,0:0:0:0:
240,104,37335,6,0,B|280:116|280:116|320:152,1,70
272,280,38002,2,0,B|232:268|232:268|192:232,1,70
184,176,38668,6,0,L|200:128,2,35
168,220,39168,1,0,0:0:0:0:
336,188,39335,6,0,L|320:236,2,35
160,200,40002,5,0,0:0:0:0:
192,164,40168,2,0,L|228:120,1,35
204,256,40668,5,0,0:0:0:0:
328,176,41002,1,0,0:0:0:0:
244,288,41335,5,0,0:0:0:0:
156,140,41502,1,0,0:0:0:0:
328,140,41668,2,0,L|316:200,1,35
188,288,42002,5,0,0:0:0:0:
152,92,42168,1,0,0:0:0:0:
372,160,42335,1,0,0:0:0:0:
256,192,42668,5,0,0:0:0:0:
256,192,43335,5,0,0:0:0:0:
256,192,44002,5,0,0:0:0:0:
256,192,44668,5,0,0:0:0:0:
256,192,45002,1,0,0:0:0:0:
256,192,45335,1,0,0:0:0:0:
256,192,45668,1,0,0:0:0:0:
256,192,46002,5,0,0:0:0:0:
172,280,46335,1,0,0:0:0:0:
256,192,46668,1,0,0:0:0:0:
328,280,47002,1,0,0:0:0:0:
256,192,47335,12,0,48668,0:0:0:0:
204,271,49335,5,0,0:0:0:0:
212,107,49502,1,0,0:0:0:0:
350,196,49668,1,0,0:0:0:0:
171,235,49835,5,0,0:0:0:0:
260,97,50002,1,0,0:0:0:0:
335,243,50168,1,0,0:0:0:0:
161,187,50335,5,0,0:0:0:0:
307,112,50502,1,0,0:0:0:0:
299,276,50668,1,0,0:0:0:0:
176,140,50835,5,0,0:0:0:0:
340,148,51002,1,0,0:0:0:0:
251,286,51168,1,0,0:0:0:0:
212,107,51335,5,0,0:0:0:0:
350,196,51502,1,0,0:0:0:0:
204,271,51668,1,0,0:0:0:0:
177,140,51835,1,0,0:0:0:0:
269,88,52002,5,0,0:0:0:0:
242,295,52168,1,0,0:0:0:0:
319,108,52335,1,0,0:0:0:0:
192,274,52502,1,0,0:0:0:0:
352,151,52668,5,0,0:0:0:0:
159,232,52835,1,0,0:0:0:0:
359,205,53002,1,0,0:0:0:0:
152,178,53168,1,0,0:0:0:0:
339,256,53335,5,0,0:0:0:0:
172,127,53502,1,0,0:0:0:0:
295,289,53668,1,0,0:0:0:0:
216,94,53835,1,0,0:0:0:0:
224,208,54002,6,0,P|272:208|288:196,1,52.5000020027161,0|0,0:3|0:3,0:3:0:0:
172,100,54668,5,0,0:0:0:0:
340,284,54835,1,0,0:0:0:0:
348,108,55002,1,0,0:0:0:0:
164,276,55168,1,0,0:0:0:0:
189,86,55335,5,0,0:0:0:0:
322,297,55502,1,0,0:0:0:0:
361,125,55668,1,0,0:0:0:0:
150,258,55835,1,0,0:0:0:0:
208,76,56002,5,0,0:0:0:0:
303,307,56169,1,0,0:0:0:0:
371,144,56335,1,0,0:0:0:0:
140,239,56502,1,0,0:0:0:0:
229,70,56668,5,0,0:0:0:0:
282,313,56835,1,0,0:0:0:0:
377,165,57001,1,0,0:0:0:0:
134,218,57168,1,0,0:0:0:0:
312,116,57335,5,0,0:0:0:0:
200,268,57502,1,0,0:0:0:0:
282,101,57668,1,0,0:0:0:0:
229,282,57835,1,0,0:0:0:0:
250,97,58002,5,0,0:0:0:0:
261,286,58168,1,0,0:0:0:0:
218,105,58335,1,0,0:0:0:0:
293,278,58502,1,0,0:0:0:0:
190,123,58668,5,0,0:0:0:0:
321,260,58835,1,0,0:0:0:0:
171,150,59002,1,0,0:0:0:0:
252,288,59168,6,0,B|212:256|212:256|208:240,2,35
292,308,59668,1,0,0:0:0:0:
332,336,59835,1,0,0:0:0:0:
219,255,60002,5,0,0:0:0:0:
219,129,60168,1,0,0:0:0:0:
328,192,60335,1,0,0:0:0:0:
256,264,60502,5,0,0:0:0:0:
193,155,60668,1,0,0:0:0:0:
319,155,60835,1,0,0:0:0:0:
292,255,61002,5,0,0:0:0:0:
183,192,61168,1,0,0:0:0:0:
292,129,61335,1,0,0:0:0:0:
318,228,61502,5,0,0:0:0:0:
192,228,61668,1,0,0:0:0:0:
256,119,61835,1,0,0:0:0:0:
201,286,62002,5,0,0:0:0:0:
201,97,62168,1,0,0:0:0:0:
365,192,62335,1,0,0:0:0:0:
255,300,62502,5,0,0:0:0:0:
160,137,62668,1,0,0:0:0:0:
350,137,62835,1,0,0:0:0:0:
309,286,63002,5,0,0:0:0:0:
146,192,63168,1,0,0:0:0:0:
310,97,63335,1,0,0:0:0:0:
195,297,63502,5,0,0:0:0:0:
195,86,63668,1,0,0:0:0:0:
377,192,63835,1,0,0:0:0:0:
255,313,64002,5,0,0:0:0:0:
150,130,64168,1,0,0:0:0:0:
360,131,64335,1,0,0:0:0:0:
316,297,64502,5,0,0:0:0:0:
133,191,64668,1,0,0:0:0:0:
316,87,64835,2,0,P|332:104|328:92,1,70
220,268,65335,5,0,0:0:0:0:
179,156,65502,1,0,0:0:0:0:
291,115,65668,1,0,0:0:0:0:
332,227,65835,1,0,0:0:0:0:
187,240,66002,5,0,0:0:0:0:
207,123,66169,1,0,0:0:0:0:
324,143,66335,1,0,0:0:0:0:
304,260,66502,1,0,0:0:0:0:
172,199,66668,5,0,0:0:0:0:
248,108,66835,1,0,0:0:0:0:
339,184,67001,1,0,0:0:0:0:
263,275,67168,1,0,0:0:0:0:
179,156,67335,5,0,0:0:0:0:
291,115,67502,1,0,0:0:0:0:
332,227,67668,1,0,0:0:0:0:
220,268,67835,1,0,0:0:0:0:
137,200,68002,5,0,0:0:0:0:
247,73,68168,1,0,0:0:0:0:
374,183,68335,1,0,0:0:0:0:
264,310,68502,1,0,0:0:0:0:
149,139,68668,5,0,0:0:0:0:
308,85,68834,1,0,0:0:0:0:
362,244,69001,1,0,0:0:0:0:
203,298,69168,1,0,0:0:0:0:
189,93,69335,5,0,0:0:0:0:
354,125,69501,1,0,0:0:0:0:
322,290,69668,1,0,0:0:0:0:
157,258,69835,1,0,0:0:0:0:
200,112,70002,2,0,B|244:148|244:148|224:108,1,70
136,268,70668,5,0,0:0:0:0:
160,200,71002,1,0,0:0:0:0:
216,133,71502,5,0,0:0:0:0:
326,187,71669,1,0,0:0:0:0:
224,255,71835,1,0,0:0:0:0:
319,223,72002,1,0,0:0:0:0:
251,121,72335,5,0,0:0:0:0:
197,231,72668,1,0,0:0:0:0:
251,121,73002,1,0,0:0:0:0:
208,196,73335,6,0,B|228:228|228:228|268:248,1,70
316,192,74002,2,0,B|296:160|296:160|256:140,1,70
256,268,74668,5,0,0:0:0:0:
179,192,75002,1,0,0:0:0:0:
256,115,75335,1,0,0:0:0:0:
332,192,75668,1,0,0:0:0:0:
