osu file format v14

[General]
AudioFilename: audio.mp3
AudioLeadIn: 0
PreviewTime: 249093
Countdown: 0
SampleSet: Drum
StackLeniency: 0.2
Mode: 0
LetterboxInBreaks: 0
EpilepsyWarning: 1
WidescreenStoryboard: 1

[Editor]
Bookmarks: 14747,29516,44285,59054,73824,88593,118131,132900,147670,162439,169824,177208,184593,190131,191977,221516,251054,265824,280593,295362,310131,339235
DistanceSpacing: 1.8
BeatDivisor: 4
GridSize: 8
TimelineZoom: 3.699998

[Metadata]
Title:Resurrection
TitleUnicode:Resurrection
Artist:Mr.Kitty
ArtistUnicode:Mr.Kitty
Creator:Gordon123
Version:You will die...
Source:
Tags:synthpop new wave electronic goth post-punk witch house Δ death remastered [remastered] marathon Daycore milr_ Terton danielexus ego_17 MkGuh -Space- Fall _tranquility [_Space_] Bekko [_White Music_] english
BeatmapID:2219800
BeatmapSetID:1057847

[Difficulty]
HPDrainRate:5.5
CircleSize:3.8
OverallDifficulty:8
ApproachRate:8.8
SliderMultiplier:2.3
SliderTickRate:1

[Events]
//Background and Video events
0,0,"oof.jpg",0,0
//Break Periods
//Storyboard Layer 0 (Background)
//Storyboard Layer 1 (Fail)
//Storyboard Layer 2 (Pass)
//Storyboard Layer 3 (Foreground)
//Storyboard Layer 4 (Overlay)
//Storyboard Sound Samples

[TimingPoints]
1824,461.538461538462,4,3,1,20,1,0
13362,-100,4,3,1,30,0,0
13824,-100,4,3,1,40,0,0
14285,-100,4,3,1,50,0,0
14516,-100,4,3,1,5,0,0
14747,-133.333333333333,4,3,1,50,0,0
29516,-111.111111111111,4,3,1,70,0,0
57208,-111.111111111111,4,3,1,40,0,0
57670,-111.111111111111,4,3,1,30,0,0
58131,-111.111111111111,4,3,1,20,0,0
58593,-111.111111111111,4,3,1,10,0,0
59054,-125,4,3,1,70,0,0
73824,-125,4,3,1,70,0,0
86747,-142.857142857143,4,3,1,55,0,0
88593,-100,4,3,1,70,0,1
118131,-142.857142857143,4,3,1,50,0,0
129208,-142.857142857143,4,3,1,40,0,0
130131,-142.857142857143,4,3,1,30,0,0
131079,466.926070038911,4,3,1,20,1,0
132901,461.538461538462,4,3,1,70,1,0
132901,-125,4,3,1,70,0,0
160593,-125,4,3,1,55,0,0
162439,-111.111111111111,4,3,1,70,0,1
191977,-111.111111111111,4,3,1,40,0,0
206747,-111.111111111111,4,3,1,40,0,0
221516,-100,4,3,1,50,0,0
249208,-100,4,3,1,30,0,0
249324,-100,4,3,1,20,0,0
251054,-111.111111111111,4,3,1,70,0,1
280593,-111.111111111111,4,3,1,60,0,0
310131,-111.111111111111,4,3,1,45,0,0
337848,461.538461538462,4,3,1,20,1,0
337848,-500,4,3,1,20,0,0
339235,461.538461538462,4,3,1,20,1,0
339235,-499.999999999997,4,3,1,20,0,0
341542,-499.999999999997,4,3,1,10,0,0
342927,-500,4,3,1,5,0,0

[Colours]
Combo1 : 255,137,113
Combo2 : 184,173,245
Combo3 : 148,170,248
Combo4 : 255,145,148

[HitObjects]
256,192,12900,12,0,14516,0:0:0:0:
87,74,14747,6,0,B|75:106|95:142|95:142|82:176|82:176|101:203|93:264,1,172.500006580353,4|4,0:2|0:3,0:0:0:0:
305,86,15670,2,0,B|261:84|228:45|228:45|205:87|151:97,1,172.500006580353,4|4,0:3|0:3,0:0:0:0:
384,69,16593,2,0,B|396:101|376:137|376:137|389:171|389:171|370:198|378:259,1,172.500006580353,4|4,0:3|0:3,0:0:0:0:
243,277,17516,2,0,B|346:264|308:321|411:306,1,172.500006580353,4|4,0:3|0:3,0:0:0:0:
206,368,18439,6,0,P|219:260|217:186,1,172.500006580353,4|4,0:3|0:3,0:0:0:0:
143,132,19131,1,0,0:0:0:0:
301,163,19362,2,0,P|200:205|137:244,1,172.500006580353,4|4,0:3|0:3,0:0:0:0:
372,199,20285,2,0,P|377:149|357:105,1,86.2500032901765,4|0,0:3|0:0,0:0:0:0:
223,39,20747,2,0,P|262:73|310:77,1,86.2500032901765,4|0,0:3|0:0,0:0:0:0:
362,38,21208,2,0,P|317:53|302:163,1,172.500006580353,4|4,0:3|0:0,0:0:0:0:
445,132,22131,6,0,P|404:121|349:115,1,86.2500032901765,4|0,0:0|0:0,0:0:0:0:
208,175,22593,2,0,P|250:169|292:158,1,86.2500032901765,4|0,0:3|0:0,0:0:0:0:
155,106,23054,2,0,P|168:190|158:305,1,172.500006580353,4|4,0:3|0:3,0:0:0:0:
124,32,23977,2,0,B|157:18|190:31|190:31|214:7|214:7|256:22|296:2,1,172.500006580353,4|4,0:3|0:3,0:0:0:0:
376,25,24670,1,0,0:0:0:0:
376,25,24900,1,4,0:3:0:0:
348,114,25131,2,0,P|335:156|331:198,1,86.2500032901765,0|4,0:0|0:3,0:0:0:0:
484,328,25824,6,0,B|384:324|425:375|304:367,1,172.500006580353,4|4,0:3|0:3,0:0:0:0:
217,343,26516,1,0,0:0:0:0:
331,198,26747,2,0,P|339:267|336:306,1,86.2500032901765,4|0,0:3|0:0,0:0:0:0:
253,152,27208,2,0,P|332:161|447:163,1,172.500006580353,4|4,0:3|0:3,0:0:0:0:
323,71,27900,1,0,0:0:0:0:
189,104,28131,2,0,P|176:143|198:208,1,86.2500032901765,4|0,0:3|0:0,0:0:0:0:
170,324,28593,2,0,P|210:315|255:264,1,86.2500032901765,4|0,0:3|0:0,0:0:0:0:
371,232,29054,2,0,P|343:201|276:187,1,86.2500032901765,4|0,0:3|0:0,0:0:0:0:
136,199,29516,5,4,0:3:0:0:
136,199,29631,1,2,0:0:0:0:
136,199,29747,1,2,0:0:0:0:
144,223,29862,1,2,0:0:0:0:
147,249,29977,1,4,0:3:0:0:
140,274,30093,1,2,0:0:0:0:
124,294,30208,1,2,0:0:0:0:
101,307,30324,1,2,0:0:0:0:
41,250,30439,6,0,L|25:183,3,51.7499984207154,4|2|2|2,0:3|0:0|0:0|0:0,0:0:0:0:
67,126,30900,2,0,L|51:59,3,51.7499984207154,4|2|2|2,0:3|0:0|0:0|0:0,0:0:0:0:
123,28,31362,5,4,0:3:0:0:
123,28,31477,1,2,0:0:0:0:
123,28,31593,1,2,0:0:0:0:
142,45,31708,1,2,0:0:0:0:
165,56,31824,1,4,0:3:0:0:
190,58,31939,1,2,0:0:0:0:
215,54,32054,1,2,0:0:0:0:
237,40,32170,1,2,0:0:0:0:
315,65,32285,6,0,P|341:73|387:73,3,51.7499984207154,4|2|2|2,0:3|0:0|0:0|0:0,0:0:0:0:
418,139,32747,2,0,P|444:131|490:131,3,51.7499984207154,4|2|2|2,0:3|0:0|0:0|0:0,0:0:0:0:
453,210,33208,5,4,0:3:0:0:
450,235,33324,1,2,0:0:0:0:
447,260,33439,1,2,0:0:0:0:
442,285,33554,1,2,0:0:0:0:
416,290,33670,1,4,0:3:0:0:
391,283,33785,1,2,0:0:0:0:
365,283,33900,1,2,0:0:0:0:
341,293,34016,1,2,0:0:0:0:
274,341,34131,6,0,L|211:354,3,51.7499984207154,4|2|2|2,0:3|0:0|0:0|0:0,0:0:0:0:
151,308,34593,2,0,L|88:295,3,51.7499984207154,4|2|2|2,0:3|0:0|0:0|0:0,0:0:0:0:
20,317,35054,5,4,0:3:0:0:
36,297,35170,1,2,0:0:0:0:
44,272,35285,1,2,0:0:0:0:
39,246,35400,1,2,0:0:0:0:
25,223,35516,1,4,0:3:0:0:
48,208,35631,1,2,0:0:0:0:
72,192,35747,1,2,0:0:0:0:
96,176,35862,1,2,0:0:0:0:
177,190,35977,6,0,L|232:199,3,51.7499984207154,4|2|2|2,0:3|0:0|0:0|0:0,0:0:0:0:
305,167,36439,2,0,P|316:136|337:109,3,51.7499984207154,4|2|2|2,0:3|0:0|0:0|0:0,0:0:0:0:
400,83,36900,5,4,0:3:0:0:
373,83,37016,1,2,0:0:0:0:
348,75,37131,1,2,0:0:0:0:
324,64,37247,1,2,0:0:0:0:
245,39,37362,2,0,P|216:34|188:38,3,51.7499984207154,4|2|2|2,0:3|0:0|0:0|0:0,0:0:0:0:
131,91,37824,6,0,P|105:93|79:88,3,51.7499984207154,4|2|2|2,0:3|0:0|0:0|0:0,0:0:0:0:
0,66,38285,1,4,0:3:0:0:
8,88,38400,1,2,0:0:0:0:
16,112,38516,1,2,0:0:0:0:
17,137,38631,1,2,0:0:0:0:
58,209,38747,6,0,L|70:270,3,51.7499984207154,4|2|2|2,0:3|0:0|0:0|0:0,0:0:0:0:
141,297,39208,2,0,L|153:358,3,51.7499984207154,4|2|2|2,0:3|0:0|0:0|0:0,0:0:0:0:
233,337,39670,5,4,0:3:0:0:
258,343,39785,1,2,0:0:0:0:
282,349,39900,1,2,0:0:0:0:
306,357,40016,1,2,0:0:0:0:
376,314,40131,2,0,P|369:283|375:237,3,51.7499984207154,4|2|2|2,0:3|0:0|0:0|0:0,0:0:0:0:
407,189,40593,5,4,0:3:0:0:
382,195,40708,1,2,0:0:0:0:
356,198,40824,1,2,0:0:0:0:
330,195,40939,1,2,0:0:0:0:
252,166,41054,2,0,P|224:160|185:162,3,51.7499984207154,4|2|2|2,0:3|0:0|0:0|0:0,0:0:0:0:
136,211,41516,6,0,P|107:211|80:218,3,51.7499984207154,4|2|2|2,0:3|0:0|0:0|0:0,0:0:0:0:
31,279,41977,1,4,0:3:0:0:
25,253,42093,1,2,0:0:0:0:
18,227,42208,1,2,0:0:0:0:
10,202,42324,1,2,0:0:0:0:
59,136,42439,6,0,L|120:119,3,51.7499984207154,4|2|2|2,0:3|0:0|0:0|0:0,0:0:0:0:
163,60,42900,2,0,L|224:43,3,51.7499984207154,4|2|2|2,0:3|0:0|0:0|0:0,0:0:0:0:
294,59,43362,5,4,0:3:0:0:
288,84,43477,1,2,0:0:0:0:
290,109,43593,1,2,0:0:0:0:
297,133,43708,1,2,0:0:0:0:
344,201,43824,2,0,P|355:225|360:258,3,51.7499984207154,4|2|2|2,0:3|0:0|0:0|0:0,0:0:0:0:
300,306,44285,6,0,P|269:302|221:292,1,51.7499984207154,4|2,0:3|0:0,0:0:0:0:
214,378,44516,1,2,0:0:0:0:
178,375,44631,1,2,0:0:0:0:
142,370,44747,2,0,B|129:333|122:317|122:317|141:287|165:250,1,103.499996841431,8|2,0:0|0:0,0:0:0:0:
195,217,45093,1,2,0:0:0:0:
195,217,45208,6,0,P|188:182|183:148,1,51.7499984207154,4|2,0:3|0:0,0:0:0:0:
309,255,45439,2,0,P|304:280|299:305,1,51.7499984207154,2|2,0:0|0:0,0:0:0:0:
269,187,45670,2,0,P|262:152|257:118,3,51.7499984207154,8|0|2|2,0:0|0:0|0:0|0:0,0:0:0:0:
386,268,46131,6,0,P|379:309|373:345,1,51.7499984207154,4|2,0:3|0:0,0:0:0:0:
437,371,46362,1,2,0:0:0:0:
467,350,46477,1,2,0:0:0:0:
497,330,46593,2,0,B|507:308|518:286|518:286|498:261|486:240,1,103.499996841431,8|2,0:0|0:0,0:0:0:0:
421,200,46939,1,2,0:0:0:0:
421,200,47054,6,0,P|413:155|410:130,3,51.7499984207154,4|2|2|2,0:3|0:0|0:0|0:0,0:0:0:0:
490,48,47516,2,0,P|455:77|434:92,3,51.7499984207154,8|0|2|2,0:0|0:0|0:0|0:0,0:0:0:0:
323,64,47977,6,0,P|365:79|389:89,1,51.7499984207154,4|2,0:3|0:0,0:0:0:0:
233,23,48208,1,2,0:0:0:0:
242,59,48324,1,2,0:0:0:0:
250,94,48439,2,0,B|226:110|198:122|198:122|207:155|213:187,1,103.499996841431,8|2,0:0|0:0,0:0:0:0:
274,216,48785,1,2,0:0:0:0:
274,216,48900,6,0,P|308:221|338:225,1,51.7499984207154,4|2,0:3|0:0,0:0:0:0:
227,350,49131,2,0,P|267:356|294:362,1,51.7499984207154,2|2,0:0|0:0,0:0:0:0:
381,290,49362,2,0,P|341:297|297:306,3,51.7499984207154,8|2|2|2,0:0|0:0|0:0|0:0,0:0:0:0:
215,272,49824,6,0,P|184:280|140:292,1,51.7499984207154,4|2,0:3|0:0,0:0:0:0:
127,356,50054,1,2,0:0:0:0:
95,339,50170,1,2,0:0:0:0:
64,320,50285,2,0,B|49:292|37:272|37:272|60:251|75:238,1,103.499996841431,8|2,0:0|0:0,0:0:0:0:
146,207,50631,1,2,0:0:0:0:
146,207,50747,6,0,P|151:165|156:133,3,51.7499984207154,4|2|2|2,0:3|0:0|0:0|0:0,0:0:0:0:
23,95,51208,2,0,P|16:144|10:178,3,51.7499984207154,8|2|2|2,0:0|0:0|0:0|0:0,0:0:0:0:
103,94,51670,6,0,P|98:52|94:22,1,51.7499984207154,4|2,0:3|0:0,0:0:0:0:
166,0,51900,1,2,0:0:0:0:
196,21,52016,1,2,0:0:0:0:
226,40,52131,2,0,B|236:61|251:87|251:87|221:113|199:137,1,103.499996841431,8|2,0:0|0:0,0:0:0:0:
148,162,52477,1,2,0:0:0:0:
148,162,52593,6,0,P|139:215|134:236,1,51.7499984207154,4|2,0:3|0:0,0:0:0:0:
218,333,52824,2,0,P|224:284|229:256,1,51.7499984207154,2|2,0:0|0:0,0:0:0:0:
91,283,53054,2,0,P|131:290|176:303,3,51.7499984207154,8|0|2|2,0:0|0:0|0:0|0:0,0:0:0:0:
273,213,53516,6,0,P|233:206|188:193,1,51.7499984207154,4|2,0:3|0:0,0:0:0:0:
304,133,53747,1,2,0:0:0:0:
331,157,53862,1,2,0:0:0:0:
357,182,53977,2,0,B|367:203|380:230|380:230|346:255|318:274,1,103.499996841431,8|2,0:0|0:0,0:0:0:0:
300,326,54324,1,2,0:0:0:0:
300,326,54439,6,0,P|306:371|309:404,3,51.7499984207154,4|2|2|2,0:3|0:0|0:0|0:0,0:0:0:0:
188,275,54900,2,0,P|185:249|181:223,3,51.7499984207154,8|0|2|2,0:0|0:0|0:0|0:0,0:0:0:0:
224,350,55362,6,0,P|188:355|157:360,1,51.7499984207154,4|2,0:3|0:0,0:0:0:0:
98,384,55593,1,2,0:0:0:0:
70,361,55708,1,2,0:0:0:0:
41,337,55824,2,0,B|31:310|23:289|23:289|52:275|69:264,1,103.499996841431,8|2,0:0|0:0,0:0:0:0:
124,193,56170,1,2,0:0:0:0:
124,193,56285,6,0,P|82:185|47:179,1,51.7499984207154,4|2,0:3|0:0,0:0:0:0:
188,275,56516,2,0,P|193:236|200:195,1,51.7499984207154,2|2,0:0|0:0,0:0:0:0:
276,159,56747,2,0,P|237:154|196:147,3,51.7499984207154,8|2|2|2,0:0|0:0|0:0|0:0,0:0:0:0:
160,71,57208,5,0,0:0:0:0:
256,192,57324,12,0,58593,0:0:0:0:
112,308,59054,6,0,P|154:291|174:251,1,92,4|2,0:2|0:0,0:0:0:0:
174,121,59516,2,0,P|100:91|8:135,2,184,8|2|8,0:0|0:2|0:0,0:0:0:0:
115,6,60670,1,2,0:0:0:0:
240,30,60900,5,4,0:0:0:0:
240,30,61016,1,0,0:0:0:0:
240,30,61131,1,2,0:0:0:0:
254,158,61362,2,0,P|267:207|309:248,1,92,8|2,0:0|0:0,0:0:0:0:
406,301,61824,2,0,P|393:252|351:211,1,92,4|2,0:0|0:2,0:0:0:0:
279,316,62285,2,0,L|81:333,1,184,8|4,0:0|0:0,0:0:0:0:
41,214,62977,5,2,0:0:0:0:
41,214,63093,1,0,0:0:0:0:
41,214,63208,2,0,P|92:202|154:228,1,92,8|2,0:0|0:0,0:0:0:0:
251,167,63670,2,0,P|302:179|364:153,1,92,2|2,0:2|0:2,0:0:0:0:
295,48,64131,2,0,L|297:-1,2,46,8|0|2,0:0|0:0|0:0,0:0:0:0:
343,174,64593,5,4,0:0:0:0:
343,174,64708,1,0,0:0:0:0:
343,174,64824,1,2,0:0:0:0:
298,290,65054,2,0,L|181:311,1,92,8|2,0:0|0:0,0:0:0:0:
91,247,65516,2,0,L|-26:268,1,92,4|2,0:0|0:2,0:0:0:0:
40,140,65977,2,0,P|50:115|50:70,2,46,8|0|2,0:0|0:0|0:0,0:0:0:0:
0,263,66439,6,0,P|10:313|41:347,1,92,4|2,0:0|0:0,0:0:0:0:
163,360,66900,2,0,P|256:341|359:375,2,184,8|2|8,0:0|0:2|0:0,0:0:0:0:
94,250,68054,1,2,0:0:0:0:
202,180,68285,6,0,L|316:168,1,92,4|2,0:0|0:0,0:0:0:0:
405,106,68747,1,8,0:0:0:0:
405,106,68862,1,0,0:0:0:0:
405,106,68977,2,0,P|375:69|317:50,2,92,2|4|2,0:0|0:0|0:2,0:0:0:0:
405,235,69670,2,0,P|376:270|335:289,1,92,8|2,0:0|0:0,0:0:0:0:
210,257,70131,6,0,B|162:265|162:265|74:233|74:233|26:241,2,184,4|8|2,0:0|0:0|0:2,0:0:0:0:
299,163,71285,1,2,0:2:0:0:
335,289,71516,2,0,L|338:394,1,92,8|2,0:0|0:0,0:0:0:0:
218,331,71977,6,0,P|177:339|101:322,2,92,4|2|8,0:0|0:0|0:0,0:0:0:0:
335,289,72670,1,2,0:0:0:0:
431,373,72900,2,0,P|457:333|457:262,1,92,4|2,0:0|0:2,0:0:0:0:
303,205,73362,2,0,P|309:250|334:288,1,92,8|2,0:0|0:0,0:0:0:0:
379,86,73824,6,0,P|336:99|279:93,1,92,4|2,0:0|0:0,0:0:0:0:
192,29,74285,2,0,L|211:241,2,184,10|2|10,0:1|0:1|0:1,0:0:0:0:
111,129,75439,1,2,0:0:0:0:
290,97,75670,5,4,0:0:0:0:
290,97,75785,1,0,0:0:0:0:
290,97,75900,1,2,0:0:0:0:
400,30,76131,2,0,P|382:76|396:141,1,92,8|2,0:0|0:0,0:0:0:0:
453,227,76593,2,0,P|474:172|468:125,1,92,4|2,0:0|0:2,0:0:0:0:
400,30,77054,2,0,L|185:48,1,184,8|4,0:0|0:0,0:0:0:0:
88,30,77747,5,2,0:0:0:0:
88,30,77862,1,0,0:0:0:0:
88,30,77977,2,0,P|101:75|92:132,1,92,8|2,0:0|0:0,0:0:0:0:
152,236,78439,2,0,P|149:287|163:333,1,92,2|2,0:2|0:2,0:0:0:0:
275,269,78900,2,0,L|350:260,2,46,8|0|2,0:0|0:0|0:0,0:0:0:0:
162,333,79362,5,4,0:0:0:0:
162,333,79477,1,0,0:0:0:0:
162,333,79593,1,2,0:0:0:0:
33,326,79824,2,0,L|55:218,1,92,8|2,0:0|0:0,0:0:0:0:
160,166,80285,2,0,L|182:58,1,92,4|2,0:0|0:2,0:0:0:0:
294,132,80747,2,0,P|322:147|368:152,2,46,8|0|2,0:0|0:0|0:0,0:0:0:0:
178,75,81208,6,0,P|145:63|77:64,1,92,4|2,0:0|0:0,0:0:0:0:
26,174,81670,2,0,P|54:247|9:360,2,184,10|2|10,0:1|0:1|0:1,0:0:0:0:
88,61,82824,1,2,0:0:0:0:
206,110,83054,6,0,L|332:94,1,92,4|2,0:0|0:0,0:0:0:0:
421,63,83516,1,8,0:0:0:0:
421,63,83631,1,0,0:0:0:0:
421,63,83747,2,0,P|403:116|416:188,2,92,2|4|2,0:0|0:0|0:2,0:0:0:0:
297,98,84439,2,0,P|296:143|280:186,1,92,8|2,0:0|0:0,0:0:0:0:
183,271,84900,6,0,B|103:306|74:222|-28:271,2,184,4|8|2,0:0|0:0|0:2,0:0:0:0:
309,245,86054,1,2,0:2:0:0:
428,292,86285,2,0,L|414:164,1,92,8|2,0:0|0:0,0:0:0:0:
341,117,86747,6,0,L|328:10,2,80.499997543335
278,210,87439,1,0,0:0:0:0:
177,261,87670,2,0,P|135:274|76:271,1,80.499997543335,2|0,0:2|0:0,0:0:0:0:
34,181,88131,2,0,P|76:168|135:171,1,80.499997543335,2|0,0:2|0:0,0:0:0:0:
237,185,88593,6,0,P|286:182|349:24,1,230,4|8,0:0|0:0,0:0:0:0:
256,78,89285,1,2,0:0:0:0:
393,199,89516,1,2,0:2:0:0:
391,216,89631,1,2,0:2:0:0:
389,233,89747,1,2,0:2:0:0:
428,336,89977,2,0,P|359:341|316:309,1,115,8|2,0:0|0:0,0:0:0:0:
177,198,90439,6,0,P|246:193|289:225,1,115,4|2,0:0|0:0,0:0:0:0:
97,237,90900,2,0,P|92:168|124:125,1,115,8|2,0:0|0:0,0:0:0:0:
268,19,91362,1,4,0:0:0:0:
265,30,91477,1,2,0:2:0:0:
262,41,91593,1,2,0:2:0:0:
259,52,91708,1,2,0:2:0:0:
256,63,91824,1,8,0:0:0:0:
115,131,92054,1,2,0:0:0:0:
342,91,92285,6,0,B|301:133|327:189|327:189|338:189|338:189|364:255|317:308,1,230,4|8,0:0|0:0,0:0:0:0:
200,264,92977,1,2,0:0:0:0:
71,327,93208,1,2,0:2:0:0:
59,327,93324,1,2,0:2:0:0:
47,327,93439,1,2,0:2:0:0:
106,239,93670,1,8,0:0:0:0:
191,359,93900,1,2,0:0:0:0:
311,289,94131,6,0,L|439:266,1,115,4|2,0:0|0:0,0:0:0:0:
279,202,94593,2,0,L|407:179,1,115,8|2,0:0|0:0,0:0:0:0:
343,10,95054,1,4,0:3:0:0:
350,47,95169,1,2,0:2:0:0:
336,81,95284,1,2,0:2:0:0:
305,103,95400,1,2,0:2:0:0:
268,109,95516,2,0,L|134:100,1,115,8|2,0:0|0:0,0:0:0:0:
90,0,95977,6,0,L|140:241,1,230,4|8,0:0|0:0,0:0:0:0:
207,297,96670,1,2,0:0:0:0:
60,281,96900,1,2,0:2:0:0:
54,270,97016,1,2,0:2:0:0:
48,259,97131,1,2,0:2:0:0:
226,212,97362,1,8,0:0:0:0:
300,280,97593,1,2,0:0:0:0:
421,243,97824,6,0,L|412:111,1,115,4|2,0:0|0:0,0:0:0:0:
233,97,98285,2,0,L|225:211,1,115,8|0,0:0|0:0,0:0:0:0:
307,44,98747,1,4,0:0:0:0:
285,25,98862,1,2,0:2:0:0:
259,13,98977,1,2,0:2:0:0:
230,10,99093,1,2,0:2:0:0:
202,17,99208,1,8,0:0:0:0:
132,114,99439,1,2,0:0:0:0:
112,239,99670,6,0,B|214:237|214:237|237:222|237:222|349:224,1,230,4|8,0:0|0:0,0:0:0:0:
267,308,100362,1,2,0:0:0:0:
263,132,100593,1,2,0:2:0:0:
262,103,100708,1,2,0:2:0:0:
273,76,100823,1,2,0:2:0:0:
337,223,101054,1,8,0:0:0:0:
184,158,101285,1,2,0:0:0:0:
383,151,101516,6,0,P|421:208|397:276,1,115,4|2,0:3|0:0,0:0:0:0:
290,292,101977,2,0,P|252:235|276:167,1,115,8|2,0:0|0:0,0:0:0:0:
388,36,102439,6,0,L|382:168,1,115,4|2,0:0|0:2,0:0:0:0:
155,233,102900,2,0,L|149:118,1,115,8|2,0:0|0:0,0:0:0:0:
206,321,103362,6,0,P|140:334|60:197,1,230,4|8,0:0|0:0,0:0:0:0:
155,233,104054,1,2,0:0:0:0:
312,298,104285,1,2,0:2:0:0:
329,296,104400,1,2,0:2:0:0:
346,295,104516,1,2,0:2:0:0:
404,177,104747,1,8,0:0:0:0:
302,156,104977,1,2,0:0:0:0:
444,258,105208,6,0,P|487:217|482:143,1,115,4|2,0:3|0:0,0:0:0:0:
293,41,105670,2,0,L|303:171,1,115,8|2,0:0|0:0,0:0:0:0:
319,257,106131,1,4,0:0:0:0:
290,256,106246,1,2,0:2:0:0:
261,255,106361,1,2,0:2:0:0:
232,254,106477,1,2,0:2:0:0:
204,253,106592,1,8,0:0:0:0:
301,155,106824,1,2,0:0:0:0:
444,258,107054,6,0,P|438:335|300:338,1,230,4|8,0:0|0:0,0:0:0:0:
301,155,107747,1,2,0:0:0:0:
319,257,107977,1,2,0:2:0:0:
290,256,108092,1,2,0:2:0:0:
261,255,108207,1,2,0:2:0:0:
243,88,108439,2,0,P|288:67|372:108,1,115,8|2,0:0|0:0,0:0:0:0:
191,184,108900,6,0,P|223:91|111:24,1,230,4|8,0:3|0:0,0:0:0:0:
135,112,109593,1,2,0:0:0:0:
148,288,109824,1,4,0:0:0:0:
176,282,109939,1,2,0:2:0:0:
204,277,110054,1,2,0:2:0:0:
232,272,110170,1,2,0:2:0:0:
261,267,110285,1,8,0:0:0:0:
105,205,110516,1,2,0:0:0:0:
115,380,110747,6,0,P|243:352|365:328,1,230,4|8,0:0|0:0,0:0:0:0:
431,347,111439,1,2,0:0:0:0:
436,200,111670,1,2,0:2:0:0:
432,183,111785,1,2,0:2:0:0:
428,166,111900,1,2,0:2:0:0:
350,242,112131,1,8,0:0:0:0:
499,276,112362,1,2,0:0:0:0:
467,88,112593,6,0,P|407:80|345:135,1,115,4|2,0:3|0:0,0:0:0:0:
192,184,113054,2,0,P|252:192|314:137,1,115,8|2,0:0|0:0,0:0:0:0:
218,0,113516,1,4,0:0:0:0:
221,28,113631,1,2,0:2:0:0:
225,56,113746,1,2,0:2:0:0:
229,85,113862,1,2,0:2:0:0:
233,113,113977,1,8,0:0:0:0:
224,280,114208,1,2,0:0:0:0:
94,340,114439,6,0,B|28:339|-4:296|-4:296|-1:218|82:194,1,230,4|8,0:0|0:0,0:0:0:0:
133,257,115131,1,2,0:0:0:0:
241,368,115362,1,2,0:2:0:0:
257,363,115477,1,2,0:2:0:0:
273,358,115593,1,2,0:2:0:0:
224,280,115824,1,8,0:0:0:0:
313,186,116054,1,2,0:0:0:0:
432,351,116285,6,0,L|446:189,1,115,4|2,0:3|0:0,0:0:0:0:
303,71,116747,2,0,L|312:185,1,115,8|2,0:0|0:0,0:0:0:0:
207,343,117208,5,4,0:0:0:0:
222,304,117323,1,2,0:2:0:0:
223,264,117438,1,2,0:2:0:0:
211,224,117554,5,2,0:2:0:0:
187,191,117669,1,8,0:0:0:0:
154,168,117784,1,0,0:0:0:0:
114,157,117900,1,2,0:0:0:0:
74,160,118015,1,0,0:0:0:0:
47,188,118131,6,0,P|60:202|71:219,3,40.2499987716675,4|0|0|0,0:3|0:0|0:0|0:0,0:0:0:0:
64,302,118593,2,0,P|83:297|103:296,3,40.2499987716675,4|0|0|0,0:3|0:0|0:0|0:0,0:0:0:0:
171,344,119054,2,0,P|176:325|185:307,3,40.2499987716675,4|0|0|0,0:3|0:0|0:0|0:0,0:0:0:0:
260,272,119516,2,0,P|246:258|235:241,3,40.2499987716675,4|0|0|0,0:3|0:0|0:0|0:0,0:0:0:0:
242,158,119977,5,4,0:3:0:0:
277,133,120093,1,0,0:0:0:0:
316,129,120208,1,0,0:0:0:0:
354,142,120324,1,0,0:0:0:0:
382,171,120439,5,4,0:3:0:0:
349,193,120554,1,0,0:0:0:0:
309,197,120670,1,0,0:0:0:0:
271,184,120785,1,0,0:0:0:0:
215,127,120900,5,4,0:3:0:0:
176,114,121016,1,0,0:0:0:0:
137,117,121131,1,0,0:0:0:0:
102,141,121247,1,0,0:0:0:0:
132,171,121362,5,4,0:3:0:0:
169,184,121477,1,0,0:0:0:0:
208,179,121593,1,0,0:0:0:0:
242,158,121708,1,0,0:0:0:0:
251,77,121824,6,0,L|262:38,3,40.2499987716675,4|0|0|0,0:3|0:0|0:0|0:0,0:0:0:0:
341,84,122285,2,0,L|379:74,3,40.2499987716675,4|0|0|0,0:3|0:0|0:0|0:0,0:0:0:0:
379,165,122747,2,0,L|406:193,3,40.2499987716675,4|0|0|0,0:3|0:0|0:0|0:0,0:0:0:0:
327,238,123208,2,0,L|315:276,3,40.2499987716675,4|0|0|0,0:3|0:0|0:0|0:0,0:0:0:0:
237,229,123670,5,4,0:3:0:0:
198,236,123785,1,0,0:0:0:0:
165,259,123900,1,0,0:0:0:0:
143,293,124016,1,0,0:0:0:0:
135,332,124131,5,4,0:3:0:0:
163,362,124247,1,0,0:0:0:0:
197,379,124362,1,0,0:0:0:0:
237,381,124477,1,0,0:0:0:0:
306,350,124593,5,4,0:3:0:0:
314,309,124708,1,0,0:0:0:0:
306,270,124824,1,0,0:0:0:0:
286,238,124939,1,0,0:0:0:0:
251,217,125054,5,4,0:3:0:0:
224,188,125170,1,0,0:0:0:0:
210,151,125285,1,0,0:0:0:0:
211,112,125400,1,0,0:0:0:0:
176,48,125516,6,0,P|194:40|215:38,3,40.2499987716675,4|0|0|0,0:3|0:0|0:0|0:0,0:0:0:0:
290,0,125977,2,0,P|306:12|317:28,3,40.2499987716675,4|0|0|0,0:3|0:0|0:0|0:0,0:0:0:0:
393,70,126439,2,0,P|390:89|382:107,3,40.2499987716675,4|0|0|0,0:3|0:0|0:0|0:0,0:0:0:0:
383,196,126900,2,0,P|365:203|344:205,3,40.2499987716675,4|0|0|0,0:3|0:0|0:0|0:0,0:0:0:0:
300,275,127362,5,4,0:3:0:0:
260,283,127477,1,0,0:0:0:0:
220,290,127592,1,0,0:0:0:0:
181,297,127708,1,0,0:0:0:0:
141,304,127824,5,4,0:3:0:0:
154,266,127939,1,0,0:0:0:0:
168,228,128054,1,0,0:0:0:0:
182,190,128170,1,0,0:0:0:0:
164,114,128285,5,4,0:3:0:0:
204,106,128400,1,0,0:0:0:0:
244,99,128515,1,0,0:0:0:0:
283,92,128631,1,0,0:0:0:0:
323,85,128747,5,4,0:3:0:0:
310,123,128862,1,0,0:0:0:0:
296,161,128977,1,0,0:0:0:0:
282,199,129093,1,0,0:0:0:0:
262,273,129208,6,0,B|280:280|280:280|300:276,3,40.2499987716675,4|0|0|0,0:3|0:0|0:0|0:0,0:0:0:0:
383,316,129670,2,0,B|395:301|395:301|397:280,3,40.2499987716675,4|0|0|0,0:3|0:0|0:0|0:0,0:0:0:0:
461,214,130131,2,0,B|450:197|450:197|432:189,3,40.2499987716675,4|0|0|0,0:3|0:0|0:0|0:0,0:0:0:0:
388,108,130593,2,0,B|369:112|369:112|355:127,3,40.2499987716675,4|0|0|0,0:3|0:0|0:0|0:0,0:0:0:0:
264,144,131079,5,0,0:0:0:0:
388,108,131545,1,0,0:0:0:0:
461,214,132012,1,2,0:2:0:0:
383,316,132479,1,0,0:0:0:0:
121,81,132901,6,0,L|29:68,1,92,4|2,0:2|0:0,0:0:0:0:
156,189,133362,1,8,0:0:0:0:
227,312,133593,1,2,0:0:0:0:
227,312,133708,1,0,0:0:0:0:
227,312,133824,2,0,P|294:316|348:343,1,92,2|2,0:2|0:2,0:0:0:0:
411,236,134285,2,0,P|365:236|321:223,1,92,8|2,0:0|0:0,0:0:0:0:
246,117,134747,5,4,0:0:0:0:
224,109,134862,1,0,0:0:0:0:
202,100,134977,1,2,0:0:0:0:
179,93,135093,1,0,0:0:0:0:
157,86,135208,2,0,L|164:190,1,92,8|2,0:0|0:0,0:0:0:0:
57,253,135670,2,0,L|50:161,1,92,4|2,0:0|0:2,0:0:0:0:
17,36,136131,2,0,P|90:59|213:54,1,184,8|4,0:0|0:0,0:0:0:0:
323,32,136824,5,2,0:0:0:0:
323,32,136939,1,0,0:0:0:0:
323,32,137054,2,0,P|328:85|373:131,1,92,8|2,0:0|0:0,0:0:0:0:
467,170,137516,2,0,L|483:276,1,92,2|2,0:2|0:2,0:0:0:0:
387,349,137977,1,8,0:0:0:0:
274,285,138208,1,2,0:0:0:0:
153,331,138439,5,4,0:0:0:0:
130,337,138554,1,0,0:0:0:0:
107,340,138670,1,2,0:0:0:0:
84,336,138785,1,0,0:0:0:0:
62,329,138900,2,0,P|76:279|66:222,1,92,8|2,0:0|0:0,0:0:0:0:
22,120,139362,1,4,0:0:0:0:
145,157,139593,1,2,0:2:0:0:
145,157,139708,1,2,0:2:0:0:
145,157,139824,2,0,P|194:172|251:164,1,92,8|2,0:0|0:0,0:0:0:0:
356,129,140285,6,0,L|375:251,1,92,4|2,0:0|0:0,0:0:0:0:
492,262,140747,2,0,L|477:171,1,92,8|2,0:0|0:0,0:0:0:0:
490,42,141208,1,2,0:2:0:0:
470,55,141324,1,2,0:2:0:0:
447,58,141439,1,2,0:2:0:0:
424,52,141554,1,0,0:0:0:0:
403,42,141670,2,0,L|302:35,1,92,8|2,0:0|0:0,0:0:0:0:
183,53,142131,5,4,0:0:0:0:
183,53,142247,1,0,0:0:0:0:
183,53,142362,2,0,P|198:103|188:160,1,92,2|8,0:0|0:0,0:0:0:0:
67,114,142824,1,2,0:0:0:0:
35,238,143054,2,0,P|92:245|135:272,1,92,4|2,0:0|0:2,0:0:0:0:
228,334,143516,2,0,P|269:353|314:357,1,92,8|2,0:0|0:0,0:0:0:0:
417,279,143977,6,0,B|440:211|340:177|375:94,1,184,4|8,0:0|0:0,0:0:0:0:
245,74,144670,1,2,0:0:0:0:
245,74,144785,1,0,0:0:0:0:
245,74,144900,2,0,L|129:82,1,92,2|2,0:2|0:2,0:0:0:0:
86,191,145362,2,0,L|177:184,1,92,8|2,0:0|0:0,0:0:0:0:
287,253,145824,5,4,0:0:0:0:
306,240,145939,1,0,0:0:0:0:
328,236,146054,1,2,0:0:0:0:
351,237,146170,1,0,0:0:0:0:
369,250,146285,2,0,L|391:350,1,92,8|2,0:0|0:0,0:0:0:0:
264,376,146747,1,4,0:0:0:0:
241,371,146862,1,2,0:2:0:0:
218,366,146977,1,2,0:2:0:0:
195,361,147093,1,2,0:2:0:0:
172,356,147208,2,0,P|191:303|177:247,1,92,8|2,0:0|0:0,0:0:0:0:
45,172,147670,6,0,P|70:217|125:220,1,92,4|2,0:0|0:0,0:0:0:0:
268,35,148131,2,0,P|216:49|170:168,2,184,10|2|10,0:1|0:1|0:1,0:0:0:0:
327,166,149285,1,2,0:0:0:0:
418,66,149516,5,4,0:0:0:0:
418,66,149631,1,0,0:0:0:0:
418,66,149747,1,2,0:0:0:0:
327,166,149977,1,8,0:0:0:0:
462,197,150208,1,2,0:0:0:0:
401,142,150439,6,0,P|413:201|429:275,1,92,4|2,0:0|0:2,0:0:0:0:
320,352,150900,2,0,P|332:293|348:219,1,92,8|2,0:0|0:0,0:0:0:0:
232,32,151362,6,0,P|247:109|270:235,1,184,4|8,0:0|0:0,0:0:0:0:
254,226,151939,1,0,0:0:0:0:
243,236,152054,1,2,0:0:0:0:
136,363,152285,2,0,P|154:310|166:239,1,92,2|2,0:2|0:2,0:0:0:0:
29,174,152747,2,0,P|48:221|106:228,1,92,8|2,0:0|0:0,0:0:0:0:
166,80,153208,6,0,P|119:80|94:140,1,92,4|2,0:0|0:0,0:0:0:0:
149,179,153670,2,0,P|222:163|351:151,1,184,8|4,0:0|0:0,0:0:0:0:
342,137,154247,1,2,0:2:0:0:
352,124,154362,1,2,0:2:0:0:
362,112,154477,1,2,0:2:0:0:
372,102,154593,1,8,0:0:0:0:
343,14,154824,1,2,0:0:0:0:
434,32,155054,6,0,P|461:73|440:133,1,92,4|2,0:0|0:0,0:0:0:0:
370,299,155516,2,0,P|400:210|489:197,2,184,10|2|10,0:1|0:1|0:1,0:0:0:0:
276,192,156670,1,2,0:0:0:0:
238,330,156900,5,4,0:0:0:0:
238,330,157016,1,0,0:0:0:0:
238,330,157131,1,2,0:0:0:0:
276,193,157362,1,8,0:0:0:0:
137,230,157593,1,2,0:0:0:0:
216,252,157824,6,0,P|223:193|241:126,1,92,4|2,0:0|0:2,0:0:0:0:
145,22,158285,2,0,P|157:79|167:123,1,92,8|2,0:0|0:0,0:0:0:0:
47,327,158747,6,0,P|70:241|92:134,1,184,4|8,0:0|0:0,0:0:0:0:
82,134,159324,1,0,0:0:0:0:
74,122,159439,1,2,0:0:0:0:
161,226,159670,2,0,P|206:234|227:280,1,92,2|2,0:2|0:2,0:0:0:0:
362,319,160131,2,0,P|352:359|289:369,1,92,8|2,0:0|0:0,0:0:0:0:
304,259,160593,5,0,0:0:0:0:
256,192,160708,12,0,161977,0:0:0:0:
154,56,162439,6,0,P|207:58|270:106,1,103.499996841431,4|2,0:0|0:0,0:0:0:0:
385,135,162900,2,0,L|463:124,2,51.7499984207154,8|0|2,0:0|0:0|0:0,0:0:0:0:
314,262,163362,2,0,B|335:295|335:295|340:366,1,103.499996841431,2|2,0:2|0:2,0:0:0:0:
172,359,163824,2,0,B|177:295|177:295|198:262,1,103.499996841431,8|2,0:0|0:0,0:0:0:0:
70,192,164285,5,4,0:0:0:0:
65,166,164400,1,0,0:0:0:0:
58,140,164516,1,2,0:0:0:0:
52,114,164631,1,0,0:0:0:0:
43,89,164747,2,0,P|101:103|178:88,1,103.499996841431,8|2,0:0|0:0,0:0:0:0:
282,54,165208,2,0,P|333:51|383:64,1,103.499996841431,4|2,0:0|0:2,0:0:0:0:
466,208,165670,2,0,P|414:210|364:197,1,103.499996841431,8|2,0:0|0:0,0:0:0:0:
225,287,166131,6,0,P|323:285|420:360,1,206.999993682861,4|8,0:0|0:0,0:0:0:0:
466,208,166824,1,2,0:0:0:0:
322,191,167054,1,2,0:2:0:0:
300,175,167170,1,2,0:2:0:0:
285,153,167285,1,2,0:2:0:0:
281,127,167400,1,0,0:0:0:0:
290,102,167516,2,0,L|160:93,1,103.499996841431,8|2,0:0|0:0,0:0:0:0:
63,206,167977,6,0,P|155:240|204:349,1,206.999993682861,4|8,0:0|0:0,0:0:0:0:
60,350,168670,1,2,0:0:0:0:
63,206,168900,1,4,0:0:0:0:
80,186,169016,1,2,0:2:0:0:
91,163,169131,1,2,0:2:0:0:
91,136,169247,1,2,0:2:0:0:
82,111,169362,2,0,L|209:100,1,103.499996841431,8|2,0:0|0:0,0:0:0:0:
324,11,169824,6,0,P|381:92|300:183,1,206.999993682861,4|8,0:0|0:0,0:0:0:0:
210,255,170516,1,2,0:0:0:0:
330,336,170747,2,0,P|351:349|395:359,2,51.7499984207154,2|2|2,0:2|0:2|0:2,0:0:0:0:
210,255,171208,1,8,0:0:0:0:
273,124,171439,1,2,0:0:0:0:
129,141,171670,5,4,0:0:0:0:
141,118,171785,1,0,0:0:0:0:
142,92,171900,1,2,0:0:0:0:
128,69,172016,1,0,0:0:0:0:
104,58,172131,2,0,P|49:73|22:154,1,103.499996841431,8|0,0:0|0:0,0:0:0:0:
117,220,172593,2,0,P|85:259|36:271,1,103.499996841431,4|2,0:0|0:2,0:0:0:0:
208,342,173054,2,0,P|255:324|303:340,1,103.499996841431,8|2,0:0|0:0,0:0:0:0:
475,271,173516,6,0,P|426:259|380:113,1,206.999993682861,4|8,0:0|0:0,0:0:0:0:
255,212,174208,1,2,0:0:0:0:
128,140,174439,2,0,P|106:130|66:126,2,51.7499984207154,2|2|2,0:2|0:2|0:2,0:0:0:0:
255,212,174900,2,0,L|248:82,1,103.499996841431,8|2,0:0|0:0,0:0:0:0:
379,42,175362,6,0,B|437:140|340:141|392:248,2,206.999993682861,4|8|4,0:3|0:0|0:0,0:0:0:0:
246,102,176516,1,2,0:2:0:0:
224,115,176631,1,2,0:2:0:0:
199,123,176747,1,8,0:0:0:0:
173,119,176862,1,0,0:0:0:0:
149,109,176977,1,2,0:0:0:0:
132,88,177093,1,0,0:0:0:0:
119,65,177208,6,0,L|107:184,1,103.499996841431,4|2,0:0|0:0,0:0:0:0:
204,277,177670,2,0,P|222:313|223:347,2,51.7499984207154,8|0|2,0:0|0:0|0:0,0:0:0:0:
275,150,178131,2,0,B|320:128|320:128|384:128,1,103.499996841431,2|2,0:2|0:2,0:0:0:0:
376,272,178593,2,0,B|328:272|328:272|276:250,1,103.499996841431,8|2,0:0|0:0,0:0:0:0:
142,194,179054,5,4,0:3:0:0:
131,217,179170,1,0,0:0:0:0:
120,239,179285,1,2,0:0:0:0:
107,262,179400,1,0,0:0:0:0:
96,285,179516,2,0,P|156:307|188:356,1,103.499996841431,8|2,0:0|0:0,0:0:0:0:
331,336,179977,2,0,P|366:299|416:285,1,103.499996841431,4|2,0:0|0:2,0:0:0:0:
510,190,180439,2,0,P|471:156|420:147,1,103.499996841431,8|2,0:0|0:0,0:0:0:0:
275,154,180900,6,0,P|315:52|439:36,1,206.999993682861,4|8,0:0|0:0,0:0:0:0:
425,169,181593,1,2,0:0:0:0:
286,211,181824,1,2,0:2:0:0:
258,209,181940,1,2,0:2:0:0:
234,199,182055,1,2,0:2:0:0:
216,179,182170,1,0,0:0:0:0:
210,154,182285,2,0,L|96:217,1,103.499996841431,8|2,0:0|0:0,0:0:0:0:
2,85,182747,6,0,B|103:85|103:85|129:31|207:28,1,206.999993682861,4|8,0:3|0:0,0:0:0:0:
317,94,183439,1,2,0:0:0:0:
458,62,183670,1,4,0:0:0:0:
442,82,183785,1,2,0:2:0:0:
435,106,183900,1,2,0:2:0:0:
438,131,184016,1,2,0:2:0:0:
450,153,184131,2,0,P|395:168|354:242,1,103.499996841431,8|2,0:0|0:0,0:0:0:0:
334,365,184593,6,0,P|270:324|144:385,1,206.999993682861,4|8,0:0|0:0,0:0:0:0:
32,288,185285,1,2,0:0:0:0:
108,164,185516,2,0,P|116:136|118:93,2,51.7499984207154,2|2|2,0:2|0:2|0:2,0:0:0:0:
32,288,185977,1,8,0:0:0:0:
155,366,186208,1,2,0:0:0:0:
297,337,186439,5,4,0:3:0:0:
307,313,186554,1,0,0:0:0:0:
325,295,186670,1,2,0:0:0:0:
348,284,186785,1,0,0:0:0:0:
373,285,186900,2,0,L|400:163,1,103.499996841431,8|2,0:0|0:0,0:0:0:0:
325,32,187362,2,0,B|325:82|325:82|312:140,1,103.499996841431,4|2,0:0|0:2,0:0:0:0:
187,32,187824,2,0,B|187:82|187:82|198:134,1,103.499996841431,8|2,0:0|0:0,0:0:0:0:
168,297,188285,6,0,P|257:251|346:295,1,206.999993682861,4|8,0:0|0:0,0:0:0:0:
472,367,188977,1,2,0:0:0:0:
405,238,189208,2,0,P|397:213|397:177,2,51.7499984207154,2|2|2,0:2|0:2|0:2,0:0:0:0:
472,367,189670,2,0,L|356:348,1,103.499996841431,8|2,0:0|0:0,0:0:0:0:
207,317,190131,6,0,B|116:365|82:292|-5:326,2,206.999993682861,4|8|4,0:3|0:0|0:0,0:0:0:0:
256,184,191285,1,2,0:2:0:0:
256,160,191400,1,2,0:2:0:0:
256,136,191516,1,8,0:0:0:0:
256,112,191631,1,0,0:0:0:0:
256,88,191747,1,2,0:0:0:0:
256,64,191862,1,0,0:0:0:0:
256,40,191977,5,4,0:2:0:0:
410,256,192439,1,4,0:3:0:0:
293,24,192900,1,4,0:3:0:0:
345,284,193362,1,4,0:3:0:0:
241,28,193824,6,0,L|135:36,1,103.499996841431,4|0,0:3|0:0,0:0:0:0:
290,99,194285,1,4,0:3:0:0:
290,99,194515,1,0,0:0:0:0:
138,156,194747,1,4,0:3:0:0:
138,156,194978,1,0,0:0:0:0:
308,199,195209,2,0,L|204:206,1,103.499996841431,4|0,0:3|0:0,0:0:0:0:
258,363,195670,5,4,0:3:0:0:
262,86,196131,1,4,0:3:0:0:
217,352,196593,1,4,0:3:0:0:
276,81,197054,1,4,0:3:0:0:
370,323,197516,6,0,P|421:355|481:362,1,103.499996841431,4|0,0:3|0:0,0:0:0:0:
370,323,197977,1,4,0:3:0:0:
268,372,198208,1,0,0:0:0:0:
167,317,198439,2,0,P|129:352|81:371,1,103.499996841431,4|0,0:3|0:0,0:0:0:0:
167,317,198900,1,4,0:3:0:0:
268,372,199131,1,0,0:0:0:0:
345,262,199362,6,0,B|343:215|343:215|410:200|410:200|419:316,1,206.999993682861,4|4,0:3|0:3,0:0:0:0:
158,292,200285,2,0,B|153:245|153:245|85:239|85:239|92:356,1,206.999993682861,4|4,0:3|0:3,0:0:0:0:
276,101,201208,5,4,0:3:0:0:
407,52,201439,1,0,0:0:0:0:
424,190,201670,1,4,0:3:0:0:
292,233,201900,1,0,0:0:0:0:
180,110,202131,2,0,L|96:25,1,103.499996841431,4|0,0:3|0:0,0:0:0:0:
84,201,202593,2,0,L|121:321,1,103.499996841431,4|0,0:3|0:0,0:0:0:0:
276,257,203054,6,0,B|345:220|444:236|444:236|490:287,1,206.999993682861,4|4,0:3|0:3,0:0:0:0:
237,93,203977,2,0,B|354:56|412:64|412:64|448:90,1,206.999993682861,4|4,0:3|0:3,0:0:0:0:
152,228,204900,6,0,L|8:238,1,103.499996841431,4|0,0:3|0:0,0:0:0:0:
360,216,205362,2,0,L|463:209,1,103.499996841431,4|0,0:3|0:0,0:0:0:0:
201,114,205824,2,0,L|136:3,1,103.499996841431,4|0,0:3|0:0,0:0:0:0:
298,269,206285,2,0,L|363:379,1,103.499996841431,4|0,0:3|0:0,0:0:0:0:
284,50,206747,5,4,0:3:0:0:
119,270,207208,1,4,0:3:0:0:
383,263,207670,1,4,0:3:0:0:
208,48,208131,1,4,0:3:0:0:
385,301,208593,6,0,P|441:327|488:311,2,103.499996841431,4|0|4,0:3|0:0|0:3,0:0:0:0:
258,207,209285,1,0,0:0:0:0:
139,308,209516,2,0,P|87:342|38:333,2,103.499996841431,4|0|4,0:3|0:0|0:3,0:0:0:0:
248,211,210208,1,0,0:0:0:0:
342,98,210439,6,0,L|383:30,2,51.7499984207154,4|0|0,0:3|0:0|0:0,0:0:0:0:
307,246,210900,2,0,L|314:384,1,103.499996841431,4|0,0:3|0:0,0:0:0:0:
209,218,211362,2,0,L|188:86,1,103.499996841431,4|0,0:3|0:0,0:0:0:0:
101,254,211824,2,0,L|52:321,2,51.7499984207154,4|0|0,0:3|0:0|0:0,0:0:0:0:
223,365,212285,6,0,P|270:379|348:361,1,103.499996841431,4|0,0:3|0:0,0:0:0:0:
418,232,212747,2,0,L|461:291,2,51.7499984207154,4|0|0,0:3|0:0|0:0,0:0:0:0:
251,161,213208,2,0,L|239:52,1,103.499996841431,4|0,0:3|0:0,0:0:0:0:
267,357,213670,2,0,L|262:231,1,103.499996841431,4|0,0:3|0:0,0:0:0:0:
344,110,214131,6,0,P|391:174|363:232,1,103.499996841431,4|0,0:3|0:0,0:0:0:0:
124,212,214593,2,0,P|123:161|156:123,1,103.499996841431,4|0,0:3|0:0,0:0:0:0:
259,253,215055,1,4,0:3:0:0:
259,253,215286,1,0,0:0:0:0:
245,44,215516,2,0,L|254:166,1,103.499996841431,4|0,0:3|0:0,0:0:0:0:
355,260,215978,6,0,B|333:188|333:188|356:136,1,103.499996841431,4|0,0:3|0:0,0:0:0:0:
167,273,216439,2,0,B|178:199|178:199|148:151,1,103.499996841431,4|0,0:3|0:0,0:0:0:0:
39,370,216900,1,4,0:3:0:0:
58,356,217016,1,0,0:0:0:0:
81,351,217131,1,0,0:0:0:0:
105,355,217246,1,0,0:0:0:0:
126,364,217362,2,0,P|171:374|225:356,1,103.499996841431,4|0,0:3|0:0,0:0:0:0:
363,207,217824,6,0,P|409:271|381:329,1,103.499996841431,4|0,0:3|0:0,0:0:0:0:
285,178,218285,2,0,P|284:127|318:90,1,103.499996841431,4|0,0:3|0:0,0:0:0:0:
293,258,218747,1,4,0:3:0:0:
267,295,218862,1,0,0:0:0:0:
224,310,218978,1,0,0:0:0:0:
66,260,219208,2,0,P|39:216|44:157,1,103.499996841431,4|0,0:3|0:0,0:0:0:0:
217,174,219670,6,0,B|248:273,1,103.499996841431,4|0,0:3|0:0,0:0:0:0:
407,315,220131,2,0,P|414:255|379:196,1,103.499996841431,4|0,0:3|0:0,0:0:0:0:
167,276,220593,5,4,0:3:0:0:
123,284,220708,1,0,0:0:0:0:
75,280,220824,1,0,0:0:0:0:
36,256,220939,1,0,0:0:0:0:
6,220,221054,2,0,P|-1:192|8:160,3,51.7499984207154,4|0|0|0,0:3|0:0|0:0|0:0,0:0:0:0:
45,83,221516,5,4,0:3:0:0:
68,122,221631,1,2,0:0:0:0:
110,140,221747,1,2,0:0:0:0:
155,141,221862,1,2,0:0:0:0:
198,127,221977,2,0,L|210:51,3,57.5,4|2|2|2,0:3|0:0|0:0|0:0,0:0:0:0:
305,69,222439,5,4,0:3:0:0:
340,40,222554,1,2,0:0:0:0:
385,31,222670,1,2,0:0:0:0:
429,40,222785,1,2,0:0:0:0:
457,76,222900,2,0,L|465:152,3,57.5,4|2|2|2,0:3|0:0|0:0|0:0,0:0:0:0:
349,187,223362,5,4,0:3:0:0:
349,187,223477,1,2,0:0:0:0:
349,187,223593,2,0,L|356:264,1,57.5,2|2,0:0|0:0,0:0:0:0:
163,282,223824,1,4,0:3:0:0:
163,282,223939,1,2,0:0:0:0:
163,282,224054,2,0,L|169:210,1,57.5,2|2,0:0|0:0,0:0:0:0:
319,346,224285,5,4,0:3:0:0:
319,346,224400,1,2,0:0:0:0:
319,346,224516,2,0,L|256:357,1,57.5,2|2,0:0|0:0,0:0:0:0:
205,141,224747,1,4,0:3:0:0:
205,141,224862,1,2,0:0:0:0:
205,141,224977,2,0,L|281:147,1,57.5,2|2,0:0|0:0,0:0:0:0:
163,282,225208,5,4,0:3:0:0:
117,290,225324,1,2,0:0:0:0:
73,277,225439,1,2,0:0:0:0:
48,238,225554,1,2,0:0:0:0:
40,192,225670,2,0,L|49:128,3,57.5,4|2|2|2,0:3|0:0|0:0|0:0,0:0:0:0:
114,70,226131,5,4,0:3:0:0:
140,107,226247,1,2,0:0:0:0:
183,122,226362,1,2,0:0:0:0:
228,117,226477,1,2,0:0:0:0:
266,91,226593,2,0,L|256:34,3,57.5,4|2|2|2,0:3|0:0|0:0|0:0,0:0:0:0:
361,35,227054,5,4,0:3:0:0:
361,35,227170,1,2,0:0:0:0:
361,35,227285,2,0,L|448:46,1,57.5,2|2,0:0|0:0,0:0:0:0:
494,149,227516,1,4,0:3:0:0:
494,149,227631,1,2,0:0:0:0:
494,149,227747,2,0,L|425:155,1,57.5,2|2,0:0|0:0,0:0:0:0:
304,246,227977,5,4,0:3:0:0:
304,246,228093,1,2,0:0:0:0:
304,246,228208,2,0,L|391:257,1,57.5,2|2,0:0|0:0,0:0:0:0:
460,351,228439,1,4,0:3:0:0:
460,351,228554,1,2,0:0:0:0:
460,351,228670,2,0,L|391:357,1,57.5,2|2,0:0|0:0,0:0:0:0:
219,314,228900,5,4,0:3:0:0:
180,339,229016,1,2,0:0:0:0:
134,347,229131,1,2,0:0:0:0:
91,329,229247,1,2,0:0:0:0:
66,290,229362,2,0,L|74:226,3,57.5,4|2|2|2,0:3|0:0|0:0|0:0,0:0:0:0:
18,125,229824,5,4,0:3:0:0:
54,93,229939,1,2,0:0:0:0:
100,85,230054,1,2,0:0:0:0:
143,97,230170,1,2,0:0:0:0:
174,135,230285,2,0,L|164:194,3,57.5,4|2|2|2,0:3|0:0|0:0|0:0,0:0:0:0:
249,341,230747,5,4,0:3:0:0:
249,341,230862,1,2,0:0:0:0:
249,341,230977,2,0,L|328:329,1,57.5,2|2,0:0|0:0,0:0:0:0:
421,265,231208,1,4,0:3:0:0:
421,265,231324,1,2,0:0:0:0:
421,265,231439,2,0,L|342:251,1,57.5,2|2,0:0|0:0,0:0:0:0:
253,168,231670,5,4,0:3:0:0:
253,168,231785,1,2,0:0:0:0:
253,168,231900,2,0,L|261:83,1,57.5,2|2,0:0|0:0,0:0:0:0:
409,41,232131,1,4,0:3:0:0:
409,41,232247,1,2,0:0:0:0:
409,41,232362,2,0,L|404:109,1,57.5,2|2,0:0|0:0,0:0:0:0:
253,168,232593,5,4,0:3:0:0:
213,144,232708,1,2,0:0:0:0:
166,141,232824,1,2,0:0:0:0:
125,163,232939,1,2,0:0:0:0:
104,204,233054,2,0,L|117:264,3,57.5,4|2|2|2,0:3|0:0|0:0|0:0,0:0:0:0:
13,143,233516,5,4,0:3:0:0:
5,97,233631,1,2,0:0:0:0:
24,55,233747,1,2,0:0:0:0:
64,33,233862,1,2,0:0:0:0:
109,28,233977,2,0,L|172:46,3,57.5,4|2|2|2,0:3|0:0|0:0|0:0,0:0:0:0:
219,146,234439,5,4,0:3:0:0:
258,169,234554,1,2,0:0:0:0:
304,169,234670,1,2,0:0:0:0:
347,154,234785,1,2,0:0:0:0:
379,121,234900,1,4,0:3:0:0:
423,109,235016,1,2,0:0:0:0:
467,118,235131,1,2,0:0:0:0:
497,152,235247,1,2,0:0:0:0:
492,197,235362,6,0,L|480:276,1,57.5,4|2,0:3|0:0,0:0:0:0:
352,352,235593,2,0,L|364:279,1,57.5,2|2,0:0|0:0,0:0:0:0:
175,229,235824,6,0,L|186:311,1,57.5,4|2,0:3|0:0,0:0:0:0:
61,366,236054,2,0,L|51:298,1,57.5,2|2,0:0|0:0,0:0:0:0:
0,187,236285,5,8,0:0:0:0:
32,10,236516,1,2,0:0:0:0:
222,37,236747,1,8,0:0:0:0:
175,229,236977,1,2,0:0:0:0:
152,128,237208,2,0,B|274:116|229:211|391:190,1,230,8|8,0:0|0:0,0:0:0:0:
470,253,237900,1,2,0:0:0:0:
468,131,238131,5,8,0:0:0:0:
354,307,238362,1,2,0:0:0:0:
353,69,238593,1,8,0:0:0:0:
255,194,238824,1,2,0:0:0:0:
154,61,239054,2,0,P|76:59|59:194,1,230,8|8,0:0|0:0,0:0:0:0:
257,363,239747,1,2,0:0:0:0:
134,305,239977,6,0,L|152:191,1,115,8|2,0:0|0:0,0:0:0:0:
371,192,240439,2,0,L|390:306,1,115,8|2,0:0|0:0,0:0:0:0:
30,306,240900,2,0,L|49:192,1,115,8|2,0:0|0:0,0:0:0:0:
462,192,241362,2,0,L|482:306,1,115,8|2,0:0|0:0,0:0:0:0:
255,257,241824,5,8,0:0:0:0:
132,137,242054,1,2,0:0:0:0:
257,30,242285,1,8,0:0:0:0:
386,138,242516,1,2,0:0:0:0:
331,305,242747,2,0,P|293:363|177:292,1,230,8|8,0:0|0:0,0:0:0:0:
57,192,243439,1,2,0:0:0:0:
256,87,243670,5,8,0:0:0:0:
256,297,243900,1,2,0:0:0:0:
200,26,244131,2,0,P|253:5|306:24,1,115,8|2,0:0|0:0,0:0:0:0:
311,357,244593,2,0,P|258:378|205:359,1,115,8|2,0:0|0:0,0:0:0:0:
135,191,245054,1,8,0:0:0:0:
366,193,245285,1,2,0:0:0:0:
256,297,245516,5,8,0:0:0:0:
256,87,245747,1,2,0:0:0:0:
205,359,245977,2,0,P|258:378|311:357,1,115,8|2,0:0|0:0,0:0:0:0:
306,24,246439,2,0,P|253:5|200:26,1,115,8|2,0:0|0:0,0:0:0:0:
135,191,246900,1,8,0:0:0:0:
366,193,247131,1,2,0:0:0:0:
205,359,247362,6,0,B|200:295|140:284|140:284|84:333|28:293,1,230,8|8,0:0|0:0,0:0:0:0:
307,354,248054,2,0,B|312:290|372:279|372:279|428:328|484:288,1,230,2|2,0:0|0:0,0:0:0:0:
255,30,248747,1,8,0:0:0:0:
135,191,248977,1,2,0:0:0:0:
256,272,249208,5,2,0:0:0:0:
256,192,249324,12,2,250593,2:0:0:0:
406,79,251054,6,0,P|379:162|393:192,1,103.499996841431,8|2,0:2|0:0,0:0:0:0:
256,246,251516,2,0,L|256:306,2,51.7499984207154,8|0|2,0:0|0:0|0:0,0:0:0:0:
210,108,251977,2,0,B|160:120|160:120|100:120,1,103.499996841431,2|2,0:2|0:2,0:0:0:0:
107,264,252439,2,0,B|160:264|160:264|210:276,1,103.499996841431,8|2,0:0|0:0,0:0:0:0:
343,333,252900,5,4,0:0:0:0:
326,312,253016,1,0,0:0:0:0:
315,288,253131,1,2,0:0:0:0:
314,261,253247,1,0,0:0:0:0:
327,238,253362,2,0,L|351:128,1,103.499996841431,8|2,0:0|0:0,0:0:0:0:
233,48,253824,2,0,P|184:30|114:39,1,103.499996841431,4|2,0:0|0:2,0:0:0:0:
13,145,254285,2,0,P|60:163|112:161,1,103.499996841431,8|2,0:0|0:0,0:0:0:0:
227,281,254747,6,0,P|141:268|42:351,1,206.999993682861,4|8,0:0|0:0,0:0:0:0:
77,193,255439,1,2,0:0:0:0:
28,56,255670,1,2,0:2:0:0:
53,56,255785,1,2,0:2:0:0:
78,52,255900,1,2,0:2:0:0:
103,49,256016,1,0,0:0:0:0:
128,48,256131,2,0,P|141:98|182:144,1,103.499996841431,8|2,0:0|0:0,0:0:0:0:
331,188,256593,6,0,P|261:212|207:328,1,206.999993682861,4|8,0:0|0:0,0:0:0:0:
351,335,257285,1,2,0:0:0:0:
331,188,257516,1,4,0:0:0:0:
310,172,257631,1,2,0:2:0:0:
298,148,257747,1,2,0:2:0:0:
296,122,257862,1,2,0:2:0:0:
306,98,257977,2,0,L|166:86,1,103.499996841431,8|2,0:0|0:0,0:0:0:0:
109,201,258439,6,0,L|315:218,1,206.999993682861,4|8,0:0|0:0,0:0:0:0:
415,322,259131,1,2,0:0:0:0:
433,178,259362,2,0,P|439:141|458:110,2,51.7499984207154,2|2|2,0:2|0:2|0:2,0:0:0:0:
415,322,259824,1,8,0:0:0:0:
273,295,260054,1,2,0:0:0:0:
133,335,260285,5,4,0:0:0:0:
109,323,260400,1,0,0:0:0:0:
83,316,260516,1,2,0:0:0:0:
57,317,260631,1,0,0:0:0:0:
32,326,260747,2,0,L|25:213,1,103.499996841431,8|0,0:0|0:0,0:0:0:0:
67,83,261208,2,0,P|130:104|195:84,1,103.499996841431,4|2,0:0|0:2,0:0:0:0:
331,98,261670,2,0,P|382:101|429:82,1,103.499996841431,8|2,0:0|0:0,0:0:0:0:
457,245,262131,6,0,P|376:211|271:265,1,206.999993682861,4|8,0:0|0:0,0:0:0:0:
165,356,262824,1,2,0:0:0:0:
190,213,263054,2,0,P|197:178|190:135,2,51.7499984207154,2|2|2,0:2|0:2|0:2,0:0:0:0:
165,356,263516,2,0,L|29:364,1,103.499996841431,8|2,0:0|0:0,0:0:0:0:
53,217,263977,6,0,B|16:148|142:84|76:2,2,206.999993682861,4|8|4,0:3|0:0|0:0,0:0:0:0:
162,312,265131,1,2,0:2:0:0:
185,301,265247,1,2,0:2:0:0:
210,299,265362,1,8,0:0:0:0:
235,300,265477,1,0,0:0:0:0:
259,309,265593,1,2,0:0:0:0:
279,324,265708,1,0,0:0:0:0:
291,343,265824,6,0,L|308:218,1,103.499996841431,4|2,0:0|0:0,0:0:0:0:
208,104,266285,2,0,L|221:206,1,103.499996841431,8|2,0:0|0:0,0:0:0:0:
304,64,266747,2,0,P|240:8|108:64,1,206.999993682861,2|8,0:2|0:0,0:0:0:0:
72,188,267439,1,2,0:0:0:0:
128,344,267670,6,0,L|240:332,1,103.499996841431,4|2,0:3|0:0,0:0:0:0:
388,280,268131,2,0,L|276:268,1,103.499996841431,8|2,0:0|0:0,0:0:0:0:
72,188,268593,1,4,0:0:0:0:
179,327,268824,1,2,0:2:0:0:
244,164,269054,1,8,0:0:0:0:
139,22,269285,1,2,0:0:0:0:
322,211,269516,6,0,B|350:159|318:115|318:115|282:67|314:15,1,206.999993682861,4|8,0:0|0:0,0:0:0:0:
484,57,270208,1,2,0:0:0:0:
332,224,270439,2,0,P|388:228|432:256,1,103.499996841431,2|2,0:2|0:2,0:0:0:0:
268,326,270900,2,0,P|223:351|172:353,1,103.499996841431,8|2,0:0|0:0,0:0:0:0:
44,92,271362,6,0,P|84:164|76:300,2,206.999993682861,4|8|4,0:3|0:0|0:0,0:0:0:0:
65,90,272401,1,0,0:0:0:0:
90,94,272516,1,2,0:2:0:0:
272,172,272747,1,8,0:0:0:0:
297,177,272862,1,0,0:0:0:0:
322,175,272977,1,2,0:0:0:0:
346,166,273093,1,0,0:0:0:0:
367,150,273208,6,0,P|368:216|400:260,1,103.499996841431,4|2,0:0|0:0,0:0:0:0:
300,84,273670,2,0,P|234:84|190:116,1,103.499996841431,8|2,0:0|0:0,0:0:0:0:
156,260,274131,1,2,0:2:0:0:
184,96,274362,1,2,0:2:0:0:
332,320,274593,1,8,0:0:0:0:
172,272,274824,1,2,0:0:0:0:
292,160,275054,6,0,P|368:156|476:244,1,206.999993682861,4|8,0:3|0:0,0:0:0:0:
332,320,275747,1,2,0:0:0:0:
260,44,275977,2,0,L|288:152,1,103.499996841431,4|2,0:0|0:2,0:0:0:0:
124,112,276439,2,0,L|202:191,1,103.499996841431,8|2,0:0|0:0,0:0:0:0:
40,242,276900,6,0,B|144:270|144:270|204:174,1,206.999993682861,4|8,0:0|0:0,0:0:0:0:
72,76,277593,1,2,0:0:0:0:
255,85,277824,2,0,L|259:17,2,51.7499984207154,2|2|2,0:2|0:2|0:2,0:0:0:0:
424,96,278285,1,8,0:0:0:0:
364,252,278516,1,2,0:0:0:0:
216,180,278747,6,0,B|176:176|148:216|148:216|96:212|72:264|72:264|92:336|192:356,1,310.499990524292,4|2,0:3|0:0,0:0:0:0:
280,228,279670,2,0,P|288:148|152:128,1,206.999993682861,4|8,0:0|0:0,0:0:0:0:
180,272,280362,5,2,0:0:0:0:
387,211,280593,5,4,0:0:0:0:
373,188,280708,1,0,0:0:0:0:
364,163,280824,1,2,0:0:0:0:
368,137,280939,1,0,0:0:0:0:
404,62,281054,2,0,L|320:52,3,51.7499984207154,8|0|2|0,0:0|0:0|0:0|0:0,0:0:0:0:
274,85,281516,6,0,L|190:95,3,51.7499984207154,2|2|2|0,0:2|0:2|0:2|0:0,0:0:0:0:
141,70,281978,1,8,0:0:0:0:
154,91,282093,1,0,0:0:0:0:
161,115,282209,1,2,0:0:0:0:
159,140,282324,1,0,0:0:0:0:
127,216,282439,6,0,P|152:220|190:236,3,51.7499984207154,4|0|2|0,0:0|0:0|0:0|0:0,0:0:0:0:
244,276,282900,2,0,P|268:284|293:288,3,51.7499984207154,8|0|2|0,0:0|0:0|0:0|0:0,0:0:0:0:
360,340,283363,5,4,0:0:0:0:
381,325,283478,1,2,0:2:0:0:
406,322,283593,1,2,0:2:0:0:
431,325,283709,1,2,0:2:0:0:
495,273,283824,2,0,L|502:207,3,51.7499984207154,8|0|2|0,0:0|0:0|0:0|0:0,0:0:0:0:
433,171,284286,5,4,0:0:0:0:
408,177,284401,1,0,0:0:0:0:
382,180,284517,1,2,0:0:0:0:
356,177,284632,1,0,0:0:0:0:
284,135,284747,2,0,L|274:198,3,51.7499984207154,8|0|2|0,0:0|0:0|0:0|0:0,0:0:0:0:
215,242,285208,6,0,L|205:305,3,51.7499984207154,2|2|2|0,0:2|0:2|0:2|0:0,0:0:0:0:
133,332,285670,1,8,0:0:0:0:
119,309,285786,1,0,0:0:0:0:
100,290,285901,1,2,0:0:0:0:
75,282,286017,1,0,0:0:0:0:
22,219,286131,6,0,P|18:188|24:147,3,51.7499984207154,4|0|2|0,0:0|0:0|0:0|0:0,0:0:0:0:
69,101,286593,2,0,P|70:75|66:49,3,51.7499984207154,8|0|2|0,0:0|0:0|0:0|0:0,0:0:0:0:
147,63,287054,5,4,0:0:0:0:
172,70,287170,1,2,0:2:0:0:
196,77,287285,1,2,0:2:0:0:
221,82,287400,1,2,0:2:0:0:
300,58,287516,2,0,L|373:45,3,51.7499984207154,8|0|2|0,0:0|0:0|0:0|0:0,0:0:0:0:
402,113,287977,5,4,0:0:0:0:
402,113,288093,1,0,0:0:0:0:
402,113,288208,1,2,0:0:0:0:
384,131,288324,1,0,0:0:0:0:
377,155,288439,1,8,0:0:0:0:
376,180,288554,1,0,0:0:0:0:
383,204,288670,1,2,0:0:0:0:
397,225,288785,1,0,0:0:0:0:
466,269,288900,6,0,L|467:328,3,51.7499984207154,2|2|2|0,0:2|0:2|0:2|0:0,0:0:0:0:
385,303,289362,2,0,L|384:354,3,51.7499984207154,8|0|2|0,0:0|0:0|0:0|0:0,0:0:0:0:
304,330,289824,5,4,0:0:0:0:
280,319,289939,1,0,0:0:0:0:
254,315,290054,1,2,0:0:0:0:
228,319,290170,1,0,0:0:0:0:
206,333,290285,1,8,0:0:0:0:
196,309,290400,1,0,0:0:0:0:
186,284,290516,1,0,0:0:0:0:
178,259,290631,1,0,0:0:0:0:
135,187,290747,6,0,P|161:187|199:179,3,51.7499984207154,4|2|2|2,0:0|0:2|0:2|0:2,0:0:0:0:
261,149,291208,2,0,P|286:144|312:144,3,51.7499984207154,8|0|2|0,0:0|0:0|0:0|0:0,0:0:0:0:
387,181,291670,5,4,0:0:0:0:
387,181,291785,1,0,0:0:0:0:
387,181,291900,1,2,0:0:0:0:
412,187,292016,1,0,0:0:0:0:
437,190,292131,1,8,0:0:0:0:
460,179,292247,1,0,0:0:0:0:
477,159,292362,1,2,0:0:0:0:
486,135,292477,1,0,0:0:0:0:
459,61,292593,6,0,L|399:52,3,51.7499984207154,2|2|2|0,0:2|0:2|0:2|0:0,0:0:0:0:
335,80,293054,2,0,L|275:89,3,51.7499984207154,8|0|2|0,0:0|0:0|0:0|0:0,0:0:0:0:
216,48,293516,5,4,0:3:0:0:
206,71,293631,1,0,0:0:0:0:
184,86,293747,1,2,0:0:0:0:
158,88,293862,1,0,0:0:0:0:
132,84,293977,1,8,0:0:0:0:
108,73,294093,1,0,0:0:0:0:
83,65,294208,1,2,0:0:0:0:
58,57,294324,1,0,0:0:0:0:
64,139,294439,6,0,P|71:172|69:203,3,51.7499984207154,4|2|2|2,0:0|0:2|0:2|0:2,0:0:0:0:
48,269,294900,2,0,P|48:294|54:319,3,51.7499984207154,8|0|2|0,0:0|0:0|0:0|0:0,0:0:0:0:
128,356,295362,5,4,0:0:0:0:
153,361,295477,1,0,0:0:0:0:
179,362,295592,1,2,0:0:0:0:
204,358,295708,1,0,0:0:0:0:
228,348,295824,2,0,L|239:225,1,103.499996841431,8|2,0:0|0:0,0:0:0:0:
340,116,296285,2,0,P|324:172|392:328,1,206.999993682861,2|8,0:2|0:0,0:0:0:0:
488,192,296977,1,2,0:0:0:0:
392,56,297208,5,4,0:3:0:0:
369,43,297323,1,0,0:0:0:0:
344,37,297438,1,2,0:0:0:0:
318,40,297554,1,0,0:0:0:0:
295,50,297670,2,0,L|236:40,3,51.7499984207154,8|0|2|0,0:0|0:0|0:0|0:0,0:0:0:0:
180,92,298131,2,0,L|129:101,3,51.7499984207154,4|2|2|2,0:0|0:2|0:2|0:2,0:0:0:0:
68,44,298593,1,8,0:0:0:0:
116,204,298824,1,2,0:0:0:0:
276,168,299054,6,0,L|256:100,2,51.7499984207154,4|0|2,0:0|0:0|0:0,0:0:0:0:
172,296,299516,2,0,L|157:345,2,51.7499984207154,8|0|2,0:0|0:0|0:0,0:0:0:0:
336,312,299977,2,0,P|400:264|408:224,1,103.499996841431,2|2,0:2|0:2,0:0:0:0:
288,124,300439,2,0,P|224:172|216:212,1,103.499996841431,8|2,0:0|0:0,0:0:0:0:
276,32,300900,6,0,P|176:68|124:184,1,206.999993682861,4|8,0:3|0:0,0:0:0:0:
232,280,301593,1,2,0:0:0:0:
380,208,301824,1,4,0:0:0:0:
382,182,301939,1,2,0:2:0:0:
384,156,302054,1,2,0:2:0:0:
383,130,302170,1,2,0:2:0:0:
381,104,302285,2,0,L|328:64,3,51.7499984207154,8|0|2|0,0:0|0:0|0:0|0:0,0:0:0:0:
264,104,302747,5,4,0:0:0:0:
238,102,302862,1,0,0:0:0:0:
212,100,302977,1,2,0:0:0:0:
186,98,303093,1,0,0:0:0:0:
160,96,303208,2,0,L|100:64,3,51.7499984207154,8|0|2|0,0:0|0:0|0:0|0:0,0:0:0:0:
100,156,303670,2,0,L|54:180,3,51.7499984207154,2|2|2|0,0:2|0:2|0:2|0:0,0:0:0:0:
116,236,304131,1,8,0:0:0:0:
138,249,304246,1,0,0:0:0:0:
162,257,304361,1,2,0:0:0:0:
188,260,304477,1,0,0:0:0:0:
214,259,304593,6,0,L|212:324,1,51.7499984207154,4|0,0:3|0:0,0:0:0:0:
292,288,304824,2,0,L|320:344,1,51.7499984207154,2|0,0:0|0:0,0:0:0:0:
376,280,305054,2,0,L|444:312,1,51.7499984207154,8|0,0:0|0:0,0:0:0:0:
440,220,305285,2,0,L|496:208,1,51.7499984207154,2|0,0:0|0:0,0:0:0:0:
456,132,305516,1,4,0:0:0:0:
430,129,305631,1,2,0:2:0:0:
405,121,305746,1,2,0:2:0:0:
383,107,305862,1,2,0:2:0:0:
365,89,305977,2,0,L|368:24,3,51.7499984207154,8|0|2|0,0:0|0:0|0:0|0:0,0:0:0:0:
288,64,306439,5,4,0:0:0:0:
265,76,306554,1,0,0:0:0:0:
240,84,306669,1,2,0:0:0:0:
215,84,306785,1,0,0:0:0:0:
189,78,306900,2,0,L|144:40,3,51.7499984207154,8|0|2|0,0:0|0:0|0:0|0:0,0:0:0:0:
120,124,307362,2,0,L|148:228,1,103.499996841431,2|2,0:2|0:2,0:0:0:0:
296,152,307824,1,8,0:0:0:0:
288,316,308054,1,2,0:0:0:0:
320,144,308285,6,0,L|428:116,1,103.499996841431,4|2,0:3|0:0,0:0:0:0:
192,144,308747,2,0,L|84:116,1,103.499996841431,8|2,0:0|0:0,0:0:0:0:
216,236,309208,2,0,L|164:232,2,51.7499984207154,4|2|2,0:0|0:2|0:2,0:0:0:0:
256,236,309554,1,2,0:2:0:0:
296,236,309670,2,0,L|348:232,3,51.7499984207154,8|0|2|0,0:0|0:0|0:0|0:0,0:0:0:0:
414,183,310131,6,0,L|410:127,3,51.7499984207154,4|0|0|0,0:2|0:0|0:0|0:0,0:0:0:0:
327,122,310593,2,0,L|284:85,3,51.7499984207154,8|0|0|0,0:0|0:0|0:0|0:0,0:0:0:0:
212,121,311054,2,0,L|156:125,3,51.7499984207154,4|0|0|0,0:3|0:0|0:0|0:0,0:0:0:0:
151,208,311516,2,0,L|114:250,3,51.7499984207154,8|0|0|0,0:0|0:0|0:0|0:0,0:0:0:0:
151,321,311977,6,0,P|206:308|269:320,1,103.499996841431,4|0,0:3|0:0,0:0:0:0:
410,364,312439,1,8,0:0:0:0:
252,313,312670,1,0,0:0:0:0:
360,250,312900,2,0,B|393:202|393:202|367:55,1,206.999993682861,4|8,0:3|0:0,0:0:0:0:
367,55,313824,6,0,L|306:62,3,51.7499984207154,4|0|0|0,0:0|0:0|0:0|0:0,0:0:0:0:
238,32,314285,2,0,L|177:25,3,51.7499984207154,8|0|0|0,0:0|0:0|0:0|0:0,0:0:0:0:
181,109,314747,2,0,L|120:116,3,51.7499984207154,4|0|0|0,0:3|0:0|0:0|0:0,0:0:0:0:
52,86,315208,2,0,L|-9:79,3,51.7499984207154,8|0|0|0,0:0|0:0|0:0|0:0,0:0:0:0:
0,161,315670,5,4,0:3:0:0:
129,114,315900,1,0,0:0:0:0:
90,208,316131,2,0,L|93:314,1,103.499996841431,8|0,0:0|0:0,0:0:0:0:
348,278,316593,2,0,P|298:235|169:284,1,206.999993682861,4|8,0:3|0:0,0:0:0:0:
174,273,317516,6,0,P|210:303|274:295,1,103.499996841431,4|0,0:0|0:0,0:0:0:0:
348,147,317977,2,0,P|297:143|257:174,1,103.499996841431,8|0,0:0|0:0,0:0:0:0:
409,272,318439,1,4,0:3:0:0:
414,233,318554,1,0,0:0:0:0:
404,196,318669,1,0,0:0:0:0:
380,165,318785,1,0,0:0:0:0:
348,147,318900,2,0,P|297:150|257:119,1,103.499996841431,8|0,0:0|0:0,0:0:0:0:
418,29,319362,5,4,0:3:0:0:
396,43,319477,1,0,0:0:0:0:
372,52,319592,1,0,0:0:0:0:
346,55,319708,1,0,0:0:0:0:
321,52,319823,1,8,0:0:0:0:
299,37,319939,1,0,0:0:0:0:
275,28,320054,1,0,0:0:0:0:
249,25,320170,1,0,0:0:0:0:
224,28,320285,6,0,P|171:48|113:44,1,103.499996841431,4|0,0:3|0:0,0:0:0:0:
0,148,320747,2,0,P|53:128|111:132,1,103.499996841431,8|0,0:0|0:0,0:0:0:0:
148,266,321208,5,4,0:0:0:0:
122,260,321323,1,0,0:0:0:0:
100,248,321438,1,0,0:0:0:0:
81,230,321554,1,0,0:0:0:0:
68,208,321669,1,8,0:0:0:0:
153,184,321900,1,0,0:0:0:0:
234,296,322131,2,0,B|279:339|279:339|429:340,1,206.999993682861,4|8,0:3|0:0,0:0:0:0:
423,339,323054,6,0,P|396:288|406:238,1,103.499996841431,4|0,0:3|0:0,0:0:0:0:
392,81,323516,2,0,P|400:117|397:151,1,51.7499984207154,8|0,0:0|0:0,0:0:0:0:
433,203,323747,2,0,P|413:234|387:256,1,51.7499984207154
317,264,323977,1,4,0:3:0:0:
170,148,324208,1,0,0:0:0:0:
94,318,324439,2,0,P|156:323|234:209,1,206.999993682861,8|4,0:0|0:2,0:0:0:0:
80,179,325362,5,4,0:3:0:0:
77,158,325824,1,4,0:3:0:0:
74,137,326285,1,4,0:3:0:0:
71,116,326747,6,0,B|137:116|137:116|198:147|198:147|294:147,1,206.999993682861,4|4,0:3|0:3,0:0:0:0:
372,289,327670,2,0,P|284:247|277:132,1,206.999993682861,4|4,0:3|0:3,0:0:0:0:
427,79,328593,5,4,0:3:0:0:
411,92,329054,1,4,0:3:0:0:
392,100,329516,1,4,0:3:0:0:
372,104,329977,1,4,0:3:0:0:
354,104,330439,6,0,B|397:127|397:127|409:293,1,206.999993682861,4|4,0:3|0:3,0:0:0:0:
222,245,331362,2,0,P|284:292|431:269,1,206.999993682861,4|4,0:3|0:3,0:0:0:0:
161,169,332285,6,0,P|129:229|143:284,1,103.499996841431,4|0,0:3|0:0,0:0:0:0:
143,262,332747,2,0,P|162:327|211:356,1,103.499996841431,4|0,0:3|0:0,0:0:0:0:
199,345,333208,2,0,P|259:377|314:363,1,103.499996841431,4|0,0:3|0:0,0:0:0:0:
292,363,333670,2,0,P|357:343|386:294,1,103.499996841431,4|0,0:3|0:0,0:0:0:0:
377,306,334131,5,4,0:3:0:0:
355,117,334593,2,0,B|393:153|393:153|376:306,2,206.999993682861,4|4|4,0:3|0:3|0:3,0:0:0:0:
227,46,335977,6,0,B|176:46|176:46|122:77,1,103.499996841431,4|0,0:3|0:0,0:0:0:0:
133,82,336439,2,0,B|97:117|97:117|80:177,1,103.499996841431,4|0,0:3|0:0,0:0:0:0:
91,175,336900,2,0,B|91:225|91:225|122:279,1,103.499996841431,4|0,0:3|0:0,0:0:0:0:
127,269,337362,2,0,B|162:303|162:303|222:320,1,103.499996841431,4|0,0:3|0:0,0:0:0:0:
219,313,337848,6,0,B|243:315|243:315|268:302,2,46,2|2|0,0:2|0:2|0:0,0:0:0:0:
234,219,339235,1,2,0:2:0:0:
256,192,339350,12,0,342927,0:0:0:0:
