osu file format v14

[General]
AudioFilename: audio.mp3
AudioLeadIn: 0
PreviewTime: 41249
Countdown: 0
SampleSet: Soft
StackLeniency: 0.2
Mode: 0
LetterboxInBreaks: 0
WidescreenStoryboard: 0

[Editor]
DistanceSpacing: 0.8
BeatDivisor: 4
GridSize: 4
TimelineZoom: 3.499999

[Metadata]
Title:Labyrinth
TitleUnicode:Labyrinth
Artist:Mr.Kitty
ArtistUnicode:Mr.Kitty
Creator:Gordon123
Version:KittyAdventure's Medium
Source:
Tags:goth new wave gothic life english synthpop post-punk electronic danielexus KittyAdventure Daycore
BeatmapID:2113621
BeatmapSetID:986247

[Difficulty]
HPDrainRate:4
CircleSize:3
OverallDifficulty:4
ApproachRate:5
SliderMultiplier:1.20000000596046
SliderTickRate:2

[Events]
//Background and Video events
0,0,"cuteriffy.jpg",0,0
//Break Periods
//Storyboard Layer 0 (Background)
//Storyboard Layer 1 (Fail)
//Storyboard Layer 2 (Pass)
//Storyboard Layer 3 (Foreground)
//Storyboard Layer 4 (Overlay)
//Storyboard Sound Samples

[TimingPoints]
107,428.571428571429,4,2,1,20,1,0
13821,-100,4,2,1,40,0,0
41249,-100,4,2,1,50,0,1
54910,-100,4,2,1,50,0,1
54964,-100,4,2,1,50,0,1
68678,-100,4,2,1,40,0,0
96107,-100,4,2,1,50,0,1
109767,-100,4,2,1,50,0,1
109821,-100,4,2,1,50,0,1
123535,-100,4,2,1,40,0,0

[Colours]
Combo1 : 79,111,142
Combo2 : 188,169,203
Combo3 : 197,120,120
Combo4 : 153,187,130

[HitObjects]
37,115,13821,6,0,P|90:75|150:88,1,120.000000596046,4|8,0:3|0:2,0:0:0:0:
178,111,14464,2,0,L|172:239,1,120.000000596046,4|4,0:3|0:3,0:0:0:0:
148,272,15107,1,8,0:2:0:0:
246,339,15535,6,0,B|303:360|303:360|360:339,1,120.000000596046,4|8,0:3|0:2,0:0:0:0:
404,326,16178,2,0,L|395:200,1,120.000000596046,4|4,0:3|0:3,0:0:0:0:
417,163,16821,1,8,0:2:0:0:
330,80,17249,6,0,B|253:61|286:109|213:88,1,120.000000596046,4|8,0:3|0:2,0:0:0:0:
173,63,17892,2,0,P|200:111|188:186,1,120.000000596046,4|4,0:3|0:3,0:0:0:0:
177,218,18535,1,8,0:2:0:0:
212,332,18964,6,0,L|335:328,1,120.000000596046,4|8,0:3|0:2,0:0:0:0:
371,355,19607,2,0,P|411:341|445:260,1,120.000000596046,4|8,0:3|0:2,0:0:0:0:
447,227,20249,1,8,0:2:0:0:
365,138,20678,5,4,0:3:0:0:
271,213,21107,1,8,0:2:0:0:
271,213,21321,2,0,P|227:177|147:189,1,120.000000596046,4|4,0:3|0:3,0:0:0:0:
123,200,21964,1,8,0:2:0:0:
28,273,22392,5,4,0:3:0:0:
125,342,22821,1,8,0:2:0:0:
125,342,23035,2,0,L|247:336,1,120.000000596046,4|4,0:3|0:3,0:0:0:0:
284,363,23678,1,8,0:2:0:0:
404,365,24107,6,0,P|468:358|500:310,1,120.000000596046,4|8,0:3|0:2,0:0:0:0:
510,269,24749,2,0,P|446:262|414:214,1,120.000000596046,4|4,0:3|0:3,0:0:0:0:
446,183,25392,1,8,0:2:0:0:
369,90,25821,5,4,0:3:0:0:
280,170,26249,1,8,0:2:0:0:
280,170,26464,2,0,L|156:165,1,120.000000596046,4|8,0:3|0:2,0:0:0:0:
121,194,27107,2,0,P|115:228|120:259,1,60.000000298023,8|8,0:2|0:2,0:0:0:0:
144,292,27535,5,4,0:3:0:0:
251,345,27964,1,8,0:2:0:0:
251,345,28178,2,0,L|370:336,1,120.000000596046,4|4,0:3|0:3,0:0:0:0:
408,306,28821,1,8,0:2:0:0:
486,215,29249,6,0,P|466:167|397:148,1,120.000000596046,4|8,0:3|0:2,0:0:0:0:
364,120,29892,2,0,P|330:170|270:181,1,120.000000596046,4|4,0:3|0:3,0:0:0:0:
231,159,30535,1,8,0:2:0:0:
159,255,30964,5,4,0:3:0:0:
73,170,31392,2,0,L|76:103,1,60.000000298023,8|4,0:2|0:3,0:0:0:0:
192,83,32035,2,0,L|194:23,1,60.000000298023,4|8,0:3|0:2,0:0:0:0:
313,17,32678,6,0,B|344:56|344:56|340:133,1,120.000000596046,4|8,0:3|0:2,0:0:0:0:
297,148,33321,1,4,0:3:0:0:
346,257,33749,2,0,L|342:319,1,60.000000298023,8|8,0:2|0:2,0:0:0:0:
229,358,34392,6,0,B|172:377|172:377|108:363,1,120.000000596046,4|8,0:3|0:2,0:0:0:0:
69,344,35035,2,0,B|96:290|96:290|76:230,1,120.000000596046,4|4,0:3|0:3,0:0:0:0:
59,188,35678,1,8,0:2:0:0:
127,89,36107,5,4,0:3:0:0:
230,150,36535,1,8,0:2:0:0:
230,150,36749,2,0,P|297:168|342:150,1,120.000000596046,4|4,0:3|0:3,0:0:0:0:
379,120,37392,1,8,0:2:0:0:
493,156,37821,6,0,L|486:292,1,120.000000596046,4|8,0:3|0:2,0:0:0:0:
447,304,38464,2,0,B|398:301|398:301|379:311|379:311|318:309,1,120.000000596046,4|4,0:3|0:3,0:0:0:0:
293,340,39107,1,8,0:2:0:0:
256,192,39535,12,12,41249,0:3:0:0:
139,47,42107,6,0,P|96:61|65:133,1,120.000000596046,0|8,0:0|0:2,0:0:0:0:
96,160,42749,2,0,L|235:150,1,120.000000596046,2|2,0:2|0:3,0:0:0:0:
254,179,43392,2,0,L|247:246,1,60.000000298023,8|4,0:2|0:3,0:0:0:0:
339,316,44035,1,4,0:3:0:0:
339,316,44249,2,0,P|371:324|403:313,1,60.000000298023,8|0,0:2|0:0,0:0:0:0:
440,284,44678,6,0,P|449:242|403:159,1,120.000000596046,12|8,0:3|0:2,0:0:0:0:
436,127,45321,2,0,L|317:137,1,120.000000596046,4|4,0:3|0:3,0:0:0:0:
281,103,45964,1,8,0:2:0:0:
171,152,46392,6,0,B|148:209|148:209|163:268,1,120.000000596046,4|8,0:3|0:2,0:0:0:0:
189,305,47035,1,4,0:3:0:0:
293,364,47464,1,8,0:2:0:0:
293,364,47678,1,8,0:2:0:0:
394,299,48107,6,0,P|437:304|502:251,1,120.000000596046,12|8,0:3|0:2,0:0:0:0:
497,213,48749,2,0,P|452:174|393:175,1,120.000000596046,4|4,0:3|0:3,0:0:0:0:
352,200,49392,1,8,0:2:0:0:
280,103,49821,5,4,0:3:0:0:
211,201,50249,1,8,0:2:0:0:
211,201,50464,2,0,P|156:178|92:208,1,120.000000596046,4|4,0:3|0:3,0:0:0:0:
71,235,51107,1,8,0:2:0:0:
130,338,51535,6,0,L|251:331,1,120.000000596046,12|8,0:3|0:2,0:0:0:0:
283,365,52178,2,0,L|404:358,1,120.000000596046,4|4,0:3|0:3,0:0:0:0:
435,322,52821,1,8,0:2:0:0:
501,222,53249,5,4,0:3:0:0:
402,153,53678,2,0,L|407:87,1,60.000000298023,8|4,0:2|0:3,0:0:0:0:
287,77,54321,2,0,L|282:136,2,60.000000298023,8|8|8,0:2|0:2|0:0,0:0:0:0:
255,40,54964,6,0,P|211:22|142:45,1,120.000000596046,12|8,0:3|0:2,0:0:0:0:
130,89,55607,2,0,L|2:81,1,120.000000596046,4|4,0:3|0:3,0:0:0:0:
21,128,56249,1,8,0:2:0:0:
42,246,56678,5,4,0:3:0:0:
78,360,57107,2,0,P|105:359|142:338,1,60.000000298023,8|4,0:2|0:3,0:0:0:0:
207,249,57749,2,0,P|233:262|263:264,1,60.000000298023,4|8,0:3|0:2,0:0:0:0:
354,185,58392,6,0,P|399:191|471:137,1,120.000000596046,12|8,0:3|0:2,0:0:0:0:
456,106,59035,2,0,P|407:72|348:75,1,120.000000596046,4|4,0:3|0:3,0:0:0:0:
316,38,59678,1,8,0:2:0:0:
232,124,60107,5,4,0:3:0:0:
148,37,60535,1,8,0:2:0:0:
148,37,60749,2,0,B|88:23|88:23|31:50,1,120.000000596046,4|8,0:3|0:2,0:0:0:0:
53,92,61392,1,8,0:2:0:0:
17,206,61821,6,0,P|45:243|119:245,1,120.000000596046,12|8,0:3|0:2,0:0:0:0:
159,230,62464,2,0,L|148:364,1,120.000000596046,4|4,0:3|0:3,0:0:0:0:
183,383,63107,1,8,0:2:0:0:
301,363,63535,5,4,0:3:0:0:
417,335,63964,2,0,L|411:268,1,60.000000298023,8|4,0:2|0:3,0:0:0:0:
480,176,64607,2,0,L|474:116,1,60.000000298023,4|8,0:3|0:2,0:0:0:0:
256,192,65249,12,4,66964,0:3:0:0:
49,177,68035,6,0,P|45:147|55:115,1,60.000000298023,8|8,0:2|0:2,0:0:0:0:
82,80,68464,1,8,0:0:0:0:
122,54,68678,6,0,L|243:63,1,120.000000596046,4|8,0:3|0:2,0:0:0:0:
267,103,69321,1,4,0:3:0:0:
382,135,69749,2,0,L|444:127,1,60.000000298023,4|8,0:3|0:2,0:0:0:0:
484,239,70392,6,0,B|511:279|511:279|506:366,1,120.000000596046,4|8,0:3|0:2,0:0:0:0:
461,365,71035,1,4,0:3:0:0:
357,304,71464,2,0,P|333:319|293:317,1,60.000000298023,4|8,0:3|0:2,0:0:0:0:
193,371,72107,6,0,L|197:241,1,120.000000596046,4|8,0:3|0:2,0:0:0:0:
172,212,72749,1,4,0:3:0:0:
86,296,73178,2,0,B|58:312|58:312|24:302,1,60.000000298023,4|8,0:3|0:2,0:0:0:0:
10,185,73821,6,0,L|19:111,1,60.000000298023,4|2,0:3|0:3,0:0:0:0:
61,84,74249,2,0,L|52:10,1,60.000000298023,8|4,0:2|0:3,0:0:0:0:
171,46,74892,1,8,0:2:0:0:
171,46,75107,1,8,0:2:0:0:
288,71,75535,6,0,L|277:197,1,120.000000596046,4|8,0:3|0:2,0:0:0:0:
305,229,76178,1,4,0:3:0:0:
415,275,76607,2,0,L|476:283,1,60.000000298023,4|8,0:3|0:2,0:0:0:0:
497,165,77249,6,0,B|469:115|469:115|401:106,1,120.000000596046,4|8,0:3|0:2,0:0:0:0:
380,64,77892,2,0,B|317:72|317:72|289:122,1,120.000000596046,4|4,0:3|0:3,0:0:0:0:
243,137,78535,1,8,0:2:0:0:
156,53,78964,6,0,P|113:45|53:92,1,120.000000596046,4|8,0:3|0:2,0:0:0:0:
17,118,79607,2,0,P|65:136|88:206,1,120.000000596046,4|4,0:3|0:3,0:0:0:0:
63,236,80249,1,8,0:2:0:0:
99,350,80678,5,4,0:3:0:0:
194,277,81107,1,8,0:2:0:0:
194,277,81321,2,0,B|247:271|247:271|262:284|262:284|312:278,1,120.000000596046,4|8,0:3|0:2,0:0:0:0:
340,242,81964,2,0,L|406:234,1,60.000000298023,8|8,0:2|0:2,0:0:0:0:
441,257,82392,6,0,P|433:221|473:150,1,120.000000596046,4|8,0:3|0:2,0:0:0:0:
488,106,83035,2,0,L|368:115,1,120.000000596046,4|4,0:3|0:3,0:0:0:0:
330,85,83678,1,8,0:2:0:0:
237,162,84107,5,4,0:3:0:0:
177,58,84535,2,0,L|110:63,1,60.000000298023,8|4,0:2|0:3,0:0:0:0:
101,181,85178,2,0,L|34:186,1,60.000000298023,4|8,0:3|0:2,0:0:0:0:
13,302,85821,6,0,P|44:349|109:356,1,120.000000596046,4|8,0:3|0:2,0:0:0:0:
146,335,86464,1,4,0:3:0:0:
260,369,86892,2,0,L|325:364,1,60.000000298023,4|8,0:3|0:2,0:0:0:0:
375,258,87535,6,0,B|433:276|433:276|487:251,1,120.000000596046,4|8,0:3|0:2,0:0:0:0:
507,207,88178,1,4,0:3:0:0:
405,142,88607,1,8,0:2:0:0:
405,142,88821,2,0,L|403:77,1,60.000000298023,8|0,0:2|0:0,0:0:0:0:
421,37,89249,6,0,B|351:66|368:15|306:36,1,120.000000596046,4|8,0:3|0:2,0:0:0:0:
273,71,89892,1,4,0:3:0:0:
161,26,90321,1,4,0:3:0:0:
161,26,90535,1,8,0:2:0:0:
189,142,90964,6,0,L|61:136,1,120.000000596046,4|8,0:3|0:2,0:0:0:0:
31,105,91607,2,0,L|66:227,1,120.000000596046,4|4,0:3|0:3,0:0:0:0:
41,262,92249,1,8,0:2:0:0:
151,310,92678,6,0,P|206:331|261:310,1,120.000000596046,4|8,0:3|0:2,0:0:0:0:
293,274,93321,2,0,P|347:253|402:274,1,120.000000596046,4|4,0:3|0:3,0:0:0:0:
433,311,93964,1,8,0:2:0:0:
256,192,94392,12,12,96107,0:3:0:0:
82,117,96964,6,0,B|117:72|117:72|180:66,1,120.000000596046,0|8,0:0|0:2,0:0:0:0:
222,43,97607,2,0,B|198:101|198:101|218:158,1,120.000000596046,2|2,0:2|0:3,0:0:0:0:
261,171,98249,2,0,B|271:203|271:203|262:231,1,60.000000298023,8|4,0:2|0:3,0:0:0:0:
304,340,98892,1,4,0:3:0:0:
304,340,99107,1,8,0:2:0:0:
396,263,99535,6,0,B|456:270|456:270|499:229,1,120.000000596046,12|8,0:3|0:2,0:0:0:0:
506,181,100178,1,4,0:3:0:0:
427,90,100607,2,0,L|360:92,1,60.000000298023,4|8,0:3|0:2,0:0:0:0:
260,36,101249,6,0,P|215:75|151:75,1,120.000000596046,4|8,0:3|0:2,0:0:0:0:
123,41,101892,1,4,0:3:0:0:
43,131,102321,1,8,0:2:0:0:
43,131,102535,2,0,L|43:200,1,60.000000298023,8|0,0:2|0:0,0:0:0:0:
5,221,102964,6,0,P|57:252|113:237,1,120.000000596046,12|8,0:3|0:2,0:0:0:0:
154,216,103607,2,0,L|141:340,1,120.000000596046,4|4,0:3|0:3,0:0:0:0:
173,370,104249,1,8,0:2:0:0:
286,331,104678,6,0,B|311:278|311:278|289:220,1,120.000000596046,4|8,0:3|0:2,0:0:0:0:
268,177,105321,2,0,L|389:184,1,120.000000596046,4|4,0:3|0:3,0:0:0:0:
424,152,105964,1,8,0:2:0:0:
350,57,106392,6,0,L|230:50,1,120.000000596046,12|8,0:3|0:2,0:0:0:0:
194,17,107035,1,4,0:3:0:0:
125,115,107464,2,0,L|54:106,1,60.000000298023,4|8,0:3|0:2,0:0:0:0:
9,213,108107,6,0,P|31:253|104:274,1,120.000000596046,4|8,0:3|0:2,0:0:0:0:
142,255,108749,1,4,0:3:0:0:
242,321,109178,2,0,L|238:391,2,60.000000298023,8|8|8,0:2|0:2|0:0,0:0:0:0:
279,291,109821,6,0,B|343:313|329:265|398:290,1,120.000000596046,12|8,0:3|0:2,0:0:0:0:
433,317,110464,2,0,B|417:269|417:269|445:205,1,120.000000596046,4|4,0:3|0:3,0:0:0:0:
423,162,111107,1,8,0:2:0:0:
327,89,111535,5,4,0:3:0:0:
212,123,111964,1,8,0:2:0:0:
212,123,112178,2,0,P|175:105|103:127,1,120.000000596046,4|4,0:3|0:3,0:0:0:0:
99,175,112821,1,8,0:2:0:0:
28,272,113249,5,12,0:3:0:0:
120,349,113678,2,0,P|151:354|185:344,1,60.000000298023,8|4,0:2|0:3,0:0:0:0:
251,252,114321,2,0,P|280:245|309:250,1,60.000000298023,4|8,0:3|0:2,0:0:0:0:
411,313,114964,6,0,L|420:185,1,120.000000596046,4|8,0:3|0:2,0:0:0:0:
457,163,115607,1,4,0:3:0:0:
374,76,116035,1,8,0:2:0:0:
374,76,116249,2,0,L|302:83,1,60.000000298023,8|0,0:2|0:0,0:0:0:0:
277,50,116678,6,0,B|219:35|219:35|158:68,1,120.000000596046,12|8,0:3|0:2,0:0:0:0:
191,104,117321,1,4,0:3:0:0:
82,154,117749,1,4,0:3:0:0:
82,154,117964,1,8,0:2:0:0:
172,232,118392,6,0,L|163:375,1,120.000000596046,4|8,0:3|0:2,0:0:0:0:
200,384,119035,1,4,0:3:0:0:
305,326,119464,2,0,L|300:263,1,60.000000298023,4|8,0:3|0:2,0:0:0:0:
397,196,120107,6,0,P|419:143|394:84,1,120.000000596046,12|8,0:3|0:2,0:0:0:0:
411,41,120749,2,0,L|291:62,1,120.000000596046,4|4,0:3|0:3,0:0:0:0:
255,31,121392,2,0,L|193:44,1,60.000000298023,8|2,0:2|0:2,0:0:0:0:
153,20,121821,6,0,P|73:57|57:203,1,240.000001192092,4|0,0:3|0:0,0:0:0:0:
35,240,122892,2,0,L|111:226,1,60.000000298023,8|8,0:2|0:2,0:0:0:0:
135,253,123321,1,8,0:0:0:0:
