osu file format v14

[General]
AudioFilename: audio.mp3
AudioLeadIn: 0
PreviewTime: 41249
Countdown: 0
SampleSet: Soft
StackLeniency: 0.7
Mode: 0
LetterboxInBreaks: 0
WidescreenStoryboard: 0

[Editor]
Bookmarks: 13821,54964,109821,137223
DistanceSpacing: 1.2
BeatDivisor: 4
GridSize: 4
TimelineZoom: 2

[Metadata]
Title:Labyrinth
TitleUnicode:Labyrinth
Artist:Mr.Kitty
ArtistUnicode:Mr.Kitty
Creator:Gordon123
Version:Daycore's Heavy
Source:
Tags:goth new wave gothic life english synthpop post-punk electronic danielexus KittyAdventure Daycore
BeatmapID:2088383
BeatmapSetID:986247

[Difficulty]
HPDrainRate:4.5
CircleSize:4.5
OverallDifficulty:5.5
ApproachRate:6.5
SliderMultiplier:1.4
SliderTickRate:1

[Events]
//Background and Video events
0,0,"cuteriffy.jpg",0,0
//Break Periods
//Storyboard Layer 0 (Background)
//Storyboard Layer 1 (Fail)
//Storyboard Layer 2 (Pass)
//Storyboard Layer 3 (Foreground)
//Storyboard Layer 4 (Overlay)
//Storyboard Sound Samples

[TimingPoints]
107,428.571428571429,4,2,1,20,1,0
13821,-117.647058823529,4,2,1,50,0,0
41249,-100,4,2,1,65,0,1
68678,-117.647058823529,4,2,1,50,0,0
96107,-100,4,2,1,65,0,1
123535,-117.647058823529,4,2,1,10,0,0

[Colours]
Combo1 : 79,111,142
Combo2 : 188,169,203
Combo3 : 197,120,120
Combo4 : 153,187,130

[HitObjects]
89,142,13821,6,0,P|133:129|209:168,1,119.000002269745,4|8,0:3|0:2,0:0:0:0:
238,214,14464,2,0,P|282:227|314:218,1,59.5000011348725,4|0,0:3|0:0,0:0:0:0:
360,198,14892,1,4,0:3:0:0:
360,198,15107,1,8,0:2:0:0:
460,96,15535,6,0,P|452:45|456:12,2,59.5000011348725,4|2|8,0:3|0:3|0:2,0:0:0:0:
511,145,16178,2,0,P|457:156|429:219,1,119.000002269745,4|4,0:3|0:3,0:0:0:0:
451,276,16821,2,0,P|406:267|374:277,1,59.5000011348725,8|0,0:2|0:0,0:0:0:0:
359,332,17249,6,0,B|359:286|359:286|342:258|342:258|345:209,1,119.000002269745,4|8,0:3|0:2,0:0:0:0:
301,160,17892,2,0,P|272:169|229:173,1,59.5000011348725,4|0,0:3|0:0,0:0:0:0:
172,185,18321,1,4,0:3:0:0:
172,185,18535,1,8,0:2:0:0:
41,243,18964,6,0,P|33:184|35:112,1,119.000002269745,4|8,0:3|0:2,0:0:0:0:
11,56,19607,2,0,P|45:67|74:63,1,59.5000011348725,4|0,0:3|0:0,0:0:0:0:
138,52,20035,1,8,0:2:0:0:
199,15,20249,1,8,0:2:0:0:
340,32,20678,6,0,B|311:54|311:54|323:148,1,119.000002269745,4|8,0:3|0:2,0:0:0:0:
364,193,21321,2,0,P|373:233|365:273,1,59.5000011348725,4|0,0:3|0:0,0:0:0:0:
334,312,21749,1,4,0:3:0:0:
334,312,21964,1,8,0:2:0:0:
255,192,22392,6,0,P|225:195|196:189,1,59.5000011348725,4|2,0:3|0:3,0:0:0:0:
146,138,22821,1,8,0:2:0:0:
146,138,23035,2,0,P|152:159|141:266,1,119.000002269745,4|4,0:3|0:3,0:0:0:0:
128,324,23678,2,0,P|107:297|68:288,1,59.5000011348725,8|0,0:2|0:0,0:0:0:0:
13,299,24107,6,0,P|15:243|22:170,1,119.000002269745,4|8,0:3|0:2,0:0:0:0:
26,109,24749,2,0,P|64:118|107:114,1,59.5000011348725,4|0,0:3|0:0,0:0:0:0:
147,84,25178,1,4,0:3:0:0:
147,84,25392,1,8,0:2:0:0:
286,54,25821,6,0,B|273:114|273:114|294:186,1,119.000002269745,4|8,0:3|0:2,0:0:0:0:
261,235,26464,2,0,P|283:277|307:303,1,59.5000011348725,4|0,0:3|0:0,0:0:0:0:
358,308,26892,1,8,0:2:0:0:
429,316,27107,1,8,0:2:0:0:
292,357,27535,6,0,B|278:364|251:357|235:339|235:339|226:358|206:372|171:367,1,119.000002269745,4|8,0:3|0:2,0:0:0:0:
118,365,28178,1,4,0:3:0:0:
118,365,28392,2,0,P|122:329|120:300,1,59.5000011348725,0|4,0:0|0:3,0:0:0:0:
92,240,28821,1,8,0:2:0:0:
20,116,29249,6,0,B|76:92|76:92|138:111,1,119.000002269745,4|8,0:3|0:2,0:0:0:0:
188,152,29892,2,0,P|218:164|256:157,1,59.5000011348725,4|0,0:3|0:0,0:0:0:0:
315,151,30321,1,4,0:3:0:0:
378,117,30535,2,0,P|378:160|383:183,1,59.5000011348725,8|0,0:2|0:0,0:0:0:0:
443,211,30964,6,0,P|392:229|384:299,1,119.000002269745,4|8,0:3|0:2,0:0:0:0:
329,339,31607,1,4,0:3:0:0:
329,339,31821,2,0,P|282:352|259:351,1,59.5000011348725,0|4,0:0|0:3,0:0:0:0:
200,345,32249,1,8,0:2:0:0:
68,290,32678,6,0,P|39:284|10:284,2,59.5000011348725,4|2|8,0:3|0:3|0:2,0:0:0:0:
122,336,33321,2,0,P|121:268|125:217,1,119.000002269745,4|8,0:3|0:2,0:0:0:0:
141,147,33964,1,8,0:2:0:0:
239,43,34392,6,0,P|276:31|302:32,1,59.5000011348725,4|2,0:3|0:3,0:0:0:0:
364,8,34821,1,8,0:2:0:0:
364,8,35035,2,0,B|339:33|339:33|341:119,1,119.000002269745,4|4,0:3|0:3,0:0:0:0:
363,184,35678,1,8,0:2:0:0:
403,320,36107,6,0,P|360:325|328:316,1,59.5000011348725,4|2,0:3|0:3,0:0:0:0:
286,280,36535,1,8,0:2:0:0:
286,280,36749,2,0,P|213:269|159:288,1,119.000002269745,4|4,0:3|0:3,0:0:0:0:
141,346,37392,1,8,0:2:0:0:
0,366,37821,6,0,P|-11:290|18:233,1,119.000002269745,4|8,0:3|0:2,0:0:0:0:
47,195,38464,1,4,0:3:0:0:
47,195,38678,2,0,P|55:148|49:112,1,59.5000011348725,0|4,0:0|0:3,0:0:0:0:
40,66,39107,1,8,0:2:0:0:
256,192,39535,12,8,40607,0:0:0:0:
148,66,41249,6,0,B|238:54|197:103|293:99,1,140,12|8,0:3|0:2,0:0:0:0:
356,65,41892,1,4,0:3:0:0:
356,65,42107,2,0,P|354:101|360:140,1,70,0|4,0:0|0:3,0:0:0:0:
408,202,42535,2,0,P|410:238|404:277,1,70,8|2,0:2|0:2,0:0:0:0:
440,348,42964,6,0,B|408:321|408:321|302:326,1,140,4|8,0:3|0:2,0:0:0:0:
239,279,43607,2,0,P|233:333|138:351,1,140,4|4,0:3|0:3,0:0:0:0:
82,331,44249,2,0,P|57:298|48:263,1,70,8|0,0:2|0:0,0:0:0:0:
5,198,44678,6,0,P|39:218|112:160,1,140,12|8,0:3|0:2,0:0:0:0:
117,82,45321,1,4,0:3:0:0:
117,82,45535,2,0,P|168:71|204:69,1,70,0|4,0:0|0:3,0:0:0:0:
248,126,45964,2,0,P|299:137|335:139,1,70,8|2,0:2|0:2,0:0:0:0:
397,116,46392,6,0,B|407:139|395:168|395:168|414:201|414:201|404:229|413:257,1,140,4|8,0:3|0:2,0:0:0:0:
418,332,47035,2,0,P|369:310|331:319,1,70,4|0,0:3|0:0,0:0:0:0:
270,302,47464,1,8,0:2:0:0:
189,325,47678,2,0,P|137:321|105:322,1,70,8|0,0:2|0:0,0:0:0:0:
39,349,48107,6,0,B|81:329|81:329|88:219,1,140,12|8,0:3|0:2,0:0:0:0:
47,161,48749,2,0,P|91:147|127:156,1,70,4|0,0:3|0:0,0:0:0:0:
183,102,49178,1,4,0:3:0:0:
183,102,49392,2,0,P|242:98|273:27,1,140,8|4,0:2|0:3,0:0:0:0:
353,3,50035,5,2,0:3:0:0:
353,3,50249,1,8,0:2:0:0:
429,39,50464,2,0,P|413:90|422:189,1,140,4|4,0:3|0:3,0:0:0:0:
439,256,51107,2,0,P|448:303|449:342,1,70,8|0,0:2|0:0,0:0:0:0:
386,381,51535,6,0,L|237:370,1,140,12|8,0:3|0:2,0:0:0:0:
207,295,52178,2,0,P|242:296|277:292,1,70,4|0,0:3|0:0,0:0:0:0:
243,214,52607,1,4,0:3:0:0:
243,214,52821,2,0,P|197:209|166:211,1,70,8|2,0:2|0:2,0:0:0:0:
93,236,53249,6,0,P|104:177|89:92,1,140,4|8,0:3|0:2,0:0:0:0:
44,28,53892,2,0,P|122:63|194:59,1,140,4|8,0:3|0:2,0:0:0:0:
252,30,54535,1,8,0:2:0:0:
420,12,54964,6,0,B|410:41|418:71|418:71|434:84|434:84|447:120|428:161,1,140,12|8,0:3|0:2,0:0:0:0:
443,230,55607,1,4,0:3:0:0:
443,230,55821,2,0,P|381:232|348:213,1,70,0|4,0:0|0:3,0:0:0:0:
299,235,56249,2,0,B|346:219|346:219|332:321,1,140,8|4,0:2|0:3,0:0:0:0:
385,374,56892,5,2,0:3:0:0:
385,374,57107,1,8,0:2:0:0:
333,308,57321,2,0,P|272:307|177:319,1,140,4|4,0:3|0:3,0:0:0:0:
116,350,57964,2,0,P|107:312|123:268,1,70,8|0,0:2|0:0,0:0:0:0:
73,209,58392,6,0,P|146:233|206:171,1,140,12|8,0:3|0:2,0:0:0:0:
204,116,59035,1,4,0:3:0:0:
204,116,59249,2,0,P|245:103|286:103,1,70,0|4,0:0|0:3,0:0:0:0:
329,40,59678,2,0,L|305:193,1,140,8|4,0:2|0:3,0:0:0:0:
325,260,60321,5,2,0:3:0:0:
325,260,60535,1,8,0:2:0:0:
277,329,60749,2,0,P|330:300|428:323,1,140,4|8,0:3|0:2,0:0:0:0:
477,355,61392,2,0,P|488:316|480:265,1,70,8|0,0:2|0:0,0:0:0:0:
502,204,61821,6,0,P|471:232|385:170,1,140,12|8,0:3|0:2,0:0:0:0:
358,120,62464,1,4,0:3:0:0:
358,120,62678,2,0,P|317:108|263:108,1,70,0|4,0:0|0:3,0:0:0:0:
215,66,63107,2,0,P|174:78|120:78,1,70,8|2,0:2|0:2,0:0:0:0:
107,5,63535,6,0,L|104:164,1,140,4|8,0:3|0:2,0:0:0:0:
34,191,64178,2,0,P|104:228|167:208,1,140,4|4,0:3|0:3,0:0:0:0:
222,156,64821,2,0,P|242:193|239:234,1,70,8|0,0:2|0:0,0:0:0:0:
319,253,65249,6,0,P|238:265|242:341,1,140,12|8,0:3|0:2,0:0:0:0:
292,365,65892,1,4,0:3:0:0:
292,365,66107,2,0,P|338:359|367:362,1,70,0|4,0:0|0:3,0:0:0:0:
402,288,66535,2,0,P|448:294|477:291,1,70,8|2,0:2|0:2,0:0:0:0:
512,363,66964,5,4,0:3:0:0:
221,59,68035,2,0,P|165:65|135:63,1,70,8|8,0:2|0:2,0:0:0:0:
69,44,68464,1,8,0:0:0:0:
69,44,68678,6,0,B|110:83|110:83|119:165,1,119.000002269745,4|8,0:3|0:2,0:0:0:0:
97,213,69321,2,0,B|176:224|140:179|235:188,1,119.000002269745,4|4,0:3|0:3,0:0:0:0:
281,184,69964,1,8,0:2:0:0:
415,230,70392,6,0,P|412:185|421:148,2,59.5000011348725,4|2|8,0:3|0:3|0:2,0:0:0:0:
464,281,71035,2,0,L|330:290,1,119.000002269745,4|4,0:3|0:3,0:0:0:0:
274,276,71678,2,0,L|195:274,1,59.5000011348725,8|0,0:2|0:0,0:0:0:0:
159,228,72107,6,0,L|80:230,1,59.5000011348725,4|2,0:3|0:3,0:0:0:0:
41,271,72535,1,8,0:2:0:0:
41,271,72749,2,0,P|57:228|50:142,1,119.000002269745,4|4,0:3|0:3,0:0:0:0:
30,88,73392,1,8,0:2:0:0:
154,17,73821,6,0,P|204:11|260:55,1,119.000002269745,4|8,0:3|0:2,0:0:0:0:
302,105,74464,2,0,P|351:108|372:96,1,59.5000011348725,4|0,0:3|0:0,0:0:0:0:
424,74,74892,1,8,0:2:0:0:
492,51,75107,1,8,0:2:0:0:
490,193,75535,6,0,B|468:248|468:248|485:330,1,119.000002269745,4|8,0:3|0:2,0:0:0:0:
509,371,76178,2,0,P|471:349|395:346,1,119.000002269745,4|4,0:3|0:3,0:0:0:0:
337,306,76821,2,0,P|300:313|265:309,1,59.5000011348725,8|0,0:2|0:0,0:0:0:0:
231,365,77249,6,0,P|236:289|225:230,1,119.000002269745,4|8,0:3|0:2,0:0:0:0:
191,186,77892,2,0,P|181:159|193:112,1,59.5000011348725,4|0,0:3|0:0,0:0:0:0:
212,63,78321,1,4,0:3:0:0:
212,63,78535,2,0,P|245:71|271:67,1,59.5000011348725,8|0,0:2|0:0,0:0:0:0:
319,15,78964,6,0,L|320:142,1,119.000002269745,4|8,0:3|0:2,0:0:0:0:
343,201,79607,2,0,P|386:189|405:193,1,59.5000011348725,4|0,0:3|0:0,0:0:0:0:
438,251,80035,1,4,0:3:0:0:
438,251,80249,2,0,B|435:291|435:291|455:319|455:319|451:370,1,119.000002269745,8|4,0:2|0:3,0:0:0:0:
380,374,80892,5,2,0:3:0:0:
380,374,81107,2,0,B|330:353|330:353|264:353,1,119.000002269745,8|0,0:2|0:0,0:0:0:0:
193,355,81749,1,8,0:2:0:0:
121,354,81964,1,8,0:2:0:0:
15,258,82392,6,0,B|87:259|48:217|145:221,1,119.000002269745,4|8,0:3|0:2,0:0:0:0:
185,184,83035,2,0,P|218:195|250:198,1,59.5000011348725,4|0,0:3|0:0,0:0:0:0:
310,176,83464,1,4,0:3:0:0:
310,176,83678,2,0,P|338:166|367:162,1,59.5000011348725,8|0,0:2|0:0,0:0:0:0:
420,113,84107,6,0,P|414:191|421:248,1,119.000002269745,4|8,0:3|0:2,0:0:0:0:
453,293,84749,2,0,P|413:302|384:293,1,59.5000011348725,4|0,0:3|0:0,0:0:0:0:
330,268,85178,1,4,0:3:0:0:
330,268,85392,1,8,0:2:0:0:
187,250,85821,6,0,P|160:260|114:264,2,59.5000011348725,4|2|8,0:3|0:3|0:2,0:0:0:0:
250,282,86464,2,0,P|205:190|202:156,1,119.000002269745,4|4,0:3|0:3,0:0:0:0:
170,110,87107,2,0,P|211:100|235:106,1,59.5000011348725,8|0,0:2|0:0,0:0:0:0:
272,47,87535,6,0,P|281:103|345:126,1,119.000002269745,4|8,0:3|0:2,0:0:0:0:
399,99,88178,2,0,P|406:135|393:170,1,59.5000011348725,4|0,0:3|0:0,0:0:0:0:
376,224,88607,1,8,0:2:0:0:
350,290,88821,1,8,0:2:0:0:
213,330,89249,6,0,B|156:313|156:313|84:329,1,119.000002269745,4|8,0:3|0:2,0:0:0:0:
31,352,89892,2,0,P|25:318|41:283,1,59.5000011348725,4|0,0:3|0:0,0:0:0:0:
44,224,90321,1,4,0:3:0:0:
44,224,90535,2,0,P|76:235|98:267,1,59.5000011348725,8|0,0:2|0:0,0:0:0:0:
97,325,90964,6,0,P|109:273|183:249,1,119.000002269745,4|8,0:3|0:2,0:0:0:0:
235,241,91607,2,0,P|238:205|236:174,1,59.5000011348725,4|0,0:3|0:0,0:0:0:0:
207,116,92035,1,4,0:3:0:0:
207,116,92249,1,8,0:2:0:0:
331,44,92678,6,0,B|316:110|354:90|330:175,1,119.000002269745,4|8,0:3|0:2,0:0:0:0:
313,229,93321,2,0,P|349:210|424:234,1,119.000002269745,4|4,0:3|0:3,0:0:0:0:
451,295,93964,2,0,P|453:338|462:363,1,59.5000011348725,8|0,0:2|0:0,0:0:0:0:
256,192,94392,12,8,95464,0:0:0:0:
440,125,96107,6,0,B|398:111|398:111|410:205,1,140,12|8,0:3|0:2,0:0:0:0:
450,279,96749,1,4,0:3:0:0:
450,279,96964,2,0,P|409:288|366:273,1,70,0|4,0:0|0:3,0:0:0:0:
313,234,97392,2,0,P|272:225|229:240,1,70,8|2,0:2|0:2,0:0:0:0:
200,302,97821,6,0,P|209:221|210:147,1,140,4|8,0:3|0:2,0:0:0:0:
224,79,98464,2,0,P|184:130|107:115,1,140,4|4,0:3|0:3,0:0:0:0:
50,68,99107,2,0,P|32:97|36:153,1,70,8|0,0:2|0:0,0:0:0:0:
76,201,99535,6,0,B|82:253|82:253|72:270|72:270|69:268|69:268|58:285|58:285|66:355,1,140,12|8,0:3|0:2,0:0:0:0:
144,349,100178,1,4,0:3:0:0:
144,349,100392,2,0,P|191:340|229:340,1,70,0|4,0:0|0:3,0:0:0:0:
279,288,100821,2,0,P|326:297|364:297,1,70,8|2,0:2|0:2,0:0:0:0:
395,367,101249,6,0,P|391:292|405:203,1,140,4|8,0:3|0:2,0:0:0:0:
426,148,101892,2,0,P|361:154|343:147,1,70,4|0,0:3|0:0,0:0:0:0:
279,121,102321,1,8,0:2:0:0:
200,92,102535,2,0,P|165:88|131:97,1,70,8|0,0:2|0:0,0:0:0:0:
52,67,102964,6,0,B|72:62|81:48|81:48|80:162,1,140,12|8,0:3|0:2,0:0:0:0:
40,227,103607,2,0,P|82:238|130:215,1,70,4|0,0:3|0:0,0:0:0:0:
183,265,104035,1,4,0:3:0:0:
183,265,104249,2,0,P|152:295|148:348,1,70,8|2,0:2|0:2,0:0:0:0:
76,369,104678,6,0,L|240:351,1,140,4|8,0:3|0:2,0:0:0:0:
278,297,105321,2,0,L|442:315,1,140,4|4,0:3|0:3,0:0:0:0:
490,353,105964,2,0,P|503:308|437:229,1,140,8|12,0:2|0:3,0:0:0:0:
372,216,106607,5,2,0:3:0:0:
372,216,106821,1,8,0:2:0:0:
347,135,107035,2,0,P|338:181|253:193,1,140,4|4,0:3|0:3,0:0:0:0:
209,125,107678,2,0,P|180:154|171:202,1,70,8|2,0:2|0:2,0:0:0:0:
90,204,108107,6,0,P|156:211|158:298,1,140,4|8,0:3|0:2,0:0:0:0:
155,356,108749,2,0,B|187:364|210:351|210:351|236:335|236:335|268:318|310:330,1,140,4|8,0:3|0:2,0:0:0:0:
367,350,109392,1,8,0:2:0:0:
451,204,109821,6,0,B|426:127|481:142|450:57,1,140,12|8,0:3|0:2,0:0:0:0:
387,15,110464,1,4,0:3:0:0:
387,15,110678,2,0,P|344:26|310:25,1,70,0|4,0:0|0:3,0:0:0:0:
236,8,111107,2,0,P|284:41|277:123,1,140,8|4,0:2|0:3,0:0:0:0:
230,183,111749,5,2,0:3:0:0:
230,183,111964,1,8,0:2:0:0:
258,261,112178,2,0,B|201:260|201:260|178:246|178:246|118:243,1,140,4|4,0:3|0:3,0:0:0:0:
49,199,112821,2,0,P|34:242|51:290,1,70,8|0,0:2|0:0,0:0:0:0:
9,344,113249,6,0,B|38:354|66:345|66:345|89:359|89:359|121:346|149:362,1,140,12|8,0:3|0:2,0:0:0:0:
226,350,113892,1,4,0:3:0:0:
226,350,114107,2,0,P|267:341|303:343,1,70,0|4,0:0|0:3,0:0:0:0:
362,291,114535,2,0,P|403:300|439:298,1,70,8|2,0:2|0:2,0:0:0:0:
482,366,114964,6,0,L|475:214,1,140,4|8,0:3|0:2,0:0:0:0:
479,141,115607,2,0,P|459:180|367:188,1,140,4|8,0:3|0:2,0:0:0:0:
302,141,116249,2,0,P|262:138|211:147,1,70,8|0,0:2|0:0,0:0:0:0:
184,72,116678,6,0,L|194:230,1,140,12|8,0:3|0:2,0:0:0:0:
231,286,117321,1,4,0:3:0:0:
231,286,117535,2,0,P|185:294|150:284,1,70,0|4,0:0|0:3,0:0:0:0:
124,215,117964,2,0,P|170:207|205:217,1,70,8|2,0:2|0:2,0:0:0:0:
273,192,118392,6,0,P|319:200|399:132,1,140,4|8,0:3|0:2,0:0:0:0:
435,77,119035,2,0,L|437:231,1,140,4|4,0:3|0:3,0:0:0:0:
480,289,119678,2,0,P|440:299|395:286,1,70,8|0,0:2|0:0,0:0:0:0:
340,250,120107,6,0,P|369:290|315:360,1,140,12|8,0:3|0:2,0:0:0:0:
242,348,120749,2,0,B|154:353|209:302|87:307,1,140,4|4,0:3|0:3,0:0:0:0:
33,335,121392,2,0,P|26:292|44:257,1,70,8|2,0:2|0:2,0:0:0:0:
80,197,121821,5,4,0:3:0:0:
462,24,122892,2,0,P|459:69|465:120,1,70,8|8,0:2|0:2,0:0:0:0:
477,176,123321,1,8,0:0:0:0:
