osu file format v14

[General]
AudioFilename: audio.mp3
AudioLeadIn: 0
PreviewTime: 41249
Countdown: 0
SampleSet: Soft
StackLeniency: 0.5
Mode: 0
LetterboxInBreaks: 0
WidescreenStoryboard: 0

[Editor]
Bookmarks: 13821,54964,109821,137223
DistanceSpacing: 1.1
BeatDivisor: 8
GridSize: 32
TimelineZoom: 3.499999

[Metadata]
Title:Labyrinth
TitleUnicode:Labyrinth
Artist:Mr.Kitty
ArtistUnicode:Mr.Kitty
Creator:Gordon123
Version:Dark
Source:
Tags:goth new wave gothic life english synthpop post-punk electronic danielexus KittyAdventure Daycore
BeatmapID:2063323
BeatmapSetID:986247

[Difficulty]
HPDrainRate:5.5
CircleSize:4
OverallDifficulty:7
ApproachRate:8
SliderMultiplier:1.65
SliderTickRate:1

[Events]
//Background and Video events
0,0,"cuteriffy.jpg",0,0
//Break Periods
//Storyboard Layer 0 (Background)
//Storyboard Layer 1 (Fail)
//Storyboard Layer 2 (Pass)
//Storyboard Layer 3 (Foreground)
//Storyboard Layer 4 (Overlay)
//Storyboard Sound Samples

[TimingPoints]
107,428.571428571429,4,2,1,20,1,0
13821,-100,4,2,1,50,0,0
41249,-100,4,2,1,65,0,1
67392,-100,4,2,1,35,0,1
68035,-100,4,2,1,55,0,1
68678,-100,4,2,1,50,0,0
96107,-100,4,2,1,65,0,1
122249,-100,4,2,1,35,0,1
122892,-100,4,2,1,55,0,1
123535,-100,4,2,1,40,0,0
123964,-100,4,2,1,30,0,0
124392,-100,4,2,1,20,0,0
124821,-100,4,2,1,10,0,0
125249,-100,4,2,1,5,0,0

[Colours]
Combo1 : 79,111,142
Combo2 : 188,169,203
Combo3 : 197,120,120
Combo4 : 153,187,130

[HitObjects]
137,45,13821,6,0,P|145:85|131:138,1,82.5,4|2,0:3|0:3,0:0:0:0:
71,188,14249,1,8,0:2:0:0:
76,278,14464,1,4,0:3:0:0:
149,330,14678,2,0,P|186:316|246:319,1,82.5,0|4,0:0|0:3,0:0:0:0:
312,279,15107,2,0,P|349:293|409:290,1,82.5,8|0,0:2|0:0,0:0:0:0:
437,165,15535,6,0,P|434:94|474:7,2,165,4|8|0,0:3|0:2|0:0,0:0:0:0:
481,244,16607,1,4,0:3:0:0:
423,313,16821,2,0,L|326:331,1,82.5,8|0,0:2|0:0,0:0:0:0:
259,250,17249,6,0,P|186:225|110:270,1,165,4|8,0:3|0:2,0:0:0:0:
41,320,17892,1,4,0:3:0:0:
37,229,18107,1,0,0:0:0:0:
32,138,18321,1,4,0:3:0:0:
113,178,18535,2,0,P|152:174|209:194,1,82.5,8|0,0:2|0:0,0:0:0:0:
293,239,18964,6,0,L|287:72,1,165,4|8,0:3|0:2,0:0:0:0:
365,27,19607,1,4,0:3:0:0:
370,117,19821,1,0,0:0:0:0:
287,74,20035,1,8,0:2:0:0:
182,119,20249,1,8,0:2:0:0:
105,69,20464,1,0,0:0:0:0:
31,121,20678,6,0,L|45:215,1,82.5,4|2,0:3|0:3,0:0:0:0:
99,274,21107,1,8,0:2:0:0:
87,361,21321,1,4,0:3:0:0:
169,322,21535,2,0,P|200:313|264:323,1,82.5,0|4,0:0|0:3,0:0:0:0:
337,341,21964,2,0,L|323:242,1,82.5,8|0,0:2|0:0,0:0:0:0:
239,185,22392,6,0,L|218:18,2,165,4|8|0,0:3|0:2|0:0,0:0:0:0:
191,262,23464,1,4,0:3:0:0:
250,330,23678,2,0,P|293:316|344:321,1,82.5,8|0,0:2|0:0,0:0:0:0:
442,337,24107,6,0,P|408:290|435:182,1,165,4|8,0:3|0:2,0:0:0:0:
492,128,24749,1,4,0:3:0:0:
403,105,24964,1,0,0:0:0:0:
314,85,25178,1,4,0:3:0:0:
239,137,25392,2,0,P|208:158|148:169,1,82.5,8|0,0:2|0:0,0:0:0:0:
61,122,25821,6,0,L|77:296,1,165,4|8,0:3|0:2,0:0:0:0:
145,345,26464,1,4,0:3:0:0:
232,321,26678,1,0,0:0:0:0:
318,350,26892,1,8,0:2:0:0:
292,239,27107,1,8,0:2:0:0:
316,128,27321,1,8,0:2:0:0:
393,44,27535,6,0,L|481:33,1,82.5,4|2,0:3|0:3,0:0:0:0:
456,122,27964,1,8,0:2:0:0:
434,210,28178,1,4,0:3:0:0:
353,169,28392,2,0,P|312:155|272:153,1,82.5,0|4,0:0|0:3,0:0:0:0:
185,176,28821,2,0,P|143:173|105:159,1,82.5,8|0,0:2|0:0,0:0:0:0:
110,46,29249,6,0,P|186:70|283:65,2,165,4|8|0,0:3|0:2|0:0,0:0:0:0:
26,8,30321,1,4,0:3:0:0:
37,97,30535,2,0,L|46:186,1,82.5,8|0,0:2|0:0,0:0:0:0:
10,286,30964,6,0,P|51:269|164:307,1,165,4|8,0:3|0:2,0:0:0:0:
229,363,31607,1,4,0:3:0:0:
313,329,31821,1,0,0:0:0:0:
403,339,32035,1,4,0:3:0:0:
365,256,32249,2,0,L|355:160,1,82.5,8|0,0:2|0:0,0:0:0:0:
427,84,32678,6,0,P|354:117|267:83,1,165,4|8,0:3|0:2,0:0:0:0:
201,40,33321,1,4,0:3:0:0:
110,34,33535,1,0,0:0:0:0:
64,112,33749,1,8,0:2:0:0:
119,211,33964,1,8,0:2:0:0:
116,301,34178,1,0,0:0:0:0:
193,254,34392,6,0,P|232:269|288:270,1,82.5,4|2,0:3|0:3,0:0:0:0:
362,261,34821,1,8,0:2:0:0:
444,298,35035,1,4,0:3:0:0:
484,217,35249,2,0,L|468:119,1,82.5,0|4,0:0|0:3,0:0:0:0:
383,107,35678,2,0,L|396:188,1,82.5,8|0,0:2|0:0,0:0:0:0:
353,293,36107,6,0,P|271:294|188:329,2,165,4|8|0,0:3|0:2|0:0,0:0:0:0:
439,319,37178,1,4,0:3:0:0:
404,235,37392,2,0,P|388:203|385:156,1,82.5,8|0,0:2|0:0,0:0:0:0:
451,65,37821,6,0,L|281:81,1,165,4|8,0:3|0:2,0:0:0:0:
202,46,38464,1,4,0:3:0:0:
202,46,38892,1,4,0:3:0:0:
91,72,39107,1,8,0:2:0:0:
91,72,39535,5,4,0:3:0:0:
199,248,40607,2,8,L|194:291,2,41.25
218,136,41035,1,8,0:0:0:0:
218,136,41249,6,0,P|289:158|383:116,1,165,12|8,0:3|0:2,0:0:0:0:
436,63,41892,1,4,0:3:0:0:
371,127,42107,2,0,L|367:215,1,82.5,0|4,0:0|0:3,0:0:0:0:
418,284,42535,1,8,0:2:0:0:
339,328,42749,1,2,0:2:0:0:
260,281,42964,6,0,P|165:242|94:257,1,165,4|8,0:3|0:2,0:0:0:0:
22,288,43607,1,4,0:3:0:0:
105,252,43821,2,0,L|98:158,1,82.5,0|4,0:0|0:3,0:0:0:0:
187,98,44249,2,0,L|193:180,1,82.5,8|0,0:2|0:0,0:0:0:0:
337,84,44678,6,0,P|264:119|187:97,1,165,12|8,0:3|0:2,0:0:0:0:
107,53,45321,1,4,0:3:0:0:
45,119,45535,2,0,P|50:153|32:213,1,82.5,0|4,0:0|0:3,0:0:0:0:
99,267,45964,2,0,P|94:301|112:361,1,82.5,8|2,0:2|0:2,0:0:0:0:
207,300,46392,6,0,L|383:286,1,165,4|8,0:3|0:2,0:0:0:0:
454,323,47035,1,4,0:3:0:0:
371,286,47249,2,0,P|377:236|370:189,1,82.5,0|8,0:0|0:2,0:0:0:0:
446,116,47678,1,8,0:2:0:0:
337,83,47892,1,0,0:0:0:0:
227,53,48107,6,0,P|246:93|199:208,1,165,12|8,0:3|0:2,0:0:0:0:
136,255,48749,1,4,0:3:0:0:
208,200,48964,2,0,L|306:205,1,82.5,0|4,0:0|0:3,0:0:0:0:
353,269,49392,2,0,L|451:274,1,82.5,8|2,0:2|0:2,0:0:0:0:
335,126,49821,6,0,P|379:193|353:269,1,165,4|8,0:3|0:2,0:0:0:0:
294,338,50464,1,4,0:3:0:0:
211,300,50678,2,0,P|175:288|129:286,1,82.5,2|4,0:0|0:3,0:0:0:0:
45,316,51107,1,8,0:2:0:0:
72,229,51321,1,0,0:0:0:0:
47,141,51535,6,0,L|221:133,1,165,12|8,0:3|0:2,0:0:0:0:
287,82,52178,1,4,0:3:0:0:
212,133,52392,2,0,P|203:175|215:224,1,82.5,0|4,0:0|0:3,0:0:0:0:
290,255,52821,2,0,P|299:213|287:164,1,82.5,8|2,0:2|0:2,0:0:0:0:
454,267,53249,6,0,L|290:255,1,165,4|8,0:3|0:2,0:0:0:0:
207,293,53892,1,4,0:3:0:0:
290,255,54107,2,0,P|291:214|316:162,1,82.5,0|8,0:0|0:2,0:0:0:0:
393,103,54535,1,8,0:2:0:0:
285,66,54749,1,8,0:0:0:0:
177,103,54964,6,0,P|115:130|33:80,1,165,12|8,0:3|0:2,0:0:0:0:
113,38,55607,1,4,0:3:0:0:
177,103,55821,2,0,L|171:193,1,82.5,0|4,0:0|0:3,0:0:0:0:
111,252,56249,1,8,0:2:0:0:
130,340,56464,1,2,0:2:0:0:
215,309,56678,6,0,P|292:292|392:308,1,165,4|8,0:3|0:2,0:0:0:0:
457,344,57321,1,4,0:3:0:0:
376,302,57535,2,0,L|387:209,1,82.5,0|4,0:0|0:3,0:0:0:0:
301,144,57964,2,0,L|290:237,1,82.5,8|0,0:2|0:0,0:0:0:0:
152,158,58392,6,0,P|229:181|301:144,1,165,12|8,0:3|0:2,0:0:0:0:
386,174,59035,1,4,0:3:0:0:
301,143,59249,2,0,L|291:61,1,82.5,0|4,0:0|0:3,0:0:0:0:
205,31,59678,1,8,0:2:0:0:
125,75,59892,1,2,0:2:0:0:
37,50,60107,6,0,L|62:231,1,165,4|8,0:3|0:2,0:0:0:0:
28,298,60749,1,4,0:3:0:0:
59,213,60964,2,0,P|101:209|157:225,1,82.5,0|8,0:0|0:2,0:0:0:0:
243,264,61392,1,8,0:2:0:0:
348,222,61607,1,0,0:0:0:0:
448,272,61821,6,0,P|428:238|454:118,1,165,12|8,0:3|0:2,0:0:0:0:
494,41,62464,1,4,0:3:0:0:
451,121,62678,2,0,L|367:131,1,82.5,0|4,0:0|0:3,0:0:0:0:
286,92,63107,2,0,L|202:82,1,82.5,8|2,0:2|0:2,0:0:0:0:
280,234,63535,6,0,P|247:161|286:91,1,165,4|8,0:3|0:2,0:0:0:0:
339,165,64178,1,4,0:3:0:0:
280,234,64392,2,0,P|239:236|201:255,1,82.5,2|4,0:0|0:3,0:0:0:0:
184,343,64821,2,0,P|225:341|263:322,1,82.5,8|0,0:2|0:0,0:0:0:0:
371,351,65249,6,0,L|399:184,1,165,12|8,0:3|0:2,0:0:0:0:
479,147,65892,1,4,0:3:0:0:
398,188,66107,2,0,P|358:168|303:163,1,82.5,0|4,0:0|0:3,0:0:0:0:
232,179,66535,1,8,0:2:0:0:
259,92,66749,1,2,0:2:0:0:
147,112,66964,6,0,P|110:79|4:103,1,165,4|0,0:3|0:0,0:0:0:0:
72,162,67607,1,0,0:0:0:0:
249,124,68035,2,0,L|245:74,2,41.25,8|8|8,0:2|0:0|0:2,0:0:0:0:
259,236,68464,1,8,0:0:0:0:
259,236,68678,6,0,L|348:248,1,82.5,4|2,0:3|0:3,0:0:0:0:
433,312,69107,2,0,P|422:262|429:221,1,82.5,8|4,0:2|0:3,0:0:0:0:
469,151,69535,1,0,0:0:0:0:
448,62,69749,1,4,0:3:0:0:
359,84,69964,2,0,P|316:92|271:85,1,82.5,8|0,0:2|0:0,0:0:0:0:
174,39,70392,6,0,P|188:100|147:202,2,165,4|8|0,0:3|0:2|0:0,0:0:0:0:
91,76,71464,1,4,0:3:0:0:
9,116,71678,2,0,L|26:206,1,82.5,8|0,0:2|0:0,0:0:0:0:
12,309,72107,6,0,P|80:274|176:309,1,165,4|8,0:3|0:2,0:0:0:0:
237,345,72749,1,4,0:3:0:0:
301,280,72964,2,0,L|287:193,1,82.5,0|4,0:0|0:3,0:0:0:0:
209,153,73392,2,0,L|195:66,1,82.5,8|0,0:2|0:0,0:0:0:0:
299,25,73821,6,0,P|344:55|455:26,1,165,4|8,0:3|0:2,0:0:0:0:
432,123,74464,1,4,0:3:0:0:
467,206,74678,1,0,0:0:0:0:
445,294,74892,1,8,0:2:0:0:
334,268,75107,1,8,0:2:0:0:
251,305,75321,1,0,0:0:0:0:
265,215,75535,6,0,L|252:122,1,82.5,4|2,0:3|0:3,0:0:0:0:
165,111,75964,2,0,L|176:192,1,82.5,8|4,0:2|0:3,0:0:0:0:
85,202,76392,1,0,0:0:0:0:
57,288,76607,1,4,0:3:0:0:
134,335,76821,1,8,0:2:0:0:
204,278,77035,1,0,0:0:0:0:
303,331,77249,6,0,L|472:339,2,165,4|8|0,0:3|0:2|0:0,0:0:0:0:
319,241,78321,1,4,0:3:0:0:
269,165,78535,2,0,P|257:133|257:72,1,82.5,8|0,0:2|0:0,0:0:0:0:
328,31,78964,6,0,P|340:63|340:124,1,82.5,4|2,0:3|0:3,0:0:0:0:
399,180,79392,1,8,0:2:0:0:
486,204,79607,2,0,L|507:296,1,82.5,4|0,0:3|0:0,0:0:0:0:
449,356,80035,1,4,0:3:0:0:
364,324,80249,2,0,L|345:243,1,82.5,8|0,0:2|0:0,0:0:0:0:
251,178,80678,6,0,P|188:152|109:202,1,165,4|8,0:3|0:2,0:0:0:0:
190,243,81321,1,4,0:3:0:0:
238,319,81535,1,0,0:0:0:0:
328,312,81749,1,8,0:2:0:0:
437,344,81964,1,8,0:2:0:0:
406,234,82178,1,8,0:2:0:0:
451,130,82392,6,0,P|405:139|358:131,1,82.5,4|2,0:3|0:3,0:0:0:0:
288,93,82821,2,0,P|242:84|195:92,1,82.5,8|4,0:2|0:3,0:0:0:0:
119,113,83249,1,0,0:0:0:0:
36,74,83464,1,4,0:3:0:0:
46,164,83678,2,0,L|40:263,1,82.5,8|0,0:2|0:0,0:0:0:0:
107,338,84107,6,0,P|172:318|274:340,2,165,4|8|0,0:3|0:2|0:0,0:0:0:0:
26,296,85178,1,4,0:3:0:0:
97,239,85392,2,0,L|114:149,1,82.5,8|0,0:2|0:0,0:0:0:0:
84,48,85821,6,0,P|120:89|233:76,1,165,4|8,0:3|0:2,0:0:0:0:
308,52,86463,1,4,0:3:0:0:
386,98,86678,2,0,P|377:145|389:193,1,82.5,0|4,0:0|0:3,0:0:0:0:
464,219,87107,2,0,P|469:178|460:138,1,82.5,8|0,0:2|0:0,0:0:0:0:
385,52,87535,6,0,L|219:61,1,165,4|8,0:3|0:2,0:0:0:0:
136,97,88178,1,4,0:3:0:0:
50,67,88392,1,0,0:0:0:0:
73,154,88607,1,8,0:2:0:0:
116,258,88821,1,8,0:2:0:0:
83,342,89035,1,0,0:0:0:0:
172,328,89249,6,0,L|261:322,1,82.5,4|2,0:3|0:3,0:0:0:0:
334,279,89678,2,0,L|423:273,1,82.5,8|4,0:2|0:3,0:0:0:0:
468,199,90106,1,0,0:0:0:0:
442,111,90321,1,4,0:3:0:0:
380,177,90535,1,8,0:2:0:0:
354,89,90750,1,0,0:0:0:0:
251,42,90964,6,0,P|181:74|84:66,2,165,4|8|0,0:3|0:2|0:0,0:0:0:0:
251,132,92035,1,4,0:3:0:0:
197,204,92249,2,0,L|210:301,1,82.5,8|0,0:2|0:0,0:0:0:0:
296,308,92678,2,0,L|285:226,1,82.5,4|2,0:3|0:3,0:0:0:0:
375,226,93106,1,8,0:2:0:0:
425,150,93321,2,0,P|435:117|430:65,1,82.5,4|0,0:3|0:0,0:0:0:0:
357,17,93749,1,4,0:3:0:0:
320,100,93964,2,0,P|310:133|315:185,1,82.5,8|0,0:2|0:0,0:0:0:0:
360,284,94392,5,4,0:3:0:0:
360,284,95464,2,8,L|400:269,2,41.25
254,326,95892,1,8,0:0:0:0:
254,326,96107,6,0,P|286:244|265:166,1,165,12|8,0:3|0:2,0:0:0:0:
214,98,96749,1,4,0:3:0:0:
123,84,96964,2,0,P|131:123|111:173,1,82.5,0|4,0:0|0:3,0:0:0:0:
34,198,97392,2,0,P|26:159|46:109,1,82.5,8|2,0:2|0:2,0:0:0:0:
123,84,97821,6,0,L|294:68,1,165,4|8,0:3|0:2,0:0:0:0:
368,26,98464,1,4,0:3:0:0:
361,116,98678,1,0,0:0:0:0:
401,196,98892,1,4,0:3:0:0:
379,284,99107,2,0,L|285:304,1,82.5,8|0,0:2|0:0,0:0:0:0:
212,375,99535,6,0,P|236:295|194:223,1,165,12|8,0:3|0:2,0:0:0:0:
122,178,100178,1,4,0:3:0:0:
81,96,100392,2,0,L|69:6,1,82.5,0|4,0:0|0:3,0:0:0:0:
181,37,100821,2,0,L|191:118,1,82.5,8|2,0:2|0:2,0:0:0:0:
337,45,101249,6,0,P|258:62|181:37,1,165,4|8,0:3|0:2,0:0:0:0:
101,81,101892,1,4,0:3:0:0:
61,162,102107,2,0,P|53:198|70:253,1,82.5,0|8,0:0|0:2,0:0:0:0:
33,351,102535,1,8,0:2:0:0:
141,319,102749,1,0,0:0:0:0:
253,336,102964,6,0,L|429:320,1,165,12|8,0:3|0:2,0:0:0:0:
495,274,103607,1,4,0:3:0:0:
481,184,103821,1,0,0:0:0:0:
390,179,104035,1,4,0:3:0:0:
351,261,104249,2,0,L|254:275,1,82.5,8|2,0:2|0:2,0:0:0:0:
189,229,104678,6,0,L|92:215,1,82.5,4|2,0:3|0:3,0:0:0:0:
52,144,105107,1,8,0:2:0:0:
100,67,105321,2,0,P|154:83|197:75,1,82.5,4|2,0:3|0:0,0:0:0:0:
257,34,105749,1,4,0:3:0:0:
332,80,105964,2,0,P|373:81|412:67,1,82.5,8|0,0:2|0:0,0:0:0:0:
359,243,106392,6,0,L|332:80,1,165,12|8,0:3|0:2,0:0:0:0:
257,34,107035,1,4,0:3:0:0:
178,80,107249,2,0,L|86:89,1,82.5,0|4,0:0|0:3,0:0:0:0:
76,176,107678,2,0,L|158:167,1,82.5,8|2,0:2|0:2,0:0:0:0:
183,255,108107,6,0,P|231:221|236:121,1,165,4|8,0:3|0:2,0:0:0:0:
183,48,108749,1,4,0:3:0:0:
273,41,108964,2,0,L|373:33,1,82.5,0|8,0:0|0:2,0:0:0:0:
349,147,109392,1,8,0:2:0:0:
433,222,109607,1,8,0:0:0:0:
327,263,109821,6,0,P|286:280|161:268,1,165,12|8,0:3|0:2,0:0:0:0:
93,323,110464,1,4,0:3:0:0:
29,258,110678,2,0,L|36:171,1,82.5,0|4,0:0|0:3,0:0:0:0:
109,122,111107,2,0,L|102:39,1,82.5,8|2,0:2|0:2,0:0:0:0:
185,4,111535,6,0,L|199:174,1,165,4|8,0:3|0:2,0:0:0:0:
149,245,112178,1,4,0:3:0:0:
202,318,112392,1,0,0:0:0:0:
288,289,112606,1,4,0:3:0:0:
280,198,112821,2,0,L|357:158,1,82.5,8|0,0:2|0:0,0:0:0:0:
404,58,113249,6,0,P|391:105|448:204,1,165,12|8,0:3|0:2,0:0:0:0:
404,283,113892,1,4,0:3:0:0:
319,317,114107,2,0,L|225:327,1,82.5,0|4,0:0|0:3,0:0:0:0:
174,231,114535,2,0,L|256:222,1,82.5,8|2,0:2|0:2,0:0:0:0:
173,92,114964,6,0,P|211:161|174:231,1,165,4|8,0:3|0:2,0:0:0:0:
98,281,115606,1,4,0:3:0:0:
125,367,115821,2,0,P|164:356|205:356,1,82.5,0|8,0:0|0:2,0:0:0:0:
317,382,116249,1,8,0:2:0:0:
425,346,116464,1,0,0:0:0:0:
341,269,116678,6,0,L|315:101,1,165,12|8,0:3|0:2,0:0:0:0:
234,64,117321,1,4,0:3:0:0:
238,154,117535,1,0,0:0:0:0:
190,230,117749,1,4,0:3:0:0:
109,271,117964,2,0,P|115:312|118:366,1,82.5,8|2,0:2|0:2,0:0:0:0:
32,321,118392,6,0,P|26:278|24:238,1,82.5,4|2,0:3|0:3,0:0:0:0:
65,158,118821,1,8,0:2:0:0:
33,72,119035,2,0,L|119:65,1,82.5,4|2,0:3|0:0,0:0:0:0:
198,101,119464,1,4,0:3:0:0:
280,62,119678,2,0,L|362:68,1,82.5,8|0,0:2|0:0,0:0:0:0:
280,204,120107,6,0,P|315:131|273:57,1,165,12|8,0:3|0:2,0:0:0:0:
224,133,120749,1,4,0:3:0:0:
137,104,120964,2,0,L|50:115,1,82.5,0|4,0:0|0:3,0:0:0:0:
37,203,121392,2,0,L|118:192,1,82.5,8|2,0:2|0:2,0:0:0:0:
226,227,121821,6,0,P|284:177|374:205,1,165,4|0,0:3|0:0,0:0:0:0:
307,266,122464,1,0,0:0:0:0:
128,234,122892,2,8,L|134:288,2,41.25,8|8|8,0:2|0:0|0:2,0:0:0:0:
117,121,123321,1,8,0:0:0:0:
256,192,123535,12,0,125249,0:0:0:0:
