osu file format v14

[General]
AudioFilename: audio.mp3
AudioLeadIn: 0
PreviewTime: 41249
Countdown: 0
SampleSet: Soft
StackLeniency: 0.7
Mode: 0
LetterboxInBreaks: 0
WidescreenStoryboard: 0

[Editor]
Bookmarks: 13821,54964,68678,74892,75107,81749,81964,82178,88607,88821,102321,102535,109178,109392,109607,109821,116035,116249,122892,122999,123107,123321,137223
DistanceSpacing: 1.2
BeatDivisor: 4
GridSize: 16
TimelineZoom: 2

[Metadata]
Title:Labyrinth
TitleUnicode:Labyrinth
Artist:Mr.Kitty
ArtistUnicode:Mr.Kitty
Creator:Gordon123
Version:Collab Light
Source:
Tags:goth new wave gothic life english synthpop post-punk electronic danielexus KittyAdventure Daycore
BeatmapID:2113620
BeatmapSetID:986247

[Difficulty]
HPDrainRate:2
CircleSize:2.5
OverallDifficulty:2
ApproachRate:3
SliderMultiplier:1
SliderTickRate:1

[Events]
//Background and Video events
0,0,"cuteriffy.jpg",0,0
//Break Periods
//Storyboard Layer 0 (Background)
//Storyboard Layer 1 (Fail)
//Storyboard Layer 2 (Pass)
//Storyboard Layer 3 (Foreground)
//Storyboard Layer 4 (Overlay)
//Storyboard Sound Samples

[TimingPoints]
107,428.571428571429,4,2,1,20,1,0
13821,-117.647058823529,4,2,1,50,0,0
41249,-100,4,2,1,65,0,1
68678,-117.647058823529,4,2,1,50,0,0
96107,-100,4,2,1,65,0,1
123535,-117.647058823529,4,2,1,40,0,0
124392,-117.647058823529,4,2,1,30,0,0
125249,-117.647058823529,4,2,1,20,0,0
126107,-117.647058823529,4,2,1,10,0,0
126964,-117.647058823529,4,2,1,5,0,0

[Colours]
Combo1 : 79,111,142
Combo2 : 188,169,203
Combo3 : 197,120,120
Combo4 : 153,187,130

[HitObjects]
284,102,13821,6,0,P|371:105|422:184,1,170.000003242493,4|0,0:3|0:0,0:0:0:0:
322,198,15107,1,8,0:2:0:0:
253,273,15535,2,0,L|267:362,1,85.0000016212463,4|8,0:3|0:2,0:0:0:0:
165,343,16392,2,0,L|151:259,1,85.0000016212463,0|8,0:0|0:2,0:0:0:0:
96,173,17249,6,0,P|127:127|103:48,2,127.50000243187,4|4|8,0:3|0:3|0:2,0:0:0:0:
151,259,18964,1,4,0:3:0:0:
248,287,19392,1,8,0:2:0:0:
341,246,19821,2,0,L|392:243,2,42.5000008106232,0|8|8,0:0|0:2|0:2,0:0:0:0:
260,182,20678,6,0,B|289:138|289:138|293:15,1,170.000003242493,4|0,0:3|0:0,0:0:0:0:
378,76,21964,1,8,0:2:0:0:
471,35,22392,2,0,L|468:132,1,85.0000016212463,4|8,0:3|0:2,0:0:0:0:
416,207,23249,2,0,L|413:304,1,85.0000016212463,0|8,0:0|0:2,0:0:0:0:
320,335,24107,6,0,P|256:321|181:348,2,127.50000243187,4|4|8,0:3|0:3|0:2,0:0:0:0:
413,291,25821,1,4,0:3:0:0:
349,211,26249,1,8,0:2:0:0:
361,109,26678,2,0,L|368:53,2,42.5000008106232,0|8|8,0:0|0:2|0:2,0:0:0:0:
349,211,27535,6,0,L|249:223,1,85.0000016212464,4|8,0:3|0:2,0:0:0:0:
162,226,28392,1,0,0:0:0:0:
164,328,28821,2,0,P|94:300|65:204,1,170.000003242493,8|8,0:2|0:2,0:0:0:0:
116,128,30107,2,0,L|106:39,1,85.0000016212464,0|8,0:0|0:2,0:0:0:0:
204,72,30964,6,0,L|221:205,2,127.50000243187,4|4|8,0:3|0:3|0:2,0:0:0:0:
296,29,32678,1,4,0:3:0:0:
390,67,33107,1,8,0:2:0:0:
435,158,33535,2,0,L|486:147,2,42.5000008106232,0|8|8,0:0|0:2|0:2,0:0:0:0:
369,236,34392,6,0,B|350:215|350:215|270:178,1,85.0000016212464,4|8,0:3|0:2,0:0:0:0:
251,100,35249,1,0,0:0:0:0:
150,85,35678,2,0,P|78:114|49:210,1,170.000003242493,8|8,0:2|0:2,0:0:0:0:
148,188,36964,1,0,0:0:0:0:
202,273,37392,1,8,0:2:0:0:
300,299,37821,6,0,P|348:311|431:270,2,127.50000243187,4|4|8,0:3|0:3|0:2,0:0:0:0:
350,210,39535,1,4,0:3:0:0:
350,210,41249,6,0,P|277:197|285:80,1,200,12|0,0:3|0:0,0:0:0:0:
379,30,42535,1,8,0:2:0:0:
476,100,42964,2,0,P|464:144|478:210,1,100,4|8,0:3|0:2,0:0:0:0:
501,313,43821,2,0,L|385:343,1,100,0|8,0:0|0:2,0:0:0:0:
311,261,44678,6,0,P|225:221|137:295,1,200,12|0,0:3|0:0,0:0:0:0:
67,365,45964,1,8,0:2:0:0:
16,256,46392,2,0,L|7:144,1,100,4|8,0:3|0:2,0:0:0:0:
75,57,47249,2,0,P|66:30|62:0,2,50,0|8|8,0:0|0:2|0:2,0:0:0:0:
174,124,48107,6,0,L|191:329,1,200,12|0,0:3|0:0,0:0:0:0:
305,289,49392,1,8,0:2:0:0:
395,370,49821,2,0,P|421:326|424:267,1,100,4|8,0:3|0:2,0:0:0:0:
367,173,50678,2,0,L|359:61,1,100,2|8,0:0|0:2,0:0:0:0:
250,23,51535,6,0,B|221:46|221:46|51:54,1,200,12|0,0:3|0:0,0:0:0:0:
106,163,52821,1,8,0:2:0:0:
41,263,53249,2,0,P|90:264|149:294,1,100,4|8,0:3|0:2,0:2:0:0:
247,329,54107,2,0,L|247:391,2,50,0|8|8,0:0|0:2|0:2,0:0:0:0:
210,214,54964,6,0,P|207:164|338:116,1,200,12|0,0:3|0:0,0:0:0:0:
442,84,56249,1,8,0:2:0:0:
472,200,56678,2,0,L|492:319,1,100,4|8,0:3|0:2,0:0:0:0:
386,361,57535,2,0,L|369:262,1,100,0|8,0:0|0:2,0:0:0:0:
255,224,58392,6,0,P|176:277|85:225,1,200,12|0,0:3|0:0,0:0:0:0:
20,136,59678,1,8,0:2:0:0:
106,53,60107,2,0,P|155:72|219:61,1,100,4|8,0:3|0:2,0:0:0:0:
316,33,60964,2,0,L|383:26,2,50,0|8|8,0:0|0:2|0:2,0:0:0:0:
278,147,61821,6,0,B|252:187|252:187|243:355,1,200,12|0,0:3|0:0,0:0:0:0:
361,312,63107,1,8,0:2:0:0:
476,344,63535,2,0,L|463:244,1,100,4|8,0:3|0:2,0:0:0:0:
484,126,64392,2,0,L|471:26,1,100,2|8,0:0|0:2,0:0:0:0:
357,64,65249,6,0,P|272:114|166:89,1,200,12|0,0:3|0:0,0:0:0:0:
64,138,66535,1,8,0:2:0:0:
149,221,66964,2,0,P|178:262|188:327,2,100,4|0|0,0:3|0:0|0:0,0:0:0:0:
64,138,68249,1,8,0:2:0:0:
115,32,68678,6,0,L|284:19,1,170.000003242493,4|0,0:3|0:0,0:0:0:0:
370,75,69964,1,8,0:2:0:0:
456,21,70392,2,0,P|469:62|467:104,1,85.0000016212464,4|8,0:3|0:2,0:0:0:0:
497,202,71249,2,0,P|462:226|421:237,1,85.0000016212464,0|8,0:0|0:2,0:0:0:0:
362,321,72107,6,0,L|234:311,2,127.50000243187,4|4|8,0:3|0:3|0:2,0:0:0:0:
421,237,73821,1,4,0:3:0:0:
359,154,74249,1,8,0:2:0:0:
261,188,74678,2,0,L|247:147,2,42.5000008106232,0|8|8,0:0|0:2|0:2,0:0:0:0:
163,222,75535,6,0,B|102:241|102:241|2:206,1,170.000003242493,4|0,0:3|0:0,0:0:0:0:
20,105,76821,1,8,0:2:0:0:
117,74,77249,2,0,L|201:77,1,85.0000016212464,4|8,0:3|0:2,0:0:0:0:
297,41,78107,2,0,L|381:44,1,85.0000016212464,0|8,0:0|0:2,0:0:0:0:
471,90,78964,6,0,P|484:152|458:209,2,127.50000243187,4|4|8,0:3|0:3|0:2,0:0:0:0:
382,140,80678,1,4,0:3:0:0:
298,81,81107,1,8,0:2:0:0:
207,128,81535,2,0,L|226:166,2,42.5000008106232,0|8|8,0:0|0:2|0:2,0:0:0:0:
125,65,82392,6,0,P|108:104|106:147,1,85.0000016212464,4|8,0:3|0:2,0:0:0:0:
61,238,83249,1,0,0:0:0:0:
119,320,83678,2,0,P|192:282|274:299,1,170.000003242493,8|8,0:2|0:2,0:0:0:0:
345,370,84964,2,0,P|388:370|425:350,1,85.0000016212464,0|8,0:0|0:2,0:0:0:0:
467,257,85821,6,0,L|464:129,2,127.50000243187,4|4|8,0:3|0:3|0:2,0:0:0:0:
366,274,87535,1,4,0:3:0:0:
318,183,87964,1,8,0:2:0:0:
216,200,88392,2,0,L|208:158,2,42.5000008106232,0|8|8,0:0|0:2|0:2,0:0:0:0:
114,217,89249,6,0,L|99:133,1,85.0000016212464,4|8,0:3|0:2,0:0:0:0:
174,63,90107,1,0,0:0:0:0:
262,113,90535,2,0,P|343:129|416:89,1,170.000003242493,8|8,0:2|0:2,0:0:0:0:
492,21,91821,1,0,0:0:0:0:
498,122,92249,1,8,0:2:0:0:
505,223,92678,6,0,B|471:276|471:276|408:290,2,127.50000243187,4|4|8,0:3|0:3|0:2,0:0:0:0:
410,184,94392,1,4,0:3:0:0:
410,184,96107,6,0,B|371:187|371:187|333:190|320:206|316:211|316:211|311:216|298:232|260:235|260:235|223:238,1,200,12|0,0:3|0:0,0:0:0:0:
127,166,97392,1,8,0:2:0:0:
35,244,97821,2,0,P|12:199|10:149,1,100,4|8,0:3|0:2,0:0:0:0:
90,60,98678,2,0,L|189:63,1,100,0|8,0:0|0:2,0:0:0:0:
274,148,99535,6,0,B|329:156|360:195|360:195|383:152|436:133,1,200,12|0,0:3|0:0,0:0:0:0:
478,246,100821,1,8,0:2:0:0:
406,342,101249,2,0,P|359:355|310:348,1,100,4|8,0:3|0:2,0:0:0:0:
213,276,102107,2,0,P|188:274|163:279,2,50,0|8|8,0:0|0:2|0:2,0:0:0:0:
327,240,102964,6,0,B|345:149|345:149|355:139|355:139|375:48,1,200,12|0,0:3|0:0,0:0:0:0:
259,85,104249,1,8,0:2:0:0:
160,15,104678,2,0,P|110:9|63:24,1,100,4|8,0:3|0:2,0:0:0:0:
14,134,105535,2,0,P|33:179|70:212,1,100,2|8,0:0|0:2,0:0:0:0:
190,200,106392,6,0,B|224:164|224:164|373:144,1,200,12|0,0:3|0:0,0:0:0:0:
453,233,107678,1,8,0:2:0:0:
393,337,108107,2,0,B|345:353|345:353|298:337,1,100,4|8,0:3|0:2,0:0:0:0:
190,284,108964,2,0,B|165:276|165:276|142:283,2,50,0|8|8,0:0|0:2|0:2,0:0:0:0:
295,225,109821,6,0,B|298:186|298:186|301:148|317:135|322:131|322:131|327:126|343:113|346:75|346:75|349:38,1,200,12|0,0:3|0:0,0:0:0:0:
231,61,111107,1,8,0:2:0:0:
120,11,111535,2,0,P|107:58|119:106,1,100,4|8,0:3|0:2,0:0:0:0:
204,191,112392,2,0,P|217:238|205:286,1,100,0|8,0:0|0:2,0:0:0:0:
96,338,113249,6,0,B|91:281|121:243|121:243|73:230|43:183,1,200,12|0,0:3|0:0,0:0:0:0:
91,74,114535,1,8,0:2:0:0:
200,119,114964,2,0,P|249:126|294:105,1,100,4|8,0:3|0:2,0:0:0:0:
395,40,115821,2,0,P|419:39|443:46,2,50,0|8|8,0:0|0:2|0:2,0:0:0:0:
399,160,116678,6,0,B|417:251|417:251|427:261|427:261|447:351,1,200,12|0,0:3|0:0,0:0:0:0:
331,381,117964,1,8,0:2:0:0:
247,295,118392,2,0,L|148:306,1,100,4|8,0:3|0:2,0:0:0:0:
32,340,119249,2,0,L|21:241,1,100,2|8,0:0|0:2,0:0:0:0:
84,138,120107,6,0,B|118:174|118:174|273:160,1,200,12|0,0:3|0:0,0:0:0:0:
352,75,121392,1,8,0:2:0:0:
456,134,121821,2,0,B|472:182|472:182|455:229,1,100,4|0,0:3|0:0,0:0:0:0:
367,310,122678,2,0,B|359:335|359:335|366:358,2,50,0|8|8,0:0|0:2|0:2,0:0:0:0:
256,192,123321,12,0,128678,0:0:0:0:
