osu file format v14

[General]
AudioFilename: audio.mp3
AudioLeadIn: 0
PreviewTime: 29509
Countdown: 0
SampleSet: Soft
StackLeniency: 0.3
Mode: 0
LetterboxInBreaks: 0
WidescreenStoryboard: 1

[Editor]
Bookmarks: 30654,56254,89787,89987
DistanceSpacing: 0.8
BeatDivisor: 3
GridSize: 16
TimelineZoom: 2.999999

[Metadata]
Title:Liar,Liar
TitleUnicode:Liar,Liar
Artist:Mr.FanTastiC
ArtistUnicode:Mr.FanTastiC
Creator:Dored
Version:Shocko's Insane
Source:DEAD DAYS
Tags:絶走 CLOCKUP Opening Short Version Eroge Visual Novel Galgame Video Game Japanese メガテラ・ゼロ Garden Akitoshi Corinn -Laura- Shocko Mikii Bellicose
BeatmapID:2613711
BeatmapSetID:1233707

[Difficulty]
HPDrainRate:5
CircleSize:3.8
OverallDifficulty:6
ApproachRate:8.7
SliderMultiplier:1.6
SliderTickRate:1

[Events]
//Background and Video events
0,0,"Top.jpg",0,0
//Break Periods
2,50054,54512
//Storyboard Layer 0 (Background)
//Storyboard Layer 1 (Fail)
//Storyboard Layer 2 (Pass)
//Storyboard Layer 3 (Foreground)
//Storyboard Layer 4 (Overlay)
//Storyboard Sound Samples

[TimingPoints]
-279,266.666666666667,4,2,1,70,1,0
654,-100,4,2,1,70,0,0
9321,-125,4,2,1,60,0,0
17054,-100,4,2,1,65,0,0
17321,-111.111111111111,4,2,1,65,0,0
17587,-125,4,2,1,65,0,0
17854,-111.111111111111,4,2,1,70,0,0
26121,-250,4,2,1,70,0,0
26387,-100,4,2,1,70,0,0
28521,-83.3333333333333,4,2,1,70,0,0
30654,-100,4,2,1,80,0,0
35187,-100,4,2,3,80,0,0
35321,-100,4,2,1,80,0,0
36787,-100,4,2,3,80,0,0
36921,-100,4,2,1,80,0,0
37321,-100,4,2,3,80,0,0
37454,-100,4,2,1,80,0,0
47721,-100,4,2,1,75,0,0
55187,-250,4,2,1,75,0,0
55454,-100,4,2,1,75,0,0
56254,-100,4,2,1,60,0,0
56521,-111.111111111111,4,2,1,60,0,0
60521,-111.111111111111,4,2,1,65,0,0
64787,-100,4,2,1,65,0,0
70921,-90.9090909090909,4,2,1,70,0,0
71454,-90.9090909090909,4,2,1,75,0,0
72521,-90.9090909090909,4,2,4,75,0,0
72587,-90.9090909090909,4,2,1,75,0,0
73321,-100,4,2,17,80,0,0
73454,-100,4,2,1,80,0,0
82921,-100,4,2,3,80,0,0
83054,-100,4,2,1,80,0,0
88254,-90.9090909090909,4,2,1,80,0,0
89454,-83.3333333333333,4,2,1,80,0,0
89854,-90.9090909090909,4,2,1,80,0,0
90387,-90.9090909090909,4,2,1,65,0,0

[Colours]
Combo1 : 202,255,202
Combo2 : 206,221,227
Combo3 : 255,255,181
Combo4 : 221,207,254

[HitObjects]
10,359,654,5,2,0:0:0:0:
7,353,721,1,2,0:0:0:0:
4,347,787,2,0,P|47:310|114:326,1,120,6|0,1:2|0:0,0:0:0:0:
185,355,1054,2,0,P|181:317|170:267,1,80,8|0,0:0|1:0,0:0:0:0:
253,112,1321,2,0,P|269:147|261:186,1,80,8|0,0:0|1:0,0:0:0:0:
181,177,1587,1,0,1:0:0:0:
176,180,1721,6,0,B|108:166|94:230|18:216,1,160,12|0,0:0|1:0,0:0:0:0:
98,108,2121,2,0,P|91:69|83:29,1,80,8|0,0:3|1:0,0:0:0:0:
217,88,2387,5,8,0:3:0:0:
305,42,2520,1,0,1:0:0:0:
392,83,2654,1,12,0:0:0:0:
393,90,2921,6,0,P|383:122|374:167,1,80,12|0,0:0|0:0,0:0:0:0:
479,251,3187,1,0,1:0:0:0:
430,324,3321,2,0,B|373:329|373:329|346:364|346:364|282:370,1,160,12|0,0:0|1:0,0:0:0:0:
220,313,3721,6,0,P|227:277|240:236,1,80,12|0,0:0|1:0,0:0:0:0:
81,106,3987,1,0,1:0:0:0:
149,56,4121,2,0,P|194:117|165:188,1,160,12|0,0:0|1:0,0:0:0:0:
100,253,4521,5,8,0:0:0:0:
75,238,4587,1,8,0:0:0:0:
47,239,4654,1,8,0:3:0:0:
24,254,4721,1,8,0:3:0:0:
13,272,4788,2,0,P|21:290|27:309,3,40,4|4|4|4,0:3|0:3|0:3|0:3,0:0:0:0:
128,372,5054,5,12,0:0:0:0:
212,349,5187,1,0,1:0:0:0:
292,327,5321,1,0,1:0:0:0:
374,369,5454,6,0,P|384:287|396:204,1,160,12|0,0:0|1:0,0:0:0:0:
305,117,5854,2,0,P|290:153|299:192,1,80,12|0,0:0|1:0,0:0:0:0:
440,109,6121,1,0,1:0:0:0:
376,53,6254,5,8,0:0:0:0:
372,48,6321,1,8,0:0:0:0:
369,43,6387,2,0,P|374:21|381:2,3,40,8|8|8|8,0:0|0:0|0:3|0:3,0:0:0:0:
305,117,6654,2,0,P|281:110|266:108,3,40,4|4|4|4,0:3|0:3|0:3|0:3,0:0:0:0:
196,53,6921,2,0,P|177:58|158:63,3,40,4|4|4|4,0:3|0:3|0:3|0:3,0:0:0:0:
86,114,7187,6,0,P|94:152|101:192,1,80,12|0,0:0|1:0,0:0:0:0:
9,279,7454,1,0,1:0:0:0:
83,323,7587,2,0,P|140:268|214:282,1,160,12|0,0:0|1:0,0:0:0:0:
306,215,7987,2,0,P|297:256|291:295,1,80,12|0,0:0|1:0,0:0:0:0:
512,374,8254,6,0,P|518:335|501:299,1,80,8|8,1:2|0:0,0:0:0:0:
435,348,8454,1,8,0:0:0:0:
428,343,8521,2,0,P|379:350|330:357,1,80,8|8,1:2|1:2,0:0:0:0:
438,155,8787,1,8,1:2:0:0:
385,78,8921,1,8,1:2:0:0:
459,26,9054,1,8,1:2:0:0:
512,101,9187,1,8,1:2:0:0:
335,156,9321,6,0,P|304:147|273:139,1,64,6|0,1:2|1:0,0:0:0:0:
231,337,9987,2,0,P|260:346|295:333,1,64,2|10,0:0|0:0,0:0:0:0:
112,217,10787,2,0,P|102:152|91:77,1,128,2|0,0:0|1:0,0:0:0:0:
184,31,11187,1,10,0:0:0:0:
184,31,11321,1,0,1:0:0:0:
88,4,11454,6,0,P|55:11|22:18,1,64,10|2,0:0|1:2,0:0:0:0:
214,155,12121,2,0,P|248:148|280:143,1,64,2|10,0:0|0:0,0:0:0:0:
457,38,12921,2,0,P|447:102|438:168,1,128,2|0,0:0|1:0,0:0:0:0:
356,240,13321,1,10,0:0:0:0:
356,240,13454,1,0,1:0:0:0:
453,325,13587,6,0,P|467:295|464:262,1,64,10|2,0:0|1:2,0:0:0:0:
251,197,14254,2,0,P|255:228|260:260,1,64,2|10,0:0|0:0,0:0:0:0:
100,372,15054,2,0,P|169:324|213:345,1,128,2|2,0:0|1:2,0:0:0:0:
260,260,15454,1,8,0:0:0:0:
260,260,15587,1,0,1:0:0:0:
162,221,15721,6,0,P|159:186|153:154,1,64,10|2,1:2|1:2,0:0:0:0:
350,9,16387,2,0,P|345:41|340:73,1,64,2|10,0:0|0:0,0:0:0:0:
153,157,16921,1,0,0:0:0:0:
246,211,17054,2,0,P|255:172|237:138,1,80,10|8,0:0|0:0,0:0:0:0:
159,252,17254,5,8,0:0:0:0:
154,258,17321,2,0,P|160:296|168:335,1,71.9999978027344,10|8,0:0|0:3,0:0:0:0:
246,376,17587,6,0,P|277:360|320:364,1,64,4|0,0:3|1:0,0:0:0:0:
385,300,17854,6,0,P|448:313|529:322,1,143.999995605469,4|10,1:2|0:0,0:0:0:0:
485,225,18254,1,2,1:2:0:0:
482,219,18387,2,0,P|489:181|498:149,1,71.9999978027344,10|2,0:0|1:2,0:0:0:0:
352,64,18654,1,2,0:0:0:0:
425,12,18787,2,0,B|380:41|380:41|412:137,1,143.999995605469,12|0,0:1|1:0,0:0:0:0:
325,214,19187,5,10,0:0:0:0:
255,166,19321,2,0,P|262:131|270:91,1,71.9999978027344,2|2,0:0|1:2,0:0:0:0:
143,24,19587,1,2,1:2:0:0:
149,29,19721,2,0,P|158:96|171:173,1,143.999995605469,10|4,0:0|1:2,0:0:0:0:
180,188,20254,6,0,P|140:177|102:170,1,71.9999978027344,10|2,0:0|0:0,0:0:0:0:
9,272,20521,1,2,1:2:0:0:
60,346,20654,2,0,P|93:353|133:330,1,71.9999978027344,2|2,1:2|1:2,0:0:0:0:
203,267,20921,2,0,P|276:280|351:293,1,143.999995605469,10|0,0:0|1:0,0:0:0:0:
462,360,21321,6,0,P|455:326|443:277,1,71.9999978027344,10|0,0:0|0:0,0:0:0:0:
512,211,21587,1,2,1:2:0:0:
512,211,21721,1,0,1:0:0:0:
443,127,21854,2,0,P|374:171|300:146,1,143.999995605469,10|4,0:0|1:2,0:0:0:0:
294,166,22387,6,0,P|299:131|313:82,1,71.9999978027344,10|2,0:0|1:2,0:0:0:0:
214,28,22654,2,0,P|201:61|226:104,1,71.9999978027344,10|2,0:0|1:2,0:0:0:0:
317,158,22921,1,2,0:0:0:0:
228,232,23054,2,0,B|158:222|152:276|81:258,1,143.999995605469,12|0,0:1|1:0,0:0:0:0:
13,188,23454,5,10,0:0:0:0:
89,260,23587,2,0,P|80:298|71:333,1,71.9999978027344,2|2,0:0|1:2,0:0:0:0:
190,373,23854,1,2,1:2:0:0:
198,379,23987,2,0,P|271:366|357:352,1,143.999995605469,10|12,0:0|0:0,0:0:0:0:
358,365,24521,5,10,0:0:0:0:
282,282,24654,1,0,1:0:0:0:
448,193,24787,1,12,0:0:0:0:
357,124,24921,2,0,P|361:159|366:195,1,71.9999978027344,0|0,1:0|0:0,0:0:0:0:
258,192,25187,6,0,B|205:181|205:181|183:153|183:153|125:140,1,143.999995605469,8|0,0:0|0:0,0:0:0:0:
37,234,25587,2,0,P|79:240|118:211,1,71.9999978027344,14|0,0:0|0:0,0:0:0:0:
130,141,25854,2,0,P|123:103|111:67,1,71.9999978027344,2|0,1:2|1:0,0:0:0:0:
308,11,26121,6,0,P|303:30|297:57,1,42.6666666666667,12|0,0:1|0:0,0:0:0:0:
370,116,26387,6,0,P|387:107|375:119,1,53.3333333333333,4|0,1:2|0:0,0:0:0:0:
448,173,26565,2,0,B|492:162|492:162|485:167,1,53.3333333333333,0|0,1:0|0:0,0:0:0:0:
368,211,26743,2,0,P|375:243|380:271,1,53.3333333333333,0|0,1:0|0:0,0:0:0:0:
473,346,26921,2,0,P|447:334|414:337,1,53.3333333333333,0|0,1:0|0:0,0:0:0:0:
378,263,27098,6,0,L|297:279,1,53.3333333333333,0|0,1:0|0:0,0:0:0:0:
283,357,27276,2,0,B|287:355|287:355|223:345,1,53.3333333333333,0|0,1:0|0:0,0:0:0:0:
155,293,27454,6,0,P|162:257|169:223,1,53.3333333333333,4|0,1:2|0:0,0:0:0:0:
88,188,27632,2,0,P|62:193|35:199,1,53.3333333333333,0|0,1:0|0:0,0:0:0:0:
144,99,27809,2,0,P|146:81|138:99,1,53.3333333333333,0|0,1:0|0:0,0:0:0:0:
223,156,27987,2,0,P|249:157|272:145,1,53.3333333333333,0|0,1:0|0:0,0:0:0:0:
390,90,28165,6,0,P|385:63|381:37,1,53.3333333333333,0|0,1:0|0:0,0:0:0:0:
366,163,28343,2,0,P|371:137|376:111,1,53.3333333333333,0|0,1:0|0:0,0:0:0:0:
466,219,28521,6,0,B|482:245|482:245|470:276,1,63.9999980468751,4|0,1:2|0:0,0:0:0:0:
379,359,28698,2,0,P|383:326|387:293,1,63.9999980468751,0|0,1:0|0:0,0:0:0:0:
300,252,28876,2,0,B|266:250|256:275|256:275|263:267,1,63.9999980468751,0|0,1:0|0:0,0:0:0:0:
180,366,29054,6,0,B|186:372|186:372|116:355,1,63.9999980468751,0|0,1:0|0:0,0:0:0:0:
13,273,29232,6,0,B|38:262|38:262|63:267|63:267|49:270,1,63.9999980468751,0|0,1:0|0:0,0:0:0:0:
211,165,29409,6,0,B|184:159|184:159|174:154|174:154|136:149,1,63.9999980468751,0|0,1:0|0:0,0:0:0:0:
42,58,29587,5,4,1:0:0:0:
145,13,30654,5,6,1:2:0:0:
145,13,30787,1,0,1:0:0:0:
236,71,30921,2,0,P|315:60|406:50,1,160,8|2,0:0|1:2,0:0:0:0:
506,135,31321,1,0,1:0:0:0:
465,212,31454,2,0,P|422:186|356:204,1,120,8|0,0:0|0:0,0:0:0:0:
274,175,31721,6,0,P|281:214|288:253,1,80,2|0,1:2|1:0,0:0:0:0:
186,328,31987,2,0,B|115:308|98:368|33:352,1,160,8|2,0:0|1:2,0:0:0:0:
174,224,32387,1,0,1:0:0:0:
94,176,32521,2,0,P|103:96|111:16,1,160,10|0,0:0|1:0,0:0:0:0:
110,16,32921,1,0,1:0:0:0:
191,102,33054,2,0,P|229:108|270:91,1,80,8|0,0:0|0:0,0:0:0:0:
368,153,33321,1,0,1:0:0:0:
368,153,33454,1,0,1:0:0:0:
494,88,33587,6,0,P|485:127|477:167,1,80,10|0,0:0|0:0,0:0:0:0:
511,253,33854,2,0,P|440:223|376:264,1,160,2|8,1:2|0:0,0:0:0:0:
375,264,34254,1,0,0:0:0:0:
287,332,34387,2,0,P|247:324|208:318,1,80,2|0,1:2|1:0,0:0:0:0:
73,361,34654,2,0,P|107:379|145:371,1,80,10|0,0:0|0:0,0:0:0:0:
199,229,34921,1,0,1:0:0:0:
196,222,35187,6,0,P|203:181|211:139,1,80,14|0,0:1|0:0,0:0:0:0:
116,44,35454,2,0,P|68:102|92:175,1,160,2|10,1:2|0:0,0:0:0:0:
93,176,35854,1,0,0:0:0:0:
210,143,35987,6,0,P|255:148|304:156,1,80,2|0,1:2|1:0,0:0:0:0:
373,97,36254,2,0,P|367:54|362:16,1,80,10|0,0:0|0:0,0:0:0:0:
473,73,36521,2,0,P|490:108|480:146,1,80,2|0,1:2|1:0,0:0:0:0:
389,199,36787,6,0,P|400:274|412:359,1,160,14|0,0:1|1:0,0:0:0:0:
488,317,37187,1,0,1:0:0:0:
325,376,37321,2,0,P|273:331|190:350,1,160,14|0,0:1|1:0,0:0:0:0:
171,367,37854,6,0,P|178:317|197:269,1,80,10|0,0:0|0:0,0:0:0:0:
71,232,38121,2,0,P|65:272|84:310,1,80,2|0,1:2|1:0,0:0:0:0:
195,200,38387,1,10,0:0:0:0:
22,87,38654,5,2,1:2:0:0:
22,87,38787,1,0,1:0:0:0:
109,27,38921,2,0,P|147:32|188:37,1,80,10|0,0:0|0:0,0:0:0:0:
270,116,39187,6,0,B|331:106|331:106|359:80|359:80|420:73,1,160,6|8,1:2|0:0,0:0:0:0:
512,230,39721,1,2,1:2:0:0:
512,230,39854,1,0,1:0:0:0:
440,303,39987,2,0,P|392:270|337:290,1,120,8|0,0:0|0:0,0:0:0:0:
287,213,40254,6,0,P|296:297|306:377,1,160,2|8,1:2|0:0,0:0:0:0:
305,371,40654,1,0,0:0:0:0:
215,314,40787,2,0,P|175:321|136:329,1,80,2|0,1:2|1:0,0:0:0:0:
30,249,41054,2,0,P|72:253|107:234,1,80,10|0,0:0|0:0,0:0:0:0:
148,144,41321,1,0,1:0:0:0:
343,275,41587,6,0,B|403:261|452:250|452:250|487:289,1,160,10|0,0:0|1:0,0:0:0:0:
484,286,41987,1,0,1:0:0:0:
412,374,42121,2,0,P|377:348|341:351,1,80,10|0,0:0|0:0,0:0:0:0:
249,276,42387,6,0,P|260:196|274:118,1,160,2|8,1:2|0:0,0:0:0:0:
132,0,42921,1,2,1:2:0:0:
132,0,43054,1,2,1:2:0:0:
100,91,43187,2,0,P|143:82|184:75,1,80,10|0,0:0|0:0,0:0:0:0:
273,118,43454,6,0,P|347:138|408:91,1,160,4|8,1:0|0:0,0:0:0:0:
504,243,43987,1,2,1:2:0:0:
504,243,44121,1,0,1:0:0:0:
433,303,44254,2,0,P|441:342|448:381,1,80,10|0,0:0|0:0,0:0:0:0:
340,277,44521,6,0,B|283:268|283:268|256:235|256:235|183:224,1,160,0|8,1:0|0:0,0:0:0:0:
5,299,45054,1,2,1:2:0:0:
5,299,45187,1,0,1:0:0:0:
80,354,45321,2,0,P|112:330|160:330,1,80,10|0,0:0|0:0,0:0:0:0:
197,227,45587,6,0,P|188:149|178:54,1,160,0|8,1:0|0:0,0:0:0:0:
292,232,46121,1,2,1:2:0:0:
292,232,46254,1,0,1:0:0:0:
261,136,46387,2,0,P|305:144|339:151,1,80,10|0,0:0|0:0,0:0:0:0:
453,23,46654,1,4,1:0:0:0:
503,90,46787,2,0,P|443:46|362:84,1,160,8|8,0:0|0:0,0:0:0:0:
340,152,47121,5,8,0:0:0:0:
334,166,47187,2,0,P|341:206|349:253,1,80,10|8,1:2|1:2,0:0:0:0:
256,326,47454,2,0,B|240:289|240:289|260:249,1,80,10|8,1:2|1:2,0:0:0:0:
377,331,47721,1,4,1:2:0:0:
256,192,47787,12,2,49854,1:0:0:0:
123,150,55187,6,0,B|139:142|139:142|142:161|142:161|132:156,1,48,0|8,1:0|0:3,0:0:0:0:
41,122,55454,5,8,0:0:0:0:
41,122,55587,2,0,P|51:170|56:207,1,80,4|8,0:3|0:0,0:0:0:0:
0,323,55854,1,8,0:3:0:0:
84,371,55987,2,0,P|161:350|240:341,1,160,4|4,0:3|1:2,0:0:0:0:
258,360,56521,6,0,P|264:329|273:289,1,71.9999978027344,8|0,0:0|1:0,0:0:0:0:
389,247,56787,1,12,0:1:0:0:
323,189,56921,2,0,P|293:194|253:201,1,71.9999978027344,0|0,1:0|0:0,0:0:0:0:
189,108,57187,2,0,P|238:64|317:83,1,143.999995605469,8|0,0:0|0:0,0:0:0:0:
471,162,57587,5,8,0:0:0:0:
475,158,57721,2,0,P|488:124|473:81,1,71.9999978027344,2|0,0:0|1:0,0:0:0:0:
311,78,57987,1,0,1:0:0:0:
398,27,58121,2,0,P|387:114|378:177,1,143.999995605469,10|4,0:0|1:2,0:0:0:0:
389,189,58654,6,0,P|353:170|303:171,1,71.9999978027344,8|0,0:0|0:0,0:0:0:0:
243,241,58921,1,4,1:0:0:0:
249,244,59054,2,0,P|256:284|269:334,1,71.9999978027344,0|2,1:0|0:0,0:0:0:0:
156,371,59321,2,0,P|84:360|13:350,1,143.999995605469,8|0,0:0|1:0,0:0:0:0:
115,258,59721,5,8,0:0:0:0:
121,255,59854,2,0,P|128:220|117:186,1,71.9999978027344,2|4,0:0|1:0,0:0:0:0:
189,107,60121,1,0,1:0:0:0:
107,42,60254,2,0,P|71:48|23:57,1,71.9999978027344,10|0,0:0|0:0,0:0:0:0:
189,107,60521,6,0,P|246:60|326:74,1,143.999995605469,6|8,1:2|0:0,0:0:0:0:
312,65,60921,1,2,1:2:0:0:
480,151,61054,1,8,0:0:0:0:
395,180,61187,2,0,P|400:144|408:107,1,71.9999978027344,2|0,1:2|0:0,0:0:0:0:
272,152,61454,6,0,P|282:218|292:294,1,143.999995605469,8|0,0:0|1:0,0:0:0:0:
391,328,61854,1,8,0:0:0:0:
307,378,61987,2,0,P|284:370|214:359,1,71.9999978027344,2|0,0:0|1:0,0:0:0:0:
176,272,62254,1,2,1:2:0:0:
179,279,62387,2,0,P|124:323|38:293,1,143.999995605469,8|4,0:0|1:2,0:0:0:0:
33,326,62921,6,0,P|39:287|57:243,1,71.9999978027344,10|0,0:0|0:0,0:0:0:0:
128,153,63187,1,2,1:2:0:0:
81,68,63321,2,0,P|45:63|14:80,1,71.9999978027344,0|2,1:0|0:0,0:0:0:0:
128,153,63587,2,0,P|201:142|272:131,1,143.999995605469,8|0,0:0|1:0,0:0:0:0:
356,173,63987,6,0,P|350:206|342:243,1,71.9999978027344,8|0,0:3|1:0,0:0:0:0:
409,285,64187,1,0,1:0:0:0:
416,288,64254,2,0,L|477:276,3,35.9999989013672,4|4|4|4,0:3|0:3|0:3|0:3,0:0:0:0:
506,222,64521,1,8,0:0:0:0:
313,373,64787,6,0,B|237:382|234:322|147:346,1,160,4|8,1:2|0:0,0:0:0:0:
159,343,65187,1,0,1:0:0:0:
53,198,65321,1,12,0:1:0:0:
6,280,65454,2,0,B|45:291|45:291|87:275,1,80,0|0,1:0|1:0,0:0:0:0:
154,191,65721,6,0,P|143:106|134:28,1,160,12|0,0:0|1:0,0:0:0:0:
249,118,66121,2,0,P|288:124|327:131,1,80,8|0,0:0|1:0,0:0:0:0:
254,231,66387,1,8,0:0:0:0:
246,232,66521,2,0,P|227:264|235:314,1,80,0|0,1:0|1:0,0:0:0:0:
355,367,66787,6,0,B|413:361|413:361|440:339|440:339|510:331,1,160,8|0,0:0|1:0,0:0:0:0:
427,229,67187,2,0,P|434:187|442:145,1,80,12|0,0:0|1:0,0:0:0:0:
368,52,67454,5,8,0:0:0:0:
368,52,67587,1,0,1:0:0:0:
489,26,67721,1,12,0:0:0:0:
489,26,67854,1,0,1:0:0:0:
329,137,67987,6,0,P|294:128|246:119,1,80,8|0,0:0|1:0,0:0:0:0:
170,25,68254,1,0,1:0:0:0:
177,32,68387,2,0,P|185:103|196:193,1,160,8|0,0:0|1:0,0:0:0:0:
86,274,68787,5,8,0:0:0:0:
67,266,68854,1,8,0:3:0:0:
49,261,68921,1,4,0:3:0:0:
35,256,68987,1,4,0:3:0:0:
16,267,69054,2,0,P|23:289|31:312,3,40,4|4|4|4,0:3|0:3|0:3|0:3,0:0:0:0:
122,350,69321,6,0,P|169:340|221:329,1,80,12|0,0:0|1:0,0:0:0:0:
366,366,69587,2,0,P|327:373|284:350,1,80,12|0,0:0|1:0,0:0:0:0:
265,253,69854,5,0,1:0:0:0:
360,185,69987,1,8,0:3:0:0:
265,253,70121,2,0,P|259:213|254:173,1,80,4|0,0:3|1:0,0:0:0:0:
351,51,70387,6,0,P|278:24|214:68,1,160,12|0,0:1|1:0,0:0:0:0:
106,134,70787,1,8,0:3:0:0:
17,93,70921,2,0,P|27:138|39:185,1,88.000002685547,4|0,0:3|1:0,0:0:0:0:
179,255,71187,2,0,P|144:231|91:243,1,88.000002685547,12|0,0:1|1:0,0:0:0:0:
32,349,71454,2,0,P|74:338|117:328,1,88.000002685547,12|0,0:0|1:0,0:0:0:0:
231,379,71721,5,12,0:0:0:0:
339,308,71854,2,0,P|382:300|426:326,1,88.000002685547,0|0,1:0|1:0,0:0:0:0:
258,220,72121,2,0,P|264:178|271:128,1,88.000002685547,8|0,0:0|1:0,0:0:0:0:
365,90,72387,1,8,0:0:0:0:
370,87,72454,1,8,0:0:0:0:
376,86,72521,1,12,1:2:0:0:
311,20,72654,1,8,0:0:0:0:
405,174,72787,6,0,P|447:181|485:161,1,88.000002685547,8|8,1:2|1:2,0:0:0:0:
270,132,73054,2,0,P|223:138|179:146,1,88.000002685547,8|8,1:2|1:2,0:0:0:0:
68,80,73321,6,0,P|122:26|195:49,1,160,6|8,1:2|0:0,0:0:0:0:
67,251,73853,1,2,1:2:0:0:
67,251,73987,1,0,1:0:0:0:
137,328,74121,2,0,P|193:319|255:311,1,120,8|0,0:0|0:0,0:0:0:0:
327,362,74387,6,0,B|351:252|351:252|331:242|315:215,1,160,2|8,1:2|0:0,0:0:0:0:
317,219,74787,1,0,0:0:0:0:
427,189,74921,2,0,P|471:196|515:207,1,80,2|0,1:2|0:0,0:0:0:0:
512,71,75187,2,0,P|437:84|353:97,1,160,10|4,0:0|1:0,0:0:0:0:
177,0,75587,1,0,1:0:0:0:
136,80,75721,2,0,P|195:30|270:47,1,160,8|0,0:0|1:0,0:0:0:0:
288,32,76254,6,0,P|279:74|271:114,1,80,10|0,0:0|0:0,0:0:0:0:
144,212,76521,2,0,B|115:169|59:183|59:183|37:216|-14:214,1,160,2|10,1:2|0:0,0:0:0:0:
12,215,76921,1,0,0:0:0:0:
101,314,77054,6,0,P|135:295|174:300,1,80,2|0,1:2|0:0,0:0:0:0:
234,220,77321,2,0,P|224:296|212:379,1,160,10|0,0:0|1:0,0:0:0:0:
361,260,77854,6,0,P|403:269|453:280,1,80,10|0,0:0|0:0,0:0:0:0:
512,209,78121,2,0,P|460:158|375:179,1,160,2|10,1:2|0:0,0:0:0:0:
380,173,78521,1,0,0:0:0:0:
303,88,78654,6,0,P|310:47|322:-2,1,80,2|0,1:2|0:0,0:0:0:0:
219,132,78921,2,0,P|184:143|143:125,1,80,10|0,0:0|0:0,0:0:0:0:
106,24,79187,2,0,P|145:29|184:37,1,80,2|0,1:2|0:0,0:0:0:0:
36,117,79454,6,0,P|-13:175|10:248,1,160,10|0,0:0|1:0,0:0:0:0:
132,308,79854,1,0,1:0:0:0:
75,372,79987,2,0,P|86:292|102:214,1,160,10|0,0:0|1:0,0:0:0:0:
90,199,80521,6,0,P|137:211|167:224,1,80,10|0,0:0|0:0,0:0:0:0:
315,185,80787,2,0,P|277:191|233:160,1,80,2|0,1:2|1:0,0:0:0:0:
192,80,81054,1,10,0:0:0:0:
494,42,81321,5,2,1:2:0:0:
494,42,81454,1,0,1:0:0:0:
407,4,81587,2,0,P|392:40|403:78,1,80,10|0,0:0|0:0,0:0:0:0:
476,158,81854,2,0,P|461:240|449:336,1,160,6|8,1:2|0:0,0:0:0:0:
463,334,82387,6,0,P|389:309|328:355,1,160,2|8,1:2|0:0,0:0:0:0:
328,355,82787,1,0,0:0:0:0:
245,284,82921,2,0,P|250:244|263:163,1,120,6|0,1:0|0:0,0:0:0:0:
187,91,83187,6,0,P|169:125|181:171,1,80,8|0,0:0|0:0,0:0:0:0:
349,194,83454,2,0,P|389:187|427:179,1,80,2|0,1:2|0:0,0:0:0:0:
509,123,83721,2,0,P|418:129|378:67,1,160,10|4,0:0|1:0,0:0:0:0:
263,200,84254,6,0,P|272:273|284:362,1,160,10|0,0:0|1:0,0:0:0:0:
283,358,84654,1,0,0:0:0:0:
186,302,84787,2,0,L|61:327,1,120,10|0,0:0|0:0,0:0:0:0:
19,265,85054,6,0,P|25:225|32:186,1,80,0|0,1:0|0:0,0:0:0:0:
139,116,85321,2,0,P|68:135|1:85,1,160,10|2,0:0|1:2,0:0:0:0:
126,4,85721,1,2,0:0:0:0:
132,10,85854,2,0,P|179:19|212:25,1,80,10|0,0:0|0:0,0:0:0:0:
290,84,86121,6,0,P|373:71|451:60,1,160,0|8,1:0|0:0,0:0:0:0:
495,255,86654,2,0,P|505:213|514:172,1,80,2|0,1:2|0:0,0:0:0:0:
343,276,86921,2,0,P|381:268|417:284,1,80,10|0,0:0|0:0,0:0:0:0:
372,366,87187,6,0,B|270:339|270:339|229:376,1,160,0|8,1:0|0:0,0:0:0:0:
48,287,87721,2,0,P|54:326|61:365,1,80,2|0,1:2|0:0,0:0:0:0:
149,281,87987,2,0,P|176:227|137:165,1,120,10|0,0:0|0:0,0:0:0:0:
81,94,88254,5,12,0:1:0:0:
151,40,88387,1,0,1:0:0:0:
237,36,88521,1,0,1:0:0:0:
305,89,88654,2,0,P|348:79|390:70,1,88.000002685547,8|0,0:0|1:0,0:0:0:0:
509,197,88921,1,8,0:0:0:0:
505,191,88987,1,8,0:0:0:0:
500,186,89054,2,0,P|455:181|420:202,1,88.000002685547,8|8,0:0|0:0,0:0:0:0:
277,296,89321,5,8,1:2:0:0:
312,374,89454,2,0,B|343:246|343:246|288:280,1,191.999994140625,8|4,1:2|0:3,0:0:0:0:
200,313,89854,6,0,P|153:305|109:297,1,88.000002685547,8|8,0:0|0:3,0:0:0:0:
14,262,90121,2,0,P|23:308|32:353,1,88.000002685547,4|0,0:3|1:0,0:0:0:0:
121,179,90387,1,4,1:2:0:0:
