osu file format v14

[General]
AudioFilename: audio.mp3
AudioLeadIn: 0
PreviewTime: 29509
Countdown: 0
SampleSet: Soft
StackLeniency: 0.3
Mode: 0
LetterboxInBreaks: 0
WidescreenStoryboard: 1

[Editor]
DistanceSpacing: 1.3
BeatDivisor: 4
GridSize: 32
TimelineZoom: 1.8

[Metadata]
Title:Liar,Liar
TitleUnicode:Liar,Liar
Artist:Mr.FanTastiC
ArtistUnicode:Mr.FanTastiC
Creator:Dored
Version:Mikii's Hard
Source:DEAD DAYS
Tags:絶走 CLOCKUP Opening Short Version Eroge Visual Novel Galgame Video Game Japanese メガテラ・ゼロ Garden Akitoshi Corinn -Laura- Shocko Mikii Bellicose
BeatmapID:2597726
BeatmapSetID:1233707

[Difficulty]
HPDrainRate:4.8
CircleSize:3.7
OverallDifficulty:5
ApproachRate:8
SliderMultiplier:1.3
SliderTickRate:1

[Events]
//Background and Video events
0,0,"Top.jpg",0,0
//Break Periods
//Storyboard Layer 0 (Background)
//Storyboard Layer 1 (Fail)
//Storyboard Layer 2 (Pass)
//Storyboard Layer 3 (Foreground)
//Storyboard Layer 4 (Overlay)
//Storyboard Sound Samples

[TimingPoints]
-279,266.666666666667,4,2,1,70,1,0
9321,-100,4,2,1,60,0,0
17854,-100,4,2,1,70,0,0
30654,-90.9090909090909,4,2,1,80,0,1
39054,-90.9090909090909,4,2,1,80,0,0
39187,-90.9090909090909,4,2,1,80,0,1
47721,-100,4,2,1,75,0,0
56254,-100,4,2,1,60,0,0
60521,-100,4,2,1,65,0,0
64787,-100,4,2,1,65,0,0
70921,-100,4,2,1,70,0,0
71454,-100,4,2,1,75,0,1
73187,-100,4,2,1,75,0,0
73321,-90.9090909090909,4,2,1,80,0,1
81721,-90.9090909090909,4,2,1,80,0,0
81854,-90.9090909090909,4,2,1,80,0,1
82921,-90.9090909090909,4,2,3,80,0,1
83054,-90.9090909090909,4,2,1,80,0,1
90387,-100,4,2,1,65,0,0

[Colours]
Combo1 : 235,199,139
Combo2 : 206,221,227
Combo3 : 255,255,181
Combo4 : 221,207,254

[HitObjects]
49,144,787,6,0,P|97:95|178:106,2,130,6|8|8,1:2|0:0|0:0,0:0:0:0:
116,332,1587,1,0,1:0:0:0:
116,332,1721,2,0,P|121:285|136:182,1,130,12|0,0:0|1:0,0:0:0:0:
223,174,2121,2,0,P|217:212|214:248,1,65,8|0,0:3|1:0,0:0:0:0:
260,318,2387,2,0,P|300:330|343:311,1,65,8|0,0:3|1:0,0:0:0:0:
401,280,2654,1,12,0:0:0:0:
401,280,2921,6,0,P|429:232|406:149,1,130,12|0,0:0|1:0,0:0:0:0:
435,72,3321,2,0,B|358:62|381:104|297:82,1,130,12|0,0:0|1:0,0:0:0:0:
272,0,3721,2,0,P|226:34|230:121,1,130,12|0,0:0|1:0,0:0:0:0:
278,174,4121,1,12,0:0:0:0:
107,267,4387,1,0,1:0:0:0:
107,267,4521,2,0,P|116:298|124:329,1,65,8|8,0:0|0:3,0:0:0:0:
134,175,4787,2,0,P|102:169|73:157,1,65,4|4,0:3|0:3,0:0:0:0:
201,241,5054,6,0,P|286:217|357:204,1,130,12|0,0:0|1:0,0:0:0:0:
416,224,5454,2,0,P|457:276|446:360,1,130,12|0,0:0|1:0,0:0:0:0:
368,362,5854,1,12,0:0:0:0:
388,140,6121,1,0,1:0:0:0:
450,73,6254,2,0,L|499:62,2,32.5,8|8|8,0:0|0:0|0:0,0:0:0:0:
361,51,6521,2,0,L|271:66,1,65,8|4,0:3|0:3,0:0:0:0:
224,121,6787,2,0,L|146:107,1,65,4|4,0:3|0:3,0:0:0:0:
86,53,7054,1,4,0:3:0:0:
86,53,7187,6,0,P|109:113|63:191,1,130,12|0,0:0|1:0,0:0:0:0:
37,249,7587,2,0,P|75:210|164:219,1,130,12|0,0:0|1:0,0:0:0:0:
205,279,7987,2,0,P|264:264|346:255,1,130,12|8,0:0|1:2,0:0:0:0:
428,310,8387,1,8,0:0:0:0:
412,223,8521,2,0,L|422:179,2,32.5,8|8|8,1:2|0:0|1:2,0:0:0:0:
497,177,8787,2,0,L|477:98,1,65,8|8,1:2|1:2,0:0:0:0:
389,96,9054,2,0,L|408:16,1,65,8|8,1:2|1:2,0:0:0:0:
486,26,9321,5,4,1:2:0:0:
331,169,9587,1,10,0:0:0:0:
331,169,9854,2,0,P|280:153|185:140,1,130,10|10,0:0|0:0,0:0:0:0:
66,21,10387,2,0,P|11:59|25:137,1,130,10|8,0:0|0:0,0:0:0:0:
70,186,10787,1,2,0:0:0:0:
70,186,11054,2,0,L|49:271,1,65,0|10,1:0|0:0,0:0:0:0:
53,340,11321,1,0,0:0:0:0:
166,356,11454,6,0,P|173:286|118:230,2,130,8|10|10,0:0|0:0|0:0,0:0:0:0:
166,356,12254,2,0,L|251:343,1,65,10|0,0:0|1:0,0:0:0:0:
288,275,12521,2,0,P|345:325|417:309,1,130,10|8,0:0|0:0,0:0:0:0:
463,260,12921,1,2,0:0:0:0:
344,108,13187,2,0,P|336:143|329:185,1,65,0|10,1:0|0:0,0:0:0:0:
260,62,13454,1,0,1:0:0:0:
260,62,13587,6,0,P|243:126|229:204,1,130,10|8,0:0|0:0,0:0:0:0:
169,255,13987,1,2,0:0:0:0:
169,255,14254,2,0,P|181:297|187:331,2,65,2|8|0,0:0|0:0|1:0,0:0:0:0:
92,204,14654,2,0,P|109:140|123:62,1,130,10|8,0:0|0:0,0:0:0:0:
45,25,15054,1,2,0:0:0:0:
206,109,15321,2,0,P|245:100|300:91,2,65,2|8|0,1:2|0:0|0:0,0:0:0:0:
181,238,15721,6,0,P|226:198|315:205,1,130,8|10,1:2|0:0,0:0:0:0:
308,282,16121,1,0,0:0:0:0:
308,282,16254,2,0,P|343:272|394:263,1,65,10|0,0:0|0:0,0:0:0:0:
439,216,16521,2,0,P|430:182|420:132,1,65,10|0,0:0|1:0,0:0:0:0:
494,49,16787,2,0,B|410:67|410:67|362:37,1,130,10|10,0:0|0:0,0:0:0:0:
284,68,17187,1,8,0:0:0:0:
284,68,17321,2,0,L|299:155,1,65,10|8,0:0|0:3,0:0:0:0:
336,212,17587,1,4,0:3:0:0:
279,283,17721,1,0,1:0:0:0:
192,256,17854,6,0,P|138:234|55:254,1,130,4|10,1:2|0:0,0:0:0:0:
20,168,18254,1,2,1:2:0:0:
84,103,18387,2,0,P|92:66|96:34,1,65,10|2,0:0|1:2,0:0:0:0:
189,28,18654,1,2,0:0:0:0:
189,28,18787,2,0,P|176:87|164:182,1,130,12|0,0:1|1:0,0:0:0:0:
259,149,19187,2,0,P|264:110|273:72,1,65,10|2,0:0|0:0,0:0:0:0:
353,40,19454,2,0,L|447:55,1,65,2|2,1:2|1:2,0:0:0:0:
489,105,19721,1,10,0:0:0:0:
461,284,19987,6,0,B|388:272|418:330|318:299,1,130,4|10,1:2|0:0,0:0:0:0:
265,360,20387,1,2,0:0:0:0:
251,276,20521,2,0,P|256:249|263:210,2,65,2|2|2,1:2|1:2|1:2,0:0:0:0:
265,360,20921,1,10,0:0:0:0:
337,304,21054,1,2,0:0:0:0:
164,327,21321,2,0,P|127:321|74:315,1,65,10|0,0:0|0:0,0:0:0:0:
39,250,21587,2,0,L|53:164,1,65,2|0,1:2|1:0,0:0:0:0:
132,214,21854,2,0,L|146:128,1,65,10|0,0:0|0:0,0:0:0:0:
227,190,22121,6,0,L|251:41,1,130,4|10,1:2|0:0,0:0:0:0:
332,26,22521,1,2,1:2:0:0:
374,106,22654,2,0,P|405:117|457:118,1,65,10|2,0:0|1:2,0:0:0:0:
495,190,22921,1,2,0:0:0:0:
414,273,23054,2,0,P|373:220|294:210,1,130,12|0,0:1|1:0,0:0:0:0:
246,268,23454,2,0,L|257:335,2,65,10|2|2,0:0|0:0|1:2,0:0:0:0:
171,214,23854,2,0,L|160:147,2,65,2|10|0,1:2|0:0|0:0,0:0:0:0:
114,285,24254,1,12,0:0:0:0:
25,71,24521,6,0,P|55:83|103:91,1,65,10|0,0:0|1:0,0:0:0:0:
172,58,24787,2,0,P|204:45|259:39,1,65,12|0,0:0|1:0,0:0:0:0:
297,104,25054,1,0,0:0:0:0:
386,43,25187,2,0,L|406:185,1,130,8|0,0:0|1:0,0:0:0:0:
465,239,25587,2,0,P|456:271|449:313,1,65,14|0,0:0|0:0,0:0:0:0:
379,348,25854,2,0,P|337:335|303:332,1,65,2|0,1:2|1:0,0:0:0:0:
240,272,26121,2,0,P|268:258|301:248,1,65,8|0,0:0|0:0,0:0:0:0:
275,167,26387,1,4,1:0:0:0:
256,192,26521,12,4,29587,0:1:0:0:
158,71,30654,6,0,P|220:83|290:32,1,143.000004364014,6|8,1:2|0:0,0:0:0:0:
367,72,31054,1,0,1:0:0:0:
459,68,31187,2,0,P|452:106|448:156,1,71.5000021820069,2|0,1:2|1:0,0:0:0:0:
441,231,31454,2,0,P|479:250|525:267,1,71.5000021820069,8|0,0:0|0:0,0:0:0:0:
364,177,31721,2,0,P|310:192|220:229,2,143.000004364014,2|8|2,1:2|0:0|1:2,0:0:0:0:
367,72,32387,1,0,1:0:0:0:
286,106,32521,2,0,P|259:117|197:133,1,71.5000021820069,10|0,0:0|0:0,0:0:0:0:
126,113,32787,5,0,1:0:0:0:
126,113,32921,1,0,1:0:0:0:
136,212,33054,2,0,P|146:249|155:298,1,71.5000021820069,8|0,0:0|0:0,0:0:0:0:
75,348,33321,2,0,P|67:312|58:278,1,71.5000021820069,0|0,1:0|1:0,0:0:0:0:
1,206,33587,1,10,0:0:0:0:
152,281,33854,2,0,B|235:253|197:317|310:281,1,143.000004364014,2|8,1:2|0:0,0:0:0:0:
370,334,34254,1,0,1:0:0:0:
370,334,34387,2,0,P|377:294|396:237,1,71.5000021820069,2|0,1:2|1:0,0:0:0:0:
410,174,34654,2,0,P|374:168|340:158,1,71.5000021820069,10|0,0:0|0:0,0:0:0:0:
294,77,34921,6,0,P|246:130|269:217,2,143.000004364014,0|10|2,1:0|0:2|1:2,0:0:0:0:
379,41,35587,1,0,1:0:0:0:
294,77,35721,2,0,P|246:69|198:45,1,71.5000021820069,10|0,0:0|0:0,0:0:0:0:
143,16,35987,2,0,L|60:32,1,71.5000021820069,2|0,1:2|1:0,0:0:0:0:
41,135,36254,2,0,L|124:119,1,71.5000021820069,10|0,0:0|0:0,0:0:0:0:
197,156,36521,2,0,P|207:198|216:246,1,71.5000021820069,2|0,1:2|1:0,0:0:0:0:
113,255,36787,1,8,0:2:0:0:
191,324,36921,6,0,P|222:275|325:266,1,143.000004364014,2|0,0:0|1:0,0:0:0:0:
393,329,37321,1,10,0:2:0:0:
393,329,37587,2,0,P|402:265|426:180,1,143.000004364014,0|10,1:0|0:0,0:0:0:0:
462,105,37987,1,0,1:0:0:0:
385,51,38121,2,0,P|349:65|295:81,1,71.5000021820069,2|0,1:2|1:0,0:0:0:0:
232,112,38387,2,0,P|190:101|150:70,1,71.5000021820069,10|0,0:0|0:0,0:0:0:0:
60,57,38654,2,0,P|71:91|78:127,1,71.5000021820069,2|0,1:2|1:0,0:0:0:0:
157,177,38921,1,10,0:0:0:0:
17,199,39187,6,0,P|2:254|4:355,2,143.000004364014,6|8|2,1:2|0:0|1:2,0:0:0:0:
78,127,39854,1,0,1:0:0:0:
157,177,39987,2,0,P|145:223|142:271,1,71.5000021820069,8|0,0:0|0:0,0:0:0:0:
183,330,40254,2,0,P|221:298|323:332,1,143.000004364014,2|8,1:2|0:0,0:0:0:0:
437,197,40787,1,2,1:2:0:0:
437,197,40921,1,0,1:0:0:0:
338,215,41054,2,0,L|349:136,1,71.5000021820069,10|0,0:0|0:0,0:0:0:0:
369,53,41321,5,0,1:0:0:0:
199,27,41587,2,0,P|214:102|225:197,2,143.000004364014,10|0|10,0:0|1:0|0:0,0:0:0:0:
105,21,42254,1,0,1:0:0:0:
31,77,42387,2,0,P|22:115|15:166,1,71.5000021820069,2|0,1:2|1:0,0:0:0:0:
50,234,42654,2,0,P|79:248|124:249,1,71.5000021820069,8|0,0:0|0:0,0:0:0:0:
196,199,42921,1,2,1:2:0:0:
196,199,43054,1,2,1:2:0:0:
275,247,43187,2,0,P|267:284|261:329,1,71.5000021820069,10|0,0:0|0:0,0:0:0:0:
349,350,43454,6,0,P|362:273|380:189,1,143.000004364014,4|8,1:0|0:0,0:0:0:0:
436,148,43854,1,0,0:0:0:0:
368,95,43987,2,0,P|350:62|349:8,1,71.5000021820069,2|0,1:2|1:0,0:0:0:0:
261,44,44254,2,0,P|228:30|192:30,1,71.5000021820069,10|0,0:0|0:0,0:0:0:0:
132,96,44521,2,0,P|94:162|9:158,1,143.000004364014,0|8,1:0|0:0,0:0:0:0:
17,257,44921,1,0,1:0:0:0:
73,321,45054,2,0,P|95:293|96:249,1,71.5000021820069,2|0,1:2|1:0,0:0:0:0:
240,194,45321,2,0,P|205:201|156:206,1,71.5000021820069,10|0,0:0|0:0,0:0:0:0:
182,315,45587,6,0,P|260:300|351:291,1,143.000004364014,0|8,1:0|0:0,0:0:0:0:
392,344,45987,1,0,1:0:0:0:
481,253,46121,2,0,P|443:252|402:243,1,71.5000021820069,2|0,1:2|1:0,0:0:0:0:
337,200,46387,2,0,L|286:207,2,35.7500010910034,10|8|8,0:0|0:0|0:0,0:0:0:0:
421,158,46654,2,0,L|399:62,1,71.5000021820069,4|8,1:0|0:0,0:0:0:0:
329,46,46921,1,0,1:0:0:0:
244,59,47054,2,0,L|253:18,2,35.7500010910034,8|8|10,0:0|0:0|1:2,0:0:0:0:
170,104,47321,1,8,1:2:0:0:
91,69,47454,2,0,L|14:48,1,71.5000021820069,10|8,1:2|1:2,0:0:0:0:
20,162,47721,6,0,P|89:167|132:227,1,130,4|10,1:2|0:1,0:0:0:0:
101,297,48121,1,2,0:0:0:0:
101,297,48387,2,0,L|181:281,1,65,0|10,1:0|0:1,0:0:0:0:
239,336,48654,1,0,1:2:0:0:
326,311,48787,2,0,B|312:276|312:276|332:181,1,130,2|10,0:1|0:1,0:0:0:0:
421,173,49187,1,2,0:0:0:0:
421,172,49454,2,0,L|404:255,1,65,0|10,1:0|0:1,0:0:0:0:
499,232,49721,1,2,0:0:0:0:
502,132,49854,6,0,P|472:94|377:97,1,130,2|10,1:0|0:1,0:0:0:0:
322,31,50254,1,2,0:0:0:0:
322,31,50521,2,0,P|286:42|241:52,1,65,0|10,1:0|0:1,0:0:0:0:
169,38,50787,1,0,1:2:0:0:
207,120,50921,2,0,L|229:255,1,130,2|10,0:1|0:1,0:0:0:0:
149,294,51321,1,2,0:0:0:0:
149,294,51587,2,0,P|142:252|134:212,1,65,0|10,1:0|0:1,0:0:0:0:
46,226,51854,1,2,0:0:0:0:
79,354,51987,6,0,P|124:316|206:334,1,130,4|10,1:2|0:1,0:0:0:0:
282,358,52387,1,2,0:0:0:0:
282,358,52654,2,0,L|357:343,1,65,0|10,1:0|0:1,0:0:0:0:
446,369,52921,1,0,1:0:0:0:
446,369,53054,2,0,P|476:298|433:240,1,130,2|8,0:1|1:0,0:0:0:0:
503,186,53454,1,2,0:0:0:0:
503,186,53721,2,0,P|486:147|475:100,2,65,2|10|0,0:0|0:1|1:0,0:0:0:0:
410,182,54121,6,0,P|363:172|283:166,1,130,2|10,1:0|0:1,0:0:0:0:
206,219,54521,1,2,0:0:0:0:
206,219,54787,2,0,P|191:189|189:139,1,65,0|10,1:0|0:1,0:0:0:0:
214,70,55054,1,0,1:0:0:0:
126,92,55187,2,0,P|80:86|-3:65,2,130,0|8|8,1:0|0:0|0:0,0:0:0:0:
287,17,55987,2,0,P|295:54|301:95,1,65,4|0,0:3|0:0,0:0:0:0:
376,33,56254,6,0,P|391:99|403:174,1,130,4|10,1:2|0:0,0:0:0:0:
417,250,56654,1,0,1:0:0:0:
336,291,56787,2,0,P|329:258|317:211,1,65,12|0,0:1|1:0,0:0:0:0:
236,278,57054,2,0,P|243:309|250:341,1,65,2|8,0:0|0:0,0:0:0:0:
162,362,57321,2,0,P|118:313|34:312,1,130,2|8,0:0|0:0,0:0:0:0:
35,223,57721,1,2,0:0:0:0:
35,223,57987,2,0,L|50:148,1,65,0|10,1:0|0:0,0:0:0:0:
92,79,58254,1,2,0:0:0:0:
152,147,58387,6,0,B|171:170|171:170|293:150,2,130,4|8|4,1:2|0:0|1:0,0:0:0:0:
171,328,59187,2,0,P|213:321|258:315,1,65,2|8,0:0|0:0,0:0:0:0:
291,259,59454,2,0,P|365:245|422:298,1,130,2|8,0:0|0:0,0:0:0:0:
454,351,59854,2,0,L|477:200,1,130,2|0,0:0|1:0,0:0:0:0:
432,140,60254,2,0,L|417:52,1,65,10|0,0:0|0:0,0:0:0:0:
333,54,60521,6,0,P|269:41|197:77,1,130,6|8,1:2|0:0,0:0:0:0:
155,137,60921,1,2,1:2:0:0:
155,137,61187,2,0,L|167:224,2,65,2|0|8,1:2|0:0|0:0,0:0:0:0:
61,115,61587,2,0,P|72:179|81:275,1,130,2|8,0:0|0:0,0:0:0:0:
87,334,61987,1,2,0:0:0:0:
163,201,62254,2,0,P|195:189|251:184,1,65,2|8,1:2|0:0,0:0:0:0:
294,244,62521,1,0,1:0:0:0:
333,325,62654,6,0,P|285:289|206:303,2,130,4|10|2,1:2|0:0|1:2,0:0:0:0:
421,348,63321,1,0,1:0:0:0:
421,348,63454,2,0,P|425:307|439:268,1,65,2|8,0:0|0:0,0:0:0:0:
355,234,63721,2,0,P|363:202|365:170,1,65,2|0,0:0|1:0,0:0:0:0:
362,79,63987,1,8,0:3:0:0:
444,39,64121,2,0,L|453:-7,2,32.5,0|0|4,1:0|1:0|0:3,0:0:0:0:
454,129,64387,2,0,P|461:165|476:206,2,65,4|8|0,0:3|0:0|0:0,0:0:0:0:
362,79,64787,6,0,B|297:64|312:115|226:86,1,130,4|8,1:2|0:0,0:0:0:0:
147,65,65187,1,0,1:0:0:0:
64,105,65321,2,0,P|72:140|80:189,1,65,12|0,0:1|1:0,0:0:0:0:
180,223,65587,1,0,1:0:0:0:
180,223,65721,2,0,P|174:186|164:139,2,65,12|0|0,0:0|1:0|1:0,0:0:0:0:
255,287,66121,2,0,P|227:306|205:328,1,65,8|0,0:0|1:0,0:0:0:0:
269,199,66387,2,0,P|302:215|330:221,2,65,8|0|0,0:0|1:0|1:0,0:0:0:0:
255,287,66787,1,8,0:0:0:0:
333,334,66921,6,0,P|361:327|406:322,1,65,0|0,1:0|1:0,0:0:0:0:
485,301,67187,2,0,P|470:252|463:223,1,65,12|0,0:0|1:0,0:0:0:0:
398,177,67454,2,0,P|413:128|420:99,1,65,8|0,0:0|1:0,0:0:0:0:
466,38,67721,2,0,P|430:32|377:12,1,65,12|0,0:0|1:0,0:0:0:0:
316,52,67987,2,0,L|231:72,1,65,8|0,0:0|1:0,0:0:0:0:
161,70,68254,2,0,P|132:45|130:-1,2,65,0|8|0,1:0|0:0|1:0,0:0:0:0:
212,145,68654,1,0,1:0:0:0:
212,145,68787,2,0,L|201:200,2,32.5,8|8|4,0:0|0:3|0:3,0:0:0:0:
118,177,69054,2,0,L|109:227,2,32.5,4|4|4,0:3|0:3|0:3,0:0:0:0:
27,197,69321,6,0,L|9:280,1,65,12|0,0:0|1:0,0:0:0:0:
46,344,69587,2,0,P|77:346|137:363,1,65,12|0,0:0|1:0,0:0:0:0:
196,322,69854,1,0,1:0:0:0:
281,351,69987,2,0,L|298:274,1,65,8|4,0:3|0:3,0:0:0:0:
386,265,70254,1,0,1:0:0:0:
386,265,70387,2,0,L|366:178,1,65,12|0,0:1|1:0,0:0:0:0:
423,126,70654,2,0,P|388:122|341:108,1,65,0|8,1:0|0:3,0:0:0:0:
352,20,70921,6,0,P|412:36|500:45,2,130,4|12|12,0:3|0:1|0:0,0:0:0:0:
359,114,71587,1,0,1:0:0:0:
359,114,71721,1,12,0:0:0:0:
190,79,71987,2,0,P|199:122|207:160,1,65,2|8,1:2|0:0,0:0:0:0:
130,197,72254,2,0,P|120:153|113:116,1,65,2|8,1:2|0:0,0:0:0:0:
46,192,72521,2,0,P|55:236|63:273,1,65,10|8,1:2|0:0,0:0:0:0:
92,340,72787,2,0,P|127:325|161:319,1,65,10|8,1:2|1:2,0:0:0:0:
239,349,73054,1,10,1:2:0:0:
419,262,73321,6,0,P|378:221|403:120,1,143.000004364014,6|8,1:2|0:0,0:0:0:0:
348,51,73721,1,0,1:0:0:0:
348,51,73854,2,0,P|313:60|277:62,1,71.5000021820069,2|0,1:2|0:0,0:0:0:0:
220,160,74121,2,0,P|254:151|290:149,1,71.5000021820069,8|0,0:0|0:0,0:0:0:0:
282,233,74387,2,0,B|206:223|236:283|131:264,1,143.000004364014,2|8,1:2|0:0,0:0:0:0:
69,215,74787,1,0,1:0:0:0:
50,123,74921,2,0,P|58:87|59:44,1,71.5000021820069,2|0,1:2|0:0,0:0:0:0:
155,23,75187,2,0,P|147:59|146:102,1,71.5000021820069,10|0,0:0|0:0,0:0:0:0:
149,186,75454,6,0,P|217:170|280:200,2,143.000004364014,2|8|2,0:0|1:0|0:0,0:0:0:0:
338,308,76254,5,4,1:0:0:0:
338,308,76387,1,0,1:0:0:0:
428,330,76521,2,0,L|444:227,1,71.5000021820069,2|0,1:2|0:0,0:0:0:0:
420,168,76787,2,0,P|392:153|349:157,1,71.5000021820069,10|0,0:0|0:0,0:0:0:0:
289,224,77054,1,2,1:2:0:0:
289,224,77321,6,0,P|212:240|145:189,2,143.000004364014,10|0|10,0:0|1:0|0:0,0:0:0:0:
305,132,77987,1,0,1:0:0:0:
316,39,78121,2,0,P|286:49|247:55,1,71.5000021820069,2|0,1:2|0:0,0:0:0:0:
154,47,78387,2,0,L|170:116,1,71.5000021820069,10|0,0:0|0:0,0:0:0:0:
239,179,78654,2,0,P|232:247|219:332,1,143.000004364014,2|10,1:2|0:0,0:0:0:0:
130,345,79054,1,0,1:0:0:0:
55,289,79187,2,0,L|42:200,1,71.5000021820069,2|0,1:2|0:0,0:0:0:0:
27,126,79454,1,10,0:0:0:0:
41,333,79721,6,0,P|94:265|165:266,1,143.000004364014,0|10,1:0|0:0,0:0:0:0:
213,324,80121,1,0,1:0:0:0:
213,324,80254,2,0,P|256:332|304:344,1,71.5000021820069,0|0,1:0|0:0,0:0:0:0:
373,306,80521,1,10,0:0:0:0:
482,156,80787,2,0,P|410:148|349:202,2,143.000004364014,2|10|2,1:2|0:0|1:2,0:0:0:0:
504,241,81454,1,0,1:0:0:0:
482,156,81587,2,0,P|471:117|464:67,1,71.5000021820069,10|0,0:0|0:0,0:0:0:0:
392,30,81854,6,0,P|341:42|236:57,1,143.000004364014,6|8,1:2|0:0,0:0:0:0:
162,69,82254,1,0,1:0:0:0:
162,69,82387,2,0,P|174:35|185:-20,2,71.5000021820069,2|0|8,1:2|0:0|0:0,0:0:0:0:
222,140,82787,1,0,1:0:0:0:
146,194,82921,2,0,P|159:252|169:336,1,143.000004364014,6|8,1:0|0:0,0:0:0:0:
255,298,83321,1,0,1:0:0:0:
255,298,83454,2,0,P|249:254|238:210,1,71.5000021820069,2|0,1:2|0:0,0:0:0:0:
313,166,83721,2,0,P|352:150|403:154,1,71.5000021820069,10|0,0:0|0:0,0:0:0:0:
375,241,83987,5,4,1:0:0:0:
322,72,84254,2,0,P|249:74|190:18,1,143.000004364014,10|0,0:0|1:0,0:0:0:0:
103,35,84654,2,0,L|89:126,1,71.5000021820069,0|10,1:0|0:0,0:0:0:0:
36,180,84921,1,0,1:0:0:0:
84,258,85054,2,0,P|138:219|229:222,2,143.000004364014,0|10|2,1:0|0:0|1:2,0:0:0:0:
128,340,85721,1,2,0:0:0:0:
213,304,85854,2,0,P|249:311|291:323,1,71.5000021820069,10|0,0:0|0:0,0:0:0:0:
382,344,86121,6,0,P|364:293|348:177,1,143.000004364014,0|8,1:0|0:0,0:0:0:0:
339,19,86654,2,0,L|324:101,1,71.5000021820069,2|0,1:2|0:0,0:0:0:0:
245,42,86921,2,0,L|230:124,1,71.5000021820069,10|0,0:0|0:0,0:0:0:0:
153,160,87187,2,0,P|226:161|267:226,1,143.000004364014,0|8,1:0|0:0,0:0:0:0:
125,336,87721,2,0,L|30:355,1,71.5000021820069,2|0,1:2|0:0,0:0:0:0:
6,277,87987,1,10,0:0:0:0:
6,277,88121,1,0,1:0:0:0:
101,247,88254,6,0,P|109:172|116:102,1,143.000004364014,12|0,0:1|1:0,0:0:0:0:
98,13,88654,2,0,P|143:66|231:49,1,143.000004364014,8|8,0:0|0:0,0:0:0:0:
300,92,89054,2,0,L|402:72,1,71.5000021820069,8|8,0:0|0:0,0:0:0:0:
442,157,89321,2,0,P|450:122|462:89,1,71.5000021820069,8|8,1:2|1:2,0:0:0:0:
356,193,89587,2,0,P|372:226|383:260,1,71.5000021820069,8|4,0:3|0:3,0:0:0:0:
386,354,89854,2,0,P|345:336|296:333,1,71.5000021820069,8|8,0:0|0:3,0:0:0:0:
236,288,90121,2,0,P|199:293|146:323,1,71.5000021820069,4|0,0:3|1:0,0:0:0:0:
67,288,90387,5,4,0:0:0:0:
