osu file format v14

[General]
AudioFilename: audio.mp3
AudioLeadIn: 0
PreviewTime: 29509
Countdown: 0
SampleSet: Soft
StackLeniency: 0.3
Mode: 0
LetterboxInBreaks: 0
WidescreenStoryboard: 1

[Editor]
DistanceSpacing: 1.4
BeatDivisor: 4
GridSize: 16
TimelineZoom: 1.5

[Metadata]
Title:Liar,Liar
TitleUnicode:Liar,Liar
Artist:Mr.FanTastiC
ArtistUnicode:Mr.FanTastiC
Creator:Dored
Version:Electric Life
Source:DEAD DAYS
Tags:絶走 CLOCKUP Opening Short Version Eroge Visual Novel Galgame Video Game Japanese メガテラ・ゼロ Garden Akitoshi Corinn -Laura- Shocko Mikii Bellicose
BeatmapID:2564638
BeatmapSetID:1233707

[Difficulty]
HPDrainRate:5.5
CircleSize:4.1
OverallDifficulty:9.3
ApproachRate:9.7
SliderMultiplier:1.8
SliderTickRate:1

[Events]
//Background and Video events
0,0,"Top.jpg",0,0
//Break Periods
//Storyboard Layer 0 (Background)
//Storyboard Layer 1 (Fail)
//Storyboard Layer 2 (Pass)
//Storyboard Layer 3 (Foreground)
//Storyboard Layer 4 (Overlay)
//Storyboard Sound Samples

[TimingPoints]
-279,266.666666666667,4,2,1,70,1,0
9321,-111.111111111111,4,2,1,60,0,0
15654,-111.111111111111,4,2,1,5,0,0
15721,-111.111111111111,4,2,1,60,0,0
16987,-111.111111111111,4,2,1,5,0,0
17056,-111.111111111111,4,2,1,60,0,0
17854,-100,4,2,1,70,0,0
21254,-100,4,2,1,5,0,0
21321,-100,4,2,1,70,0,0
22054,-100,4,2,1,5,0,0
22121,-100,4,2,1,70,0,0
24187,-100,4,2,1,5,0,0
24254,-100,4,2,1,70,0,0
25521,-100,4,2,1,5,0,0
25587,-100,4,2,1,70,0,0
25787,-100,4,2,1,5,0,0
25854,-100,4,2,1,70,0,0
26321,-100,4,2,1,5,0,0
26387,-100,4,2,1,70,0,0
26454,-100,4,3,0,70,0,0
27454,-100,4,2,1,70,0,0
27521,-100,4,3,0,70,0,0
28521,-100,4,2,1,70,0,0
28587,-100,4,3,0,70,0,0
29587,-100,4,2,1,70,0,0
30654,-90.9090909090909,4,2,1,80,0,1
30854,-90.9090909090909,4,2,1,5,0,1
30921,-90.9090909090909,4,2,1,80,0,1
31654,-90.9090909090909,4,2,1,5,0,1
31721,-90.9090909090909,4,2,1,80,0,1
32187,-90.9090909090909,4,2,1,5,0,1
32254,-90.9090909090909,4,2,1,80,0,1
33787,-90.9090909090909,4,2,1,5,0,1
33854,-90.9090909090909,4,2,1,80,0,1
34054,-90.9090909090909,4,2,1,5,0,1
34121,-90.9090909090909,4,2,1,80,0,1
34854,-90.9090909090909,4,2,1,5,0,1
34921,-90.9090909090909,4,2,1,80,0,1
35187,-90.9090909090909,4,2,3,80,0,1
35321,-90.9090909090909,4,2,1,80,0,1
36787,-90.9090909090909,4,2,3,80,0,1
36987,-90.9090909090909,4,2,1,5,0,1
37054,-90.9090909090909,4,2,1,80,0,1
37321,-90.9090909090909,4,2,3,80,0,1
37521,-90.9090909090909,4,2,1,5,0,1
37587,-90.9090909090909,4,2,1,80,0,1
38054,-90.9090909090909,4,2,1,5,0,1
38121,-90.9090909090909,4,2,1,80,0,1
39054,-90.9090909090909,4,2,1,80,0,0
39187,-90.9090909090909,4,2,1,80,0,1
39387,-90.9090909090909,4,2,1,5,0,1
39454,-90.9090909090909,4,2,1,80,0,1
41254,-90.9090909090909,4,2,1,5,0,1
41321,-90.9090909090909,4,2,1,80,0,1
42587,-90.9090909090909,4,2,1,5,0,1
42654,-90.9090909090909,4,2,1,80,0,1
43387,-90.9090909090909,4,2,1,5,0,1
43454,-90.9090909090909,4,2,1,80,0,1
44454,-90.9090909090909,4,2,1,5,0,1
44521,-90.9090909090909,4,2,1,80,0,1
45521,-90.9090909090909,4,2,1,5,0,1
45587,-90.9090909090909,4,2,1,80,0,1
46587,-90.9090909090909,4,2,1,5,0,1
46654,-90.9090909090909,4,2,1,80,0,1
47721,-90.9090909090909,4,2,1,75,0,0
49587,-90.9090909090909,4,2,2,75,0,0
49721,-90.9090909090909,4,2,1,75,0,0
51721,-90.9090909090909,4,2,2,75,0,0
51854,-90.9090909090909,4,2,1,75,0,0
53854,-90.9090909090909,4,2,2,75,0,0
53987,-90.9090909090909,4,2,1,75,0,0
55654,-90.9090909090909,4,2,1,5,0,0
55721,-90.9090909090909,4,2,1,75,0,0
56187,-90.9090909090909,4,2,1,5,0,0
56254,-111.111111111111,4,2,1,60,0,0
58121,-200,4,2,1,60,0,0
58321,-200,4,2,1,5,0,0
58387,-111.111111111111,4,2,1,60,0,0
60254,-76.9230769230769,4,2,1,60,0,0
60521,-111.111111111111,4,2,1,65,0,0
62587,-111.111111111111,4,2,1,5,0,0
62654,-111.111111111111,4,2,1,65,0,0
64721,-111.111111111111,4,2,1,5,0,0
64787,-111.111111111111,4,2,1,65,0,0
70921,-100,4,2,1,70,0,0
71454,-100,4,2,1,75,0,1
72521,-100,4,2,4,75,0,1
72587,-100,4,2,1,75,0,1
73187,-100,4,2,1,75,0,0
73321,-90.9090909090909,4,2,17,80,0,1
73521,-90.9090909090909,4,2,1,5,0,1
73587,-90.9090909090909,4,2,1,80,0,1
74054,-90.9090909090909,4,2,1,5,0,1
74121,-90.9090909090909,4,2,1,80,0,1
74854,-90.9090909090909,4,2,1,5,0,1
74921,-90.9090909090909,4,2,1,80,0,1
76454,-90.9090909090909,4,2,1,5,0,1
76521,-90.9090909090909,4,2,1,80,0,1
77521,-90.9090909090909,4,2,1,5,0,1
77587,-90.9090909090909,4,2,1,80,0,1
79654,-90.9090909090909,4,2,1,5,0,1
79721,-90.9090909090909,4,2,1,80,0,1
80187,-90.9090909090909,4,2,1,5,0,1
80254,-90.9090909090909,4,2,1,80,0,1
80721,-90.9090909090909,4,2,1,5,0,1
80787,-90.9090909090909,4,2,1,80,0,1
81721,-90.9090909090909,4,2,1,80,0,0
81854,-90.9090909090909,4,2,1,80,0,1
82054,-90.9090909090909,4,2,1,5,0,1
82121,-90.9090909090909,4,2,1,80,0,1
82587,-90.9090909090909,4,2,1,5,0,1
82654,-90.9090909090909,4,2,1,80,0,1
82921,-90.9090909090909,4,2,3,80,0,1
83121,-90.9090909090909,4,2,1,5,0,1
83187,-90.9090909090909,4,2,1,80,0,1
83921,-90.9090909090909,4,2,1,5,0,1
83987,-90.9090909090909,4,2,1,80,0,1
85254,-90.9090909090909,4,2,1,5,0,1
85321,-90.9090909090909,4,2,1,80,0,1
86054,-90.9090909090909,4,2,1,5,0,1
86121,-90.9090909090909,4,2,1,80,0,1
87121,-90.9090909090909,4,2,1,5,0,1
87187,-90.9090909090909,4,2,1,80,0,1
88187,-90.9090909090909,4,2,1,5,0,1
88254,-90.9090909090909,4,2,1,80,0,1
90387,-125,4,2,1,65,0,0
90454,-125,4,2,1,50,0,0

[Colours]
Combo1 : 235,199,139
Combo2 : 206,221,227
Combo3 : 255,255,181
Combo4 : 221,207,254

[HitObjects]
60,46,654,5,2,0:0:0:0:
66,52,721,1,2,0:0:0:0:
72,58,787,2,0,P|80:102|87:146,1,90,6|0,1:2|1:0,0:0:0:0:
197,319,1054,1,8,0:0:0:0:
87,146,1187,1,0,1:0:0:0:
192,201,1321,2,0,P|236:193|280:186,1,90,8|0,0:0|1:0,0:0:0:0:
92,265,1587,1,0,1:0:0:0:
352,244,1721,6,0,P|370:159|310:97,1,180,12|0,0:0|1:0,0:0:0:0:
72,58,2121,1,8,0:3:0:0:
192,201,2254,1,0,1:0:0:0:
87,75,2387,1,8,0:3:0:0:
207,218,2520,1,0,1:0:0:0:
399,82,2654,2,0,P|355:90|311:97,1,90,12|0,0:0|1:0,0:0:0:0:
60,259,2921,6,0,P|122:199|206:217,1,180,12|0,0:0|1:0,0:0:0:0:
254,355,3321,2,0,P|209:346|165:340,1,90,12|0,0:0|1:0,0:0:0:0:
352,244,3587,1,0,1:0:0:0:
192,128,3721,2,0,P|200:172|206:216,2,90,12|0|0,0:0|1:0|1:0,0:0:0:0:
352,244,4121,6,0,P|396:237|440:229,1,90,12|0,0:0|1:0,0:0:0:0:
483,59,4387,1,0,1:0:0:0:
310,158,4520,1,8,0:0:0:0:
277,136,4587,1,8,0:0:0:0:
258,101,4654,1,8,0:3:0:0:
263,62,4720,1,8,0:3:0:0:
290,32,4787,1,4,0:3:0:0:
316,23,4854,1,4,0:3:0:0:
343,28,4920,1,4,0:3:0:0:
367,42,4987,1,4,0:3:0:0:
383,66,5054,6,0,P|366:154|351:243,1,180,12|0,0:0|1:0,0:0:0:0:
254,355,5454,2,0,P|246:310|238:266,1,90,12|0,0:0|1:0,0:0:0:0:
310,158,5721,1,0,1:0:0:0:
103,112,5854,2,0,P|147:120|191:127,2,90,12|0|0,0:0|1:0|1:0,0:0:0:0:
16,229,6254,5,8,0:0:0:0:
45,212,6321,1,8,0:0:0:0:
78,209,6387,1,8,0:0:0:0:
109,221,6455,1,8,0:0:0:0:
133,244,6521,2,0,L|125:288,1,45,8|8,0:3|0:3,0:0:0:0:
195,374,6654,5,4,0:3:0:0:
202,368,6721,1,4,0:3:0:0:
209,362,6787,2,0,L|253:354,1,45,4|4,0:3|0:3,0:0:0:0:
339,284,6921,5,4,0:3:0:0:
346,290,6988,1,4,0:3:0:0:
353,296,7054,2,0,L|397:303,1,45,4|4,0:3|0:3,0:0:0:0:
456,116,7187,6,0,P|394:176|310:158,1,180,12|0,0:0|1:0,0:0:0:0:
201,47,7587,2,0,P|245:39|289:31,1,90,12|0,0:0|1:0,0:0:0:0:
190,190,7854,1,0,1:0:0:0:
14,96,7987,2,0,P|58:103|103:112,1,90,12|0,0:0|1:0,0:0:0:0:
201,47,8254,5,8,1:2:0:0:
83,209,8387,1,8,0:0:0:0:
77,216,8454,1,8,0:0:0:0:
71,223,8521,1,8,1:2:0:0:
309,157,8654,1,8,1:2:0:0:
102,111,8787,5,8,1:2:0:0:
278,269,8921,1,8,1:2:0:0:
86,97,9054,1,8,1:2:0:0:
294,283,9187,1,8,1:2:0:0:
190,190,9321,5,4,1:2:0:0:
190,190,9454,1,0,1:0:0:0:
295,78,9587,2,0,P|303:117|309:157,1,80.9999975280763,10|0,0:0|0:0,0:0:0:0:
416,28,9854,2,0,L|402:106,1,80.9999975280763,10|0,0:0|0:0,0:0:0:0:
512,117,10121,2,0,P|490:151|471:187,1,80.9999975280763,10|0,0:0|1:0,0:0:0:0:
416,372,10387,6,0,P|364:312|378:235,1,161.999995056153,10|8,0:0|0:0,0:0:0:0:
471,186,10787,1,2,0:0:0:0:
416,372,10921,2,0,P|375:364|335:357,1,80.9999975280763,8|0,1:2|1:0,0:0:0:0:
197,283,11187,2,0,P|236:276|276:269,1,80.9999975280763,10|0,0:0|0:0,0:0:0:0:
28,223,11454,5,8,0:0:0:0:
28,223,11587,1,0,1:0:0:0:
116,379,11721,2,0,P|105:339|95:300,1,80.9999975280763,10|0,0:0|0:0,0:0:0:0:
151,126,11987,2,0,P|140:164|130:204,1,80.9999975280763,10|0,0:0|0:0,0:0:0:0:
276,269,12254,2,0,P|236:276|197:283,1,80.9999975280763,10|0,0:0|1:0,0:0:0:0:
67,88,12521,6,0,P|127:36|204:50,1,161.999995056153,10|8,0:0|0:0,0:0:0:0:
129,204,12921,1,2,0:0:0:0:
280,101,13054,2,0,P|320:108|359:115,1,80.9999975280763,8|0,1:2|1:0,0:0:0:0:
129,204,13321,2,0,P|169:197|208:190,1,80.9999975280763,10|0,0:0|1:0,0:0:0:0:
376,274,13587,5,10,0:0:0:0:
376,274,13721,1,0,1:0:0:0:
359,115,13854,2,0,L|373:35,1,80.9999975280763,8|2,0:0|0:0,0:0:0:0:
447,186,14121,1,8,0:0:0:0:
288,204,14254,2,0,P|248:196|208:189,2,80.9999975280763,2|8|0,0:0|0:0|1:0,0:0:0:0:
203,49,14654,6,0,P|123:63|43:77,1,161.999995056153,10|8,0:0|0:0,0:0:0:0:
12,235,15054,1,2,0:0:0:0:
128,174,15187,2,0,P|167:181|207:188,1,80.9999975280763,8|2,0:0|1:2,0:0:0:0:
313,351,15454,2,0,P|265:315|206:321,1,121.499996292114,8|0,0:0|0:0,0:0:0:0:
140,359,15721,5,8,1:2:0:0:
140,359,15854,1,0,1:0:0:0:
288,204,15987,2,0,P|280:243|273:283,1,80.9999975280763,10|0,0:0|0:0,0:0:0:0:
359,115,16254,2,0,P|366:154|373:194,1,80.9999975280763,10|0,0:0|0:0,0:0:0:0:
395,7,16521,2,0,P|415:41|435:77,1,80.9999975280763,10|0,0:0|1:0,0:0:0:0:
492,304,16787,6,0,P|444:268|385:273,1,121.499996292114,10|0,0:0|0:0,0:0:0:0:
373,195,17054,2,0,P|413:188|453:180,1,80.9999975280763,10|8,0:0|0:0,0:0:0:0:
496,187,17254,1,8,0:0:0:0:
496,187,17321,1,10,0:0:0:0:
274,284,17455,1,8,0:3:0:0:
435,77,17588,1,4,0:3:0:0:
179,112,17721,1,0,1:0:0:0:
347,359,17854,6,0,P|260:334|173:312,1,180,4|10,1:2|0:0,0:0:0:0:
72,340,18254,1,2,1:2:0:0:
262,183,18387,1,10,0:0:0:0:
72,340,18521,2,0,P|64:295|56:251,1,90,2|2,1:2|0:0,0:0:0:0:
150,25,18787,6,0,P|89:87|107:171,1,180,12|0,0:1|1:0,0:0:0:0:
373,195,19187,1,10,0:0:0:0:
179,112,19321,1,2,0:0:0:0:
345,35,19454,1,2,1:2:0:0:
181,226,19587,1,2,1:2:0:0:
345,35,19721,2,0,P|389:43|433:50,1,90,10|0,0:0|0:0,0:0:0:0:
270,137,19987,6,0,P|287:225|301:314,1,180,4|10,1:2|0:0,0:0:0:0:
215,368,20387,1,2,0:0:0:0:
373,195,20521,1,2,1:2:0:0:
179,112,20654,1,2,1:2:0:0:
433,50,20787,1,2,1:2:0:0:
257,232,20921,1,10,0:0:0:0:
480,343,21054,6,0,P|485:277|447:223,1,135,2|0,0:0|0:0,0:0:0:0:
373,194,21321,2,0,P|399:159|441:144,1,90,10|0,0:0|0:0,0:0:0:0:
301,314,21587,1,2,1:2:0:0:
179,112,21721,1,0,1:0:0:0:
101,335,21854,2,0,P|114:268|125:202,1,135,10|0,0:0|0:0,0:0:0:0:
179,112,22121,6,0,P|117:173|33:155,1,180,4|10,1:2|0:0,0:0:0:0:
257,232,22521,1,2,1:2:0:0:
299,34,22654,1,10,0:0:0:0:
125,202,22787,2,0,P|133:246|140:290,1,90,2|2,1:2|0:0,0:0:0:0:
335,145,23054,6,0,P|419:127|480:188,1,180,12|0,0:1|1:0,0:0:0:0:
455,360,23454,1,10,0:0:0:0:
257,232,23587,1,2,0:0:0:0:
427,90,23721,1,2,1:2:0:0:
339,317,23854,1,2,1:2:0:0:
224,105,23987,2,0,P|157:94|91:81,1,135,10|0,0:0|0:0,0:0:0:0:
7,69,24254,6,0,P|15:113|22:157,1,90,12|0,0:0|1:0,0:0:0:0:
201,5,24521,1,10,0:0:0:0:
98,226,24654,1,0,1:0:0:0:
193,21,24787,1,12,0:0:0:0:
90,242,24921,2,0,P|134:249|178:257,1,90,0|0,1:0|0:0,0:0:0:0:
339,317,25187,1,8,0:0:0:0:
292,65,25321,6,0,P|281:131|268:198,1,135,2|0,0:0|0:0,0:0:0:0:
364,151,25587,2,0,P|375:84|387:18,1,135,14|0,0:0|0:0,0:0:0:0:
292,65,25854,1,2,1:2:0:0:
464,185,25987,1,0,1:0:0:0:
339,317,26121,2,0,P|284:278|218:283,1,135,12|0,0:1|0:0,0:0:0:0:
116,350,26387,5,6,1:2:0:0:
89,321,26454,1,0,0:0:0:0:
79,283,26521,1,0,0:0:0:0:
88,245,26587,1,0,0:0:0:0:
114,216,26654,1,0,0:0:0:0:
148,198,26721,1,0,0:0:0:0:
176,171,26787,1,0,0:0:0:0:
185,133,26854,1,0,0:0:0:0:
176,95,26921,1,0,0:0:0:0:
150,67,26987,1,0,0:0:0:0:
116,46,27054,1,0,0:0:0:0:
77,45,27121,1,0,0:0:0:0:
43,63,27187,2,0,L|0:70,3,45,2|0|0|0,0:2|0:0|0:0|0:0,0:0:0:0:
185,133,27454,5,6,1:2:0:0:
213,159,27521,1,0,0:0:0:0:
248,173,27587,1,0,0:0:0:0:
287,173,27655,1,0,0:0:0:0:
323,161,27721,1,0,0:0:0:0:
352,136,27787,1,0,0:0:0:0:
370,102,27854,1,0,0:0:0:0:
375,63,27921,1,0,0:0:0:0:
366,24,27987,1,0,0:0:0:0:
337,52,28054,1,0,0:0:0:0:
336,92,28121,1,0,0:0:0:0:
364,121,28187,1,0,0:0:0:0:
402,132,28254,2,0,L|446:124,3,45,2|0|0|0,0:2|0:0|0:0|0:0,0:0:0:0:
287,212,28521,5,6,1:2:0:0:
262,241,28587,1,0,0:0:0:0:
251,277,28654,1,0,0:0:0:0:
257,314,28720,1,0,0:0:0:0:
277,346,28787,5,2,0:2:0:0:
241,331,28854,1,0,0:0:0:0:
204,331,28921,1,0,0:0:0:0:
170,348,28987,1,0,0:0:0:0:
146,377,29054,5,2,0:2:0:0:
149,338,29121,1,0,0:0:0:0:
137,302,29188,1,0,0:0:0:0:
111,275,29254,1,0,0:0:0:0:
76,261,29321,5,2,0:2:0:0:
114,251,29387,1,0,0:0:0:0:
143,229,29454,2,0,P|161:214|178:199,1,45,0|0,0:0|0:0,0:0:0:0:
256,30,29587,5,4,1:0:0:0:
256,30,30654,6,0,P|199:74|127:64,1,148.50000453186,6|0,1:2|0:0,0:0:0:0:
41,37,30921,2,0,P|50:85|58:134,1,99.0000030212403,8|0,0:0|0:0,0:0:0:0:
257,314,31187,1,2,1:2:0:0:
153,158,31321,1,0,1:0:0:0:
28,291,31454,2,0,P|99:271|171:252,1,148.50000453186,8|0,0:0|0:0,0:0:0:0:
250,206,31721,5,2,1:2:0:0:
146,377,31854,1,0,1:0:0:0:
370,357,31987,2,0,P|380:285|335:228,1,148.50000453186,8|0,0:0|0:0,0:0:0:0:
250,206,32254,2,0,P|259:158|267:109,1,99.0000030212403,2|0,1:2|1:0,0:0:0:0:
416,0,32521,2,0,P|423:48|433:97,1,99.0000030212403,10|0,0:0|0:0,0:0:0:0:
246,78,32787,5,0,1:0:0:0:
454,127,32921,1,0,1:0:0:0:
225,48,33054,1,8,0:0:0:0:
475,157,33187,1,0,1:0:0:0:
246,78,33321,2,0,P|294:70|343:60,1,99.0000030212403,0|0,1:0|1:0,0:0:0:0:
290,310,33587,2,0,P|232:265|161:275,1,148.50000453186,10|0,0:0|0:0,0:0:0:0:
96,341,33854,6,0,P|83:268|70:195,1,148.50000453186,2|0,1:2|0:0,0:0:0:0:
50,109,34121,2,0,P|98:118|147:127,1,99.0000030212403,8|0,0:0|0:0,0:0:0:0:
343,59,34387,1,2,1:2:0:0:
243,231,34521,1,0,1:0:0:0:
210,0,34654,2,0,P|223:73|236:146,1,148.50000453186,10|0,0:0|0:0,0:0:0:0:
243,231,34921,5,0,1:0:0:0:
243,231,35054,1,0,1:0:0:0:
428,162,35187,2,0,P|437:113|446:64,1,99.0000030212403,14|0,0:1|0:0,0:0:0:0:
351,252,35454,2,0,P|342:203|332:154,1,99.0000030212403,2|0,1:2|1:0,0:0:0:0:
440,370,35721,2,0,P|449:321|459:272,1,99.0000030212403,10|0,0:0|0:0,0:0:0:0:
243,231,35987,5,2,1:2:0:0:
428,162,36121,1,0,1:0:0:0:
302,350,36254,2,0,P|253:340|204:331,1,99.0000030212403,10|0,0:0|0:0,0:0:0:0:
192,126,36521,1,2,1:2:0:0:
351,252,36654,1,0,1:0:0:0:
117,267,36787,6,0,P|104:194|91:121,1,148.50000453186,14|0,0:1|0:0,0:0:0:0:
123,44,37054,2,0,P|74:37|31:61,1,99.0000030212403,0|0,1:0|1:0,0:0:0:0:
345,30,37321,2,0,P|332:103|319:176,1,148.50000453186,14|0,0:1|0:0,0:0:0:0:
260,234,37587,2,0,P|302:257|351:251,1,99.0000030212403,0|0,1:0|1:0,0:0:0:0:
507,71,37854,6,0,P|435:90|363:109,1,148.50000453186,10|0,0:0|0:0,0:0:0:0:
285,96,38121,1,2,1:2:0:0:
479,189,38254,1,0,1:0:0:0:
333,348,38387,2,0,P|342:299|351:250,1,99.0000030212403,10|0,0:0|0:0,0:0:0:0:
426,51,38654,5,2,1:2:0:0:
260,234,38787,1,0,1:0:0:0:
285,96,38921,1,10,0:0:0:0:
445,285,39054,1,0,1:0:0:0:
333,16,39187,6,0,P|261:6|204:51,1,148.50000453186,6|0,1:2|0:0,0:0:0:0:
163,128,39454,2,0,P|114:120|65:110,1,99.0000030212403,8|0,0:0|0:0,0:0:0:0:
58,301,39721,1,2,1:2:0:0:
260,234,39854,1,0,1:0:0:0:
163,128,39987,2,0,P|155:176|145:225,1,99.0000030212403,8|0,0:0|0:0,0:0:0:0:
171,309,40187,1,0,3:0:0:0:
171,309,40254,5,2,1:2:0:0:
285,96,40387,1,0,1:0:0:0:
365,248,40521,2,0,P|413:238|462:230,1,99.0000030212403,8|0,0:0|0:0,0:0:0:0:
285,96,40787,2,0,P|270:48|258:0,1,99.0000030212403,2|0,1:2|1:0,0:0:0:0:
512,165,41054,2,0,P|490:236|474:308,1,148.50000453186,10|0,0:0|0:0,0:0:0:0:
449,384,41321,5,0,1:0:0:0:
449,384,41454,1,0,1:0:0:0:
384,151,41587,2,0,P|292:126|224:192,1,198.000006042481,10|0,0:0|1:0,0:0:0:0:
240,376,41987,1,0,1:0:0:0:
58,301,42121,2,0,P|50:252|40:203,1,99.0000030212403,10|0,0:0|0:0,0:0:0:0:
255,103,42387,6,0,P|182:116|109:129,1,148.50000453186,2|0,1:2|0:0,0:0:0:0:
37,96,42654,2,0,P|69:59|117:49,1,99.0000030212403,8|0,0:0|0:0,0:0:0:0:
316,220,42921,1,2,1:2:0:0:
109,130,43054,1,2,1:2:0:0:
278,27,43187,2,0,P|351:40|424:53,1,148.50000453186,10|0,0:0|0:0,0:0:0:0:
485,117,43454,5,4,1:0:0:0:
316,220,43587,1,0,1:0:0:0:
485,117,43721,2,0,P|475:165|467:214,1,99.0000030212403,8|0,0:0|0:0,0:0:0:0:
333,317,43987,2,0,P|325:268|315:219,1,99.0000030212403,2|0,1:2|1:0,0:0:0:0:
188,264,44254,2,0,P|130:219|59:229,1,148.50000453186,10|0,0:0|0:0,0:0:0:0:
10,327,44521,5,0,1:0:0:0:
109,130,44654,1,0,1:0:0:0:
10,327,44787,2,0,P|58:317|107:309,1,99.0000030212403,8|0,0:0|0:0,0:0:0:0:
206,148,45054,2,0,P|157:140|108:129,1,99.0000030212403,2|0,1:2|1:0,0:0:0:0:
268,376,45321,2,0,P|340:361|414:349,1,148.50000453186,10|0,0:0|0:0,0:0:0:0:
485,311,45587,5,0,1:0:0:0:
315,219,45721,1,0,1:0:0:0:
485,311,45854,2,0,P|475:263|467:214,1,99.0000030212403,8|0,0:0|0:0,0:0:0:0:
334,121,46121,2,0,P|326:169|315:218,1,99.0000030212403,2|0,1:2|1:0,0:0:0:0:
489,3,46387,2,0,P|431:48|360:38,1,148.50000453186,10|0,0:0|0:0,0:0:0:0:
277,11,46654,5,4,1:0:0:0:
460,181,46787,1,8,0:0:0:0:
211,264,46921,1,0,1:0:0:0:
334,121,47054,1,8,0:0:0:0:
360,153,47120,1,8,0:0:0:0:
361,195,47187,1,10,1:2:0:0:
126,82,47321,1,8,1:2:0:0:
393,28,47454,2,0,P|440:15|488:2,1,99.0000030212403,10|8,1:2|1:2,0:0:0:0:
361,195,47721,5,4,1:2:0:0:
266,186,47854,1,0,1:0:0:0:
211,264,47987,1,10,0:1:0:0:
251,350,48121,1,0,0:0:0:0:
116,255,48254,5,2,0:1:0:0:
266,186,48387,1,0,1:0:0:0:
211,264,48521,1,10,0:1:0:0:
226,100,48654,1,0,1:2:0:0:
306,273,48787,5,2,0:1:0:0:
171,177,48921,1,0,1:0:0:0:
321,109,49054,1,10,0:1:0:0:
186,13,49187,1,2,0:0:0:0:
361,195,49321,5,2,0:1:0:0:
511,126,49454,1,0,1:0:0:0:
211,264,49587,1,14,0:1:0:0:
211,264,49854,5,2,1:0:0:0:
266,186,49987,1,0,1:0:0:0:
171,177,50121,1,10,0:1:0:0:
226,100,50254,1,0,0:0:0:0:
77,168,50387,5,2,0:1:0:0:
211,264,50521,1,0,1:0:0:0:
361,195,50654,1,10,0:1:0:0:
226,100,50787,1,0,1:2:0:0:
116,255,50921,5,2,0:1:0:0:
266,186,51054,1,0,1:0:0:0:
131,91,51187,1,10,0:1:0:0:
281,22,51321,1,2,0:0:0:0:
211,264,51454,5,2,0:1:0:0:
77,168,51587,1,0,1:0:0:0:
345,360,51721,1,14,0:1:0:0:
345,360,51987,5,4,1:2:0:0:
401,282,52121,1,0,1:0:0:0:
361,195,52254,1,10,0:1:0:0:
306,273,52387,1,0,0:0:0:0:
456,204,52521,5,2,0:1:0:0:
266,186,52654,1,0,1:0:0:0:
416,117,52787,1,10,0:1:0:0:
306,273,52920,1,0,1:0:0:0:
496,291,53054,5,2,0:1:0:0:
361,195,53187,1,0,1:0:0:0:
345,360,53321,1,10,0:1:0:0:
211,264,53454,1,2,0:0:0:0:
456,204,53587,5,2,0:1:0:0:
471,39,53721,1,0,1:0:0:0:
441,369,53854,1,14,0:1:0:0:
441,369,54121,5,2,1:0:0:0:
401,282,54254,1,0,1:0:0:0:
306,273,54387,1,10,0:1:0:0:
251,350,54521,1,0,0:0:0:0:
361,195,54654,5,2,0:1:0:0:
211,264,54787,1,0,1:0:0:0:
77,168,54921,1,10,0:1:0:0:
93,3,55054,1,0,1:0:0:0:
266,186,55187,6,0,P|290:144|281:96,1,99.0000030212403,0|0,1:0|0:0,0:0:0:0:
217,36,55387,1,8,0:3:0:0:
217,36,55454,2,0,P|289:49|363:61,1,148.50000453186,8|0,0:0|0:0,0:0:0:0:
440,72,55721,1,8,0:0:0:0:
266,186,55854,1,8,0:3:0:0:
457,317,55987,2,0,P|467:245|423:188,1,148.50000453186,4|0,0:3|0:0,0:0:0:0:
362,144,56254,5,4,1:2:0:0:
362,144,56387,1,0,1:0:0:0:
211,264,56521,2,0,P|218:303|225:343,1,80.9999975280763,8|0,0:0|1:0,0:0:0:0:
98,197,56787,2,0,P|113:277|126:357,1,161.999995056153,12|0,0:1|0:0,0:0:0:0:
15,299,57187,1,8,0:0:0:0:
185,168,57321,6,0,P|130:111|52:117,1,161.999995056153,2|8,0:0|0:0,0:0:0:0:
256,92,57721,2,0,P|295:99|335:106,1,80.9999975280763,2|0,0:0|1:0,0:0:0:0:
185,168,57987,1,0,1:0:0:0:
277,0,58121,2,0,P|310:6|343:11,1,67.5,10|0,0:0|0:0,0:0:0:0:
417,25,58387,5,4,1:2:0:0:
417,25,58521,1,0,1:0:0:0:
350,185,58654,2,0,P|343:145|335:105,1,80.9999975280763,8|0,0:0|0:0,0:0:0:0:
459,215,58921,2,0,P|451:175|444:135,1,80.9999975280763,4|0,1:0|1:0,0:0:0:0:
377,293,59187,1,2,0:0:0:0:
214,224,59321,6,0,P|272:172|350:185,1,161.999995056153,8|0,0:0|1:0,0:0:0:0:
135,318,59721,2,0,P|122:238|107:159,1,161.999995056153,8|4,0:0|1:0,0:0:0:0:
46,61,60121,1,0,1:0:0:0:
220,126,60254,2,0,P|277:117|335:104,1,116.999994644165,8|0,0:0|0:0,0:0:0:0:
152,0,60521,6,0,P|145:39|137:79,1,80.9999975280763,6|0,1:2|1:0,0:0:0:0:
335,104,60787,1,8,0:0:0:0:
214,224,60921,1,2,1:2:0:0:
258,15,61054,1,8,0:0:0:0:
406,161,61187,2,0,P|424:85|378:22,1,161.999995056153,2|8,1:2|0:0,0:0:0:0:
220,126,61587,6,0,P|141:147|63:167,1,161.999995056153,2|8,0:0|0:0,0:0:0:0:
293,239,61987,2,0,P|253:231|213:224,1,80.9999975280763,2|0,0:0|1:0,0:0:0:0:
406,161,62254,1,2,1:2:0:0:
346,369,62387,2,0,P|298:333|239:338,1,121.499996292114,8|0,0:0|0:0,0:0:0:0:
172,375,62654,5,4,1:2:0:0:
172,375,62787,1,0,1:0:0:0:
32,245,62921,2,0,P|40:285|47:325,1,80.9999975280763,10|0,0:0|0:0,0:0:0:0:
213,223,63187,2,0,P|173:216|133:208,1,80.9999975280763,2|0,1:2|1:0,0:0:0:0:
51,140,63454,1,2,0:0:0:0:
186,31,63587,1,8,0:0:0:0:
255,119,63721,6,0,P|294:111|334:102,1,80.9999975280763,2|0,0:0|1:0,0:0:0:0:
464,13,63987,1,8,0:3:0:0:
406,161,64121,1,0,1:0:0:0:
397,183,64187,1,0,1:0:0:0:
388,205,64254,1,4,0:3:0:0:
379,227,64320,1,4,0:3:0:0:
370,249,64387,1,4,0:3:0:0:
361,271,64454,1,4,0:3:0:0:
352,293,64521,2,0,P|292:297|245:261,1,121.499996292114,8|0,0:0|0:0,0:0:0:0:
206,192,64787,5,4,1:2:0:0:
206,192,64921,1,0,1:0:0:0:
172,375,65054,2,0,P|211:366|251:358,1,80.9999975280763,8|0,0:0|1:0,0:0:0:0:
102,272,65321,2,0,P|45:217|50:139,1,161.999995056153,12|0,0:1|1:0,0:0:0:0:
152,15,65721,6,0,P|231:30|311:43,1,161.999995056153,12|0,0:0|1:0,0:0:0:0:
129,123,66121,2,0,P|89:131|49:139,1,80.9999975280763,8|0,0:0|1:0,0:0:0:0:
338,139,66387,2,0,P|259:134|205:191,1,161.999995056153,8|0,0:0|1:0,0:0:0:0:
435,227,66787,6,0,P|421:147|407:67,1,161.999995056153,8|0,0:0|1:0,0:0:0:0:
483,2,67187,5,12,0:0:0:0:
338,139,67321,1,0,1:0:0:0:
319,113,67454,5,8,0:0:0:0:
508,178,67587,1,0,1:0:0:0:
512,145,67721,5,12,0:0:0:0:
362,276,67854,1,0,1:0:0:0:
183,221,67987,6,0,P|262:233|342:249,1,161.999995056153,8|0,0:0|1:0,0:0:0:0:
456,74,68387,2,0,P|396:124|319:113,1,161.999995056153,8|0,0:0|1:0,0:0:0:0:
197,32,68787,1,8,0:0:0:0:
162,19,68854,1,8,0:3:0:0:
124,22,68921,1,4,0:3:0:0:
91,40,68987,1,4,0:3:0:0:
69,71,69054,1,4,0:3:0:0:
89,86,69121,1,4,0:3:0:0:
100,108,69187,1,4,0:3:0:0:
101,132,69255,1,4,0:3:0:0:
91,155,69321,6,0,P|84:194|76:234,1,80.9999975280763,12|0,0:0|1:0,0:0:0:0:
217,367,69587,2,0,P|224:328|232:288,1,80.9999975280763,12|0,0:0|1:0,0:0:0:0:
318,112,69854,1,0,1:0:0:0:
168,215,69987,1,8,0:3:0:0:
367,264,70121,1,4,0:3:0:0:
217,367,70254,1,0,1:0:0:0:
454,253,70387,6,0,P|375:234|297:211,1,161.999995056153,12|0,0:1|1:0,0:0:0:0:
154,309,70787,2,0,P|192:297|231:286,1,80.9999975280763,8|4,0:3|0:3,0:0:0:0:
321,358,71054,1,0,1:0:0:0:
168,215,71187,6,0,P|179:171|190:127,1,90,12|0,0:1|1:0,0:0:0:0:
60,295,71454,1,12,0:0:0:0:
297,211,71587,1,0,1:0:0:0:
104,62,71721,1,12,0:0:0:0:
192,297,71854,1,0,1:0:0:0:
318,112,71987,2,0,P|362:123|406:134,1,90,0|8,1:0|0:0,0:0:0:0:
495,220,72254,5,0,1:0:0:0:
221,143,72387,1,8,0:0:0:0:
200,112,72454,1,8,0:0:0:0:
205,75,72521,1,12,1:2:0:0:
383,272,72654,1,8,0:0:0:0:
74,195,72787,5,8,1:2:0:0:
438,128,72921,1,8,1:2:0:0:
261,369,73054,5,8,1:2:0:0:
189,7,73187,1,8,1:2:0:0:
383,272,73321,6,0,P|326:228|254:238,1,148.50000453186,6|0,1:2|0:0,0:0:0:0:
192,297,73587,2,0,P|143:287|94:279,1,99.0000030212403,8|0,0:0|0:0,0:0:0:0:
291,101,73854,2,0,P|364:114|437:127,1,148.50000453186,2|0,1:2|0:0,0:0:0:0:
478,206,74121,2,0,P|468:255|460:304,1,99.0000030212403,8|0,0:0|0:0,0:0:0:0:
484,51,74387,5,2,1:2:0:0:
332,198,74521,1,0,1:0:0:0:
188,7,74654,2,0,P|202:79|215:153,1,148.50000453186,8|0,0:0|0:0,0:0:0:0:
245,229,74921,2,0,P|283:198|331:197,1,99.0000030212403,2|0,1:2|0:0,0:0:0:0:
139,365,75187,2,0,P|101:334|53:333,1,99.0000030212403,10|0,0:0|0:0,0:0:0:0:
117,171,75454,5,4,1:0:0:0:
260,350,75587,1,0,1:0:0:0:
94,142,75721,1,8,0:0:0:0:
283,379,75854,1,0,1:0:0:0:
117,171,75987,2,0,P|165:163|214:153,1,99.0000030212403,0|0,1:0|0:0,0:0:0:0:
441,241,76254,2,0,P|384:285|312:275,1,148.50000453186,10|0,0:0|0:0,0:0:0:0:
245,229,76521,5,2,1:2:0:0:
443,108,76654,1,0,1:0:0:0:
315,50,76787,2,0,P|325:99|333:148,1,99.0000030212403,10|0,0:0|0:0,0:0:0:0:
117,171,77054,1,2,1:2:0:0:
315,50,77187,1,0,1:0:0:0:
244,229,77321,2,0,P|232:155|218:82,1,148.50000453186,10|0,0:0|0:0,0:0:0:0:
176,12,77587,5,0,1:0:0:0:
176,12,77854,2,0,P|127:21|78:30,1,99.0000030212403,10|0,0:0|0:0,0:0:0:0:
280,165,78121,2,0,P|231:155|182:146,1,99.0000030212403,2|0,1:2|0:0,0:0:0:0:
412,31,78387,2,0,P|363:40|314:49,1,99.0000030212403,10|0,0:0|0:0,0:0:0:0:
369,245,78654,5,2,1:2:0:0:
182,146,78787,1,0,1:0:0:0:
412,31,78921,2,0,P|402:79|394:128,1,99.0000030212403,10|0,0:0|0:0,0:0:0:0:
255,282,79187,1,2,1:2:0:0:
393,128,79321,1,0,1:0:0:0:
425,366,79454,6,0,P|371:316|368:244,1,148.50000453186,10|0,0:0|0:0,0:0:0:0:
441,198,79721,1,0,1:0:0:0:
213,57,79987,2,0,P|266:106|269:178,1,148.50000453186,10|0,0:0|0:0,0:0:0:0:
197,225,80254,1,0,1:0:0:0:
0,66,80521,6,0,P|72:85|144:104,1,148.50000453186,10|0,0:0|0:0,0:0:0:0:
213,57,80787,1,2,1:2:0:0:
35,180,80921,1,0,1:0:0:0:
294,206,81054,2,0,P|245:214|196:224,1,99.0000030212403,10|0,0:0|0:0,0:0:0:0:
90,301,81321,5,2,1:2:0:0:
213,57,81454,1,0,1:0:0:0:
35,180,81587,1,10,0:0:0:0:
243,347,81721,1,0,1:0:0:0:
339,85,81854,6,0,P|410:74|467:119,1,148.50000453186,6|0,1:2|0:0,0:0:0:0:
506,198,82121,2,0,P|496:246|488:295,1,99.0000030212403,8|0,0:0|0:0,0:0:0:0:
310,384,82387,2,0,P|323:311|336:237,1,148.50000453186,2|0,1:2|0:0,0:0:0:0:
268,178,82654,2,0,P|220:188|171:196,1,99.0000030212403,8|0,0:0|0:0,0:0:0:0:
12,332,82921,6,0,P|69:376|140:364,1,148.50000453186,6|0,1:0|0:0,0:0:0:0:
189,293,83187,2,0,P|181:244|170:195,1,99.0000030212403,8|0,0:0|0:0,0:0:0:0:
191,120,83387,1,0,3:0:0:0:
191,120,83454,2,0,P|142:121|104:151,1,99.0000030212403,2|0,1:2|0:0,0:0:0:0:
335,237,83721,2,0,P|351:164|373:93,1,148.50000453186,10|0,0:0|0:0,0:0:0:0:
433,33,83987,5,4,1:0:0:0:
433,33,84254,2,0,B|391:0|330:-7|279:23|279:23|296:27|308:37,1,198.000006042481,10|0,0:0|1:0,0:0:0:0:
397,176,84654,1,0,1:0:0:0:
191,120,84787,2,0,P|239:129|288:138,1,99.0000030212403,10|0,0:0|0:0,0:0:0:0:
431,304,85054,6,0,P|441:232|396:175,1,148.50000453186,0|0,1:0|0:0,0:0:0:0:
335,237,85321,2,0,P|294:263|245:260,1,99.0000030212403,10|0,0:0|0:0,0:0:0:0:
94,102,85587,1,2,1:2:0:0:
309,37,85721,1,2,0:0:0:0:
149,210,85854,2,0,P|162:282|174:356,1,148.50000453186,10|0,0:0|0:0,0:0:0:0:
256,384,86121,5,0,1:0:0:0:
256,384,86387,2,0,P|305:374|354:366,1,99.0000030212403,8|0,0:0|0:0,0:0:0:0:
508,259,86654,2,0,P|459:251|410:241,1,99.0000030212403,2|0,1:2|0:0,0:0:0:0:
237,66,86921,2,0,P|294:110|365:98,1,148.50000453186,10|0,0:0|0:0,0:0:0:0:
445,63,87187,5,0,1:0:0:0:
445,63,87454,2,0,P|435:111|427:160,1,99.0000030212403,8|0,0:0|0:0,0:0:0:0:
289,291,87721,2,0,P|281:242|271:193,1,99.0000030212403,2|0,1:2|0:0,0:0:0:0:
90,91,87987,2,0,P|163:79|236:65,1,148.50000453186,10|0,0:0|0:0,0:0:0:0:
314,20,88254,6,0,P|355:46|404:43,2,99.0000030212403,12|0|0,0:1|1:0|1:0,0:0:0:0:
271,193,88654,1,8,0:0:0:0:
512,126,88787,1,0,1:0:0:0:
361,290,88921,1,8,0:0:0:0:
348,327,88987,1,8,0:0:0:0:
353,366,89054,1,8,0:0:0:0:
495,348,89187,1,8,0:0:0:0:
201,306,89321,5,8,1:2:0:0:
392,160,89454,1,8,1:2:0:0:
160,46,89587,1,8,0:3:0:0:
361,290,89721,1,4,0:3:0:0:
41,322,89854,5,8,0:0:0:0:
276,103,89987,1,8,0:3:0:0:
42,187,90121,5,4,0:3:0:0:
392,160,90254,1,0,1:0:0:0:
160,46,90387,6,0,P|169:117|177:188,1,144,4|0,1:2|0:0,0:0:0:0:
41,322,90787,1,2,0:0:0:0:
133,279,90921,2,0,P|168:283|204:287,1,72,2|0,0:0|0:0,0:0:0:0:
278,355,91187,2,0,P|313:350|349:346,1,72,0|0,0:0|0:0,0:0:0:0:
392,160,91454,6,0,P|396:124|399:88,1,72,2|0,0:0|0:0,0:0:0:0:
453,240,91721,2,0,P|448:275|445:311,1,72,0|0,0:0|0:0,0:0:0:0:
349,345,91987,1,0,0:0:0:0:
269,282,92121,1,0,0:0:0:0:
168,283,92254,1,0,0:0:0:0:
90,347,92387,1,0,0:0:0:0:
