osu file format v14

[General]
AudioFilename: audio.mp3
AudioLeadIn: 0
PreviewTime: 29509
Countdown: 0
SampleSet: Soft
StackLeniency: 0.3
Mode: 0
LetterboxInBreaks: 0
WidescreenStoryboard: 1

[Editor]
DistanceSpacing: 1.3
BeatDivisor: 4
GridSize: 16
TimelineZoom: 1.5

[Metadata]
Title:Liar,Liar
TitleUnicode:Liar,Liar
Artist:Mr.FanTastiC
ArtistUnicode:Mr.FanTastiC
Creator:Dored
Version:Another
Source:DEAD DAYS
Tags:絶走 CLOCKUP Opening Short Version Eroge Visual Novel Galgame Video Game Japanese メガテラ・ゼロ Garden Akitoshi Corinn -Laura- Shocko Mikii Bellicose
BeatmapID:2597725
BeatmapSetID:1233707

[Difficulty]
HPDrainRate:5.5
CircleSize:4
OverallDifficulty:7.5
ApproachRate:9
SliderMultiplier:1.7
SliderTickRate:1

[Events]
//Background and Video events
0,0,"Top.jpg",0,0
//Break Periods
//Storyboard Layer 0 (Background)
//Storyboard Layer 1 (Fail)
//Storyboard Layer 2 (Pass)
//Storyboard Layer 3 (Foreground)
//Storyboard Layer 4 (Overlay)
//Storyboard Sound Samples

[TimingPoints]
-279,266.666666666667,4,2,1,70,1,0
2854,-100,4,2,1,5,0,0
2921,-100,4,2,1,70,0,0
9321,-111.111111111111,4,2,1,60,0,0
17854,-100,4,2,1,70,0,0
21254,-100,4,2,1,5,0,0
21321,-100,4,2,1,70,0,0
21521,-100,4,2,1,5,0,0
21587,-100,4,2,1,70,0,0
21787,-100,4,2,1,5,0,0
21854,-100,4,2,1,70,0,0
22054,-100,4,2,1,5,0,0
22121,-100,4,2,1,70,0,0
26321,-100,4,2,1,5,0,0
26387,-100,4,2,1,70,0,0
30654,-90.9090909090909,4,2,1,80,0,1
31121,-90.9090909090909,4,2,1,5,0,1
31187,-90.9090909090909,4,2,1,80,0,1
31654,-90.9090909090909,4,2,1,5,0,1
31721,-90.9090909090909,4,2,1,80,0,1
32721,-90.9090909090909,4,2,1,5,0,1
32787,-90.9090909090909,4,2,1,80,0,1
33787,-90.9090909090909,4,2,1,5,0,1
33854,-90.9090909090909,4,2,1,80,0,1
34854,-90.9090909090909,4,2,1,5,0,1
34921,-90.9090909090909,4,2,1,80,0,1
35187,-90.9090909090909,4,2,3,80,0,1
35321,-90.9090909090909,4,2,1,80,0,1
36787,-90.9090909090909,4,2,3,80,0,1
36921,-90.9090909090909,4,2,1,80,0,1
37321,-90.9090909090909,4,2,3,80,0,1
37454,-90.9090909090909,4,2,1,80,0,1
38054,-90.9090909090909,4,2,1,5,0,1
38121,-90.9090909090909,4,2,1,80,0,1
39054,-90.9090909090909,4,2,1,80,0,0
39187,-90.9090909090909,4,2,1,80,0,1
39654,-90.9090909090909,4,2,1,5,0,1
39721,-90.9090909090909,4,2,1,80,0,1
43387,-90.9090909090909,4,2,1,5,0,1
43454,-90.9090909090909,4,2,1,80,0,1
44187,-90.9090909090909,4,2,1,5,0,1
44254,-90.9090909090909,4,2,1,80,0,1
45254,-90.9090909090909,4,2,1,5,0,1
45321,-90.9090909090909,4,2,1,80,0,1
46321,-90.9090909090909,4,2,1,5,0,1
46387,-90.9090909090909,4,2,1,80,0,1
47721,-90.9090909090909,4,2,1,75,0,0
49587,-90.9090909090909,4,2,2,75,0,0
49787,-90.9090909090909,4,2,1,5,0,0
49854,-90.9090909090909,4,2,1,75,0,0
51721,-90.9090909090909,4,2,2,75,0,0
51921,-90.9090909090909,4,2,1,5,0,0
51987,-90.9090909090909,4,2,1,75,0,0
53854,-90.9090909090909,4,2,2,75,0,0
54054,-90.9090909090909,4,2,1,5,0,0
54121,-90.9090909090909,4,2,1,75,0,0
56187,-90.9090909090909,4,2,1,5,0,0
56254,-111.111111111111,4,2,1,60,0,0
58387,-111.111111111111,4,2,1,60,0,0
60521,-111.111111111111,4,2,1,65,0,0
64721,-111.111111111111,4,2,1,5,0,0
64787,-111.111111111111,4,2,1,65,0,0
70921,-100,4,2,1,70,0,0
71454,-100,4,2,1,75,0,0
72521,-100,4,2,4,75,0,0
72587,-100,4,2,1,75,0,0
73187,-100,4,2,1,75,0,0
73321,-90.9090909090909,4,2,17,80,0,1
73521,-90.9090909090909,4,2,1,5,0,1
73587,-90.9090909090909,4,2,1,80,0,1
73787,-90.9090909090909,4,2,1,5,0,1
73854,-90.9090909090909,4,2,1,80,0,1
74054,-90.9090909090909,4,2,1,5,0,1
74121,-90.9090909090909,4,2,1,80,0,1
74321,-90.9090909090909,4,2,1,5,0,1
74387,-90.9090909090909,4,2,1,80,0,1
74587,-90.9090909090909,4,2,1,5,0,1
74654,-90.9090909090909,4,2,1,80,0,1
75387,-90.9090909090909,4,2,1,5,0,1
75454,-90.9090909090909,4,2,1,80,0,1
75654,-90.9090909090909,4,2,1,5,0,1
75721,-90.9090909090909,4,2,1,80,0,1
76187,-90.9090909090909,4,2,1,5,0,1
76254,-90.9090909090909,4,2,1,80,0,1
76721,-90.9090909090909,4,2,1,5,0,1
76787,-90.9090909090909,4,2,1,80,0,1
76987,-90.9090909090909,4,2,1,5,0,1
77054,-90.9090909090909,4,2,1,80,0,1
77254,-90.9090909090909,4,2,1,5,0,1
77321,-90.9090909090909,4,2,1,80,0,1
77521,-90.9090909090909,4,2,1,5,0,1
77587,-90.9090909090909,4,2,1,80,0,1
80721,-90.9090909090909,4,2,1,5,0,1
80787,-90.9090909090909,4,2,1,80,0,1
81587,-333.333333333333,4,2,1,80,0,1
81721,-333.333333333333,4,2,1,80,0,0
81787,-333.333333333333,4,2,1,5,0,0
81854,-90.9090909090909,4,2,1,80,0,1
82054,-90.9090909090909,4,2,1,5,0,1
82121,-90.9090909090909,4,2,1,80,0,1
82321,-90.9090909090909,4,2,1,5,0,1
82387,-90.9090909090909,4,2,1,80,0,1
82587,-90.9090909090909,4,2,1,5,0,1
82654,-90.9090909090909,4,2,1,80,0,1
82854,-90.9090909090909,4,2,1,5,0,1
82921,-90.9090909090909,4,2,3,80,0,1
83121,-90.9090909090909,4,2,1,5,0,1
83187,-90.9090909090909,4,2,1,80,0,1
85254,-90.9090909090909,4,2,1,5,0,1
85321,-90.9090909090909,4,2,1,80,0,1
85521,-90.9090909090909,4,2,1,5,0,1
85587,-90.9090909090909,4,2,1,80,0,1
86054,-90.9090909090909,4,2,1,5,0,1
86121,-90.9090909090909,4,2,1,80,0,1
86854,-90.9090909090909,4,2,1,5,0,1
86921,-90.9090909090909,4,2,1,80,0,1
87921,-90.9090909090909,4,2,1,5,0,1
87987,-90.9090909090909,4,2,1,80,0,1
88187,-90.9090909090909,4,2,1,5,0,1
88254,-90.9090909090909,4,2,1,80,0,1
90387,-111.111111111111,4,2,1,65,0,0

[Colours]
Combo1 : 235,199,139
Combo2 : 206,221,227
Combo3 : 255,255,181
Combo4 : 221,207,254

[HitObjects]
48,128,787,6,0,P|89:118|129:106,1,85,6|0,1:2|1:0,0:0:0:0:
266,223,1054,2,0,P|225:210|184:201,1,85,8|0,0:0|1:0,0:0:0:0:
261,23,1321,2,0,P|248:63|239:104,1,85,8|0,0:0|1:0,0:0:0:0:
129,105,1587,1,0,1:0:0:0:
339,151,1721,6,0,P|410:106|493:93,1,170,12|0,0:0|1:0,0:0:0:0:
261,23,2121,2,0,P|302:36|343:45,1,85,8|0,0:3|1:0,0:0:0:0:
493,93,2387,2,0,P|480:52|471:11,1,85,8|0,0:3|1:0,0:0:0:0:
390,150,2654,2,0,P|370:210|355:272,1,127.5,12|0,0:0|0:0,0:0:0:0:
303,359,2921,6,0,P|363:303|442:322,1,170,12|0,0:0|1:0,0:0:0:0:
266,222,3321,2,0,P|184:245|101:265,1,170,12|0,0:0|1:0,0:0:0:0:
9,351,3721,2,0,P|50:360|90:372,1,85,12|0,0:0|1:0,0:0:0:0:
18,219,3987,5,0,1:0:0:0:
204,329,4121,2,0,P|183:246|160:164,1,170,12|0,0:0|1:0,0:0:0:0:
79,88,4521,2,0,P|58:81|38:76,2,42.5,8|8|8,0:0|0:0|0:3,0:0:0:0:
175,30,4787,2,0,P|195:24|215:18,2,42.5,4|4|4,0:3|0:3|0:3,0:0:0:0:
319,209,5054,6,0,P|244:170|160:164,1,170,12|0,0:0|1:0,0:0:0:0:
350,292,5454,2,0,P|405:232|387:153,1,170,12|0,0:0|1:0,0:0:0:0:
301,86,5854,2,0,P|342:76|382:63,1,85,12|0,0:0|1:0,0:0:0:0:
215,17,6121,1,0,1:0:0:0:
232,211,6254,6,0,P|237:190|243:170,3,42.5,8|8|8|8,0:0|0:0|0:0|0:0,0:0:0:0:
134,101,6521,2,0,P|140:121|145:141,1,42.5,8|8,0:3|0:3,0:0:0:0:
46,19,6654,1,4,0:3:0:0:
46,19,6721,1,4,0:3:0:0:
46,19,6787,2,0,P|36:60|23:100,1,85,4|4,0:3|0:3,0:0:0:0:
215,17,7054,1,4,0:3:0:0:
46,183,7187,6,0,P|130:188|205:227,1,170,12|0,0:0|1:0,0:0:0:0:
386,152,7587,2,0,P|306:170|247:114,1,170,12|0,0:0|1:0,0:0:0:0:
344,265,7987,2,0,P|357:305|366:346,1,85,12|0,0:0|1:0,0:0:0:0:
255,327,8254,5,8,1:2:0:0:
453,285,8387,2,0,P|448:264|441:243,2,42.5,8|8|8,0:0|0:0|1:2,0:0:0:0:
296,190,8654,1,8,1:2:0:0:
396,113,8787,2,0,P|437:122|477:135,1,85,8|8,1:2|1:2,0:0:0:0:
312,22,9054,2,0,P|271:35|230:44,1,85,8|8,1:2|1:2,0:0:0:0:
89,100,9321,6,0,P|79:62|69:26,1,76.4999976654053,4|0,1:2|1:0,0:0:0:0:
192,145,9587,5,10,0:0:0:0:
128,209,9854,1,10,0:0:0:0:
65,273,10121,1,10,0:0:0:0:
168,318,10387,6,0,P|241:296|315:278,1,152.999995330811,10|8,0:0|0:0,0:0:0:0:
489,290,10787,2,0,P|465:220|396:196,1,152.999995330811,2|0,0:0|1:0,0:0:0:0:
383,357,11187,2,0,P|391:319|402:283,1,76.4999976654053,10|0,0:0|0:0,0:0:0:0:
288,116,11454,6,0,P|300:153|308:190,1,76.4999976654053,8|0,0:0|1:0,0:0:0:0:
483,155,11721,5,10,0:0:0:0:
420,91,11988,1,10,0:0:0:0:
356,27,12255,1,10,0:0:0:0:
159,151,12521,6,0,P|231:164|288:116,1,152.999995330811,10|8,0:0|0:0,0:0:0:0:
219,27,12921,2,0,P|145:48|71:66,1,152.999995330811,2|0,0:0|1:0,0:0:0:0:
0,173,13321,2,0,P|37:181|73:192,1,76.4999976654053,10|0,0:0|1:0,0:0:0:0:
181,77,13587,6,0,P|169:113|158:150,1,76.4999976654053,10|0,0:0|1:0,0:0:0:0:
115,277,13854,1,8,0:0:0:0:
115,277,14121,1,8,0:0:0:0:
270,211,14254,2,0,P|233:223|197:233,2,76.4999976654053,2|8|0,0:0|0:0|1:0,0:0:0:0:
400,313,14654,5,10,0:0:0:0:
400,313,14921,1,8,0:0:0:0:
270,211,15054,2,0,P|281:247|289:284,2,76.4999976654053,2|0|2,0:0|0:0|1:2,1:2:0:0:
508,234,15454,2,0,P|435:248|400:313,1,152.999995330811,8|8,0:0|1:2,0:0:0:0:
405,7,15987,5,10,0:0:0:0:
336,68,16254,1,10,0:0:0:0:
244,54,16521,1,10,0:0:0:0:
175,115,16787,5,10,0:0:0:0:
83,101,17054,2,0,P|68:89|55:74,1,38.2499988327027,10|0,0:0|0:0,0:0:0:0:
34,22,17187,5,8,0:0:0:0:
111,73,17320,1,10,0:0:0:0:
137,161,17454,1,8,0:3:0:0:
100,245,17587,1,4,0:3:0:0:
17,285,17721,1,0,1:0:0:0:
133,356,17854,5,4,1:2:0:0:
133,356,18121,2,0,P|173:343|214:333,1,85,10|2,0:0|1:2,0:0:0:0:
306,271,18387,2,0,P|318:311|328:352,1,85,10|2,0:0|1:2,0:0:0:0:
221,198,18654,1,2,0:0:0:0:
418,285,18787,6,0,P|474:225|455:146,1,170,12|0,0:1|1:0,0:0:0:0:
303,175,19187,2,0,P|261:185|220:197,1,85,10|2,0:0|0:0,0:0:0:0:
308,34,19454,2,0,P|348:46|389:56,1,85,2|2,1:2|1:2,0:0:0:0:
177,95,19721,2,0,P|189:54|199:13,1,85,10|0,0:0|0:0,0:0:0:0:
46,156,19987,5,4,1:2:0:0:
46,156,20254,2,0,P|58:196|68:237,1,85,10|2,0:0|0:0,0:0:0:0:
210,300,20521,2,0,P|168:310|127:322,1,85,2|2,1:2|1:2,0:0:0:0:
31,371,20787,1,2,1:2:0:0:
171,212,20921,1,10,0:0:0:0:
0,86,21054,6,0,P|60:106|122:121,1,127.5,2|0,0:0|0:0,0:0:0:0:
204,90,21321,2,0,P|164:41|102:33,1,127.5,10|0,0:0|0:0,0:0:0:0:
171,212,21587,2,0,P|218:171|280:173,1,127.5,2|0,1:2|0:0,0:0:0:0:
366,192,21854,2,0,P|345:131|330:69,1,127.5,10|0,0:0|0:0,0:0:0:0:
392,8,22121,5,4,1:2:0:0:
392,8,22387,2,0,P|432:21|473:30,1,85,10|2,0:0|1:2,0:0:0:0:
280,173,22654,2,0,P|320:159|361:150,1,85,10|2,0:0|1:2,0:0:0:0:
296,49,22921,1,2,0:0:0:0:
480,144,23054,6,0,P|456:226|438:309,1,170,12|0,0:1|1:0,0:0:0:0:
310,256,23454,2,0,P|322:296|331:338,1,85,10|2,0:0|0:0,0:0:0:0:
223,367,23721,2,0,P|182:355|141:346,1,85,2|2,1:2|1:2,0:0:0:0:
9,269,23987,2,0,P|50:259|91:247,1,85,10|0,0:0|0:0,0:0:0:0:
187,127,24254,5,12,0:0:0:0:
187,127,24521,1,10,0:0:0:0:
280,173,24654,1,0,1:0:0:0:
375,131,24788,1,12,0:0:0:0:
468,177,24921,1,0,1:0:0:0:
468,177,25187,5,8,0:0:0:0:
373,219,25321,1,2,0:0:0:0:
280,173,25587,5,14,0:0:0:0:
185,215,25855,5,2,1:2:0:0:
375,131,26121,6,0,P|357:69|342:7,1,127.5,12|0,0:1|0:0,0:0:0:0:
286,85,26387,6,0,B|263:69|263:69|234:70,1,56.6666666666667,4|0,1:2|0:0,0:0:0:0:
160,22,26565,2,0,P|152:49|145:76,1,56.6666666666667,0|0,1:0|0:0,0:0:0:0:
71,125,26743,2,0,P|64:97|56:70,1,56.6666666666667,0|0,1:0|0:0,0:0:0:0:
150,164,26921,2,0,P|177:170|204:178,1,56.6666666666667,0|0,1:0|0:0,0:0:0:0:
76,213,27098,2,0,B|46:213|46:213|24:198,1,56.6666666666667,0|0,1:0|0:0,0:0:0:0:
155,252,27276,2,0,P|165:278|174:305,1,56.6666666666667,0|0,1:0|0:0,0:0:0:0:
33,328,27454,6,0,P|53:309|80:300,1,56.6666666666667,4|0,1:2|0:0,0:0:0:0:
134,370,27632,2,0,P|161:376|188:384,1,56.6666666666667,0|0,1:0|0:0,0:0:0:0:
248,277,27809,2,0,P|227:295|200:304,1,56.6666666666667,0|0,1:0|0:0,0:0:0:0:
311,358,27987,2,0,P|317:330|325:303,1,56.6666666666667,0|0,1:0|0:0,0:0:0:0:
312,218,28165,2,0,P|339:210|366:203,1,56.6666666666667,0|0,1:0|0:0,0:0:0:0:
279,139,28343,2,0,P|251:132|224:124,1,56.6666666666667,0|0,1:0|0:0,0:0:0:0:
395,65,28521,6,0,B|372:80|372:80|343:79,1,56.6666666666667,4|0,1:2|0:0,0:0:0:0:
428,144,28698,2,0,P|435:171|442:198,1,56.6666666666667,0|0,1:0|0:0,0:0:0:0:
512,253,28876,2,0,P|504:280|497:307,1,56.6666666666667,0|0,1:0|0:0,0:0:0:0:
452,383,29054,2,0,P|426:370|398:368,1,56.6666666666667,0|0,1:0|0:0,0:0:0:0:
311,358,29232,2,0,B|310:328|310:328|325:306,1,56.6666666666667,0|0,1:0|0:0,0:0:0:0:
312,218,29409,2,0,P|339:225|366:232,1,56.6666666666667,0|0,1:0|0:0,0:0:0:0:
199,304,29587,5,4,1:0:0:0:
469,109,30654,6,0,P|424:96|380:79,1,93.5000028533936,6|0,1:2|1:0,0:0:0:0:
217,43,30921,2,0,P|237:110|253:178,1,140.25000428009,8|0,0:0|0:0,0:0:0:0:
319,245,31187,2,0,P|331:199|345:155,1,93.5000028533936,2|0,1:2|1:0,0:0:0:0:
172,369,31454,2,0,P|103:366|57:316,1,140.25000428009,8|0,0:0|0:0,0:0:0:0:
141,284,31721,6,0,P|185:269|230:257,1,93.5000028533936,2|0,1:2|1:0,0:0:0:0:
433,191,31987,1,8,0:0:0:0:
433,191,32254,2,0,P|418:235|406:280,1,93.5000028533936,2|0,1:2|1:0,0:0:0:0:
253,178,32521,2,0,P|198:136|130:146,1,140.25000428009,10|0,0:0|0:0,0:0:0:0:
30,117,32787,6,0,P|121:100|209:68,2,187.000005706787,0|8|0,1:0|0:0|1:0,0:0:0:0:
253,178,33454,1,0,1:0:0:0:
311,5,33587,2,0,P|378:25|446:41,1,140.25000428009,10|0,0:0|0:0,0:0:0:0:
506,103,33854,6,0,P|460:115|416:130,1,93.5000028533936,2|0,1:2|1:0,0:0:0:0:
209,67,34121,1,8,0:0:0:0:
209,67,34387,2,0,P|254:79|298:94,1,93.5000028533936,2|0,1:2|1:0,0:0:0:0:
378,310,34654,2,0,P|358:243|342:175,1,140.25000428009,10|0,0:0|0:0,0:0:0:0:
416,130,34921,5,0,1:0:0:0:
295,359,35187,2,0,P|250:349|217:316,1,93.5000028533936,14|0,0:1|0:0,0:0:0:0:
147,370,35454,2,0,P|127:329|131:283,1,93.5000028533936,2|0,1:2|1:0,0:0:0:0:
45,264,35721,2,0,P|62:222|100:195,1,93.5000028533936,10|0,0:0|0:0,0:0:0:0:
298,94,35987,6,0,P|281:137|268:182,1,93.5000028533936,2|0,1:2|1:0,0:0:0:0:
455,3,36254,2,0,P|411:19|366:32,1,93.5000028533936,10|0,0:0|0:0,0:0:0:0:
179,152,36521,2,0,P|223:164|267:181,1,93.5000028533936,2|0,1:2|1:0,0:0:0:0:
477,143,36787,6,0,P|385:126|298:94,1,187.000005706787,14|0,0:1|1:0,0:0:0:0:
455,3,37187,1,0,1:0:0:0:
192,77,37321,2,0,P|224:164|241:256,1,187.000005706787,14|0,0:1|1:0,0:0:0:0:
373,163,37721,1,0,1:0:0:0:
273,340,37854,2,0,P|204:337|158:287,1,140.25000428009,10|0,0:0|0:0,0:0:0:0:
154,207,38121,5,2,1:2:0:0:
443,244,38387,1,10,0:0:0:0:
192,77,38654,1,2,1:2:0:0:
371,356,38921,1,10,0:0:0:0:
50,342,39187,6,0,P|64:298|76:253,1,93.5000028533936,6|0,1:2|0:0,0:0:0:0:
293,251,39454,2,0,P|224:267|157:287,1,140.25000428009,8|0,0:0|0:0,0:0:0:0:
154,207,39721,1,2,1:2:0:0:
279,338,39854,1,0,1:0:0:0:
154,207,39987,2,0,P|199:195|243:183,1,93.5000028533936,8|0,0:0|0:0,0:0:0:0:
434,89,40254,6,0,P|403:177|383:269,1,187.000005706787,2|8,1:2|0:0,0:0:0:0:
329,139,40654,1,0,1:0:0:0:
475,246,40787,2,0,P|485:200|500:156,1,93.5000028533936,2|0,1:2|1:0,0:0:0:0:
303,49,41054,2,0,P|318:93|328:138,1,93.5000028533936,10|0,0:0|0:0,0:0:0:0:
383,269,41321,5,0,1:0:0:0:
382,268,41587,2,0,P|290:285|203:318,1,187.000005706787,10|0,0:0|1:0,0:0:0:0:
362,372,41987,1,0,1:0:0:0:
224,207,42121,1,10,0:0:0:0:
224,207,42387,6,0,P|179:221|134:232,1,93.5000028533936,2|0,1:2|0:0,0:0:0:0:
16,336,42654,2,0,P|61:347|105:361,1,93.5000028533936,8|0,0:0|0:0,0:0:0:0:
203,318,42921,1,2,1:2:0:0:
26,229,43054,1,2,1:2:0:0:
134,232,43187,2,0,P|113:164|97:96,1,140.25000428009,10|0,0:0|0:0,0:0:0:0:
115,12,43454,5,4,1:0:0:0:
115,12,43721,2,0,P|159:26|204:37,1,93.5000028533936,8|0,0:0|0:0,0:0:0:0:
359,146,43987,2,0,P|304:104|236:114,1,140.25000428009,2|0,1:2|0:0,0:0:0:0:
159,142,44254,2,0,P|144:186|133:231,1,93.5000028533936,10|0,0:0|0:0,0:0:0:0:
274,358,44521,5,0,1:0:0:0:
274,358,44787,2,0,P|262:312|248:268,1,93.5000028533936,8|0,0:0|0:0,0:0:0:0:
408,89,45054,2,0,P|388:156|372:224,1,140.25000428009,2|0,1:2|0:0,0:0:0:0:
423,292,45321,2,0,P|467:277|512:266,1,93.5000028533936,10|0,0:0|0:0,0:0:0:0:
281,190,45587,5,0,1:0:0:0:
281,190,45854,2,0,P|235:178|191:163,1,93.5000028533936,8|0,0:0|0:0,0:0:0:0:
62,20,46121,2,0,P|116:61|183:52,1,140.25000428009,2|0,1:2|0:0,0:0:0:0:
276,89,46387,2,0,P|260:44|249:-1,1,93.5000028533936,10|0,0:0|0:0,0:0:0:0:
76,141,46654,6,0,P|91:185|102:230,1,93.5000028533936,4|8,1:0|0:0,0:0:0:0:
208,360,46921,1,0,1:0:0:0:
61,339,47054,2,0,P|83:332|106:326,2,46.7500014266968,8|8|10,0:0|0:0|1:2,0:0:0:0:
204,264,47321,1,8,1:2:0:0:
102,230,47454,1,10,1:2:0:0:
208,360,47587,1,8,1:2:0:0:
305,297,47721,6,0,P|351:299|391:322,1,93.5000028533936,4|0,1:2|1:0,0:0:0:0:
512,204,47987,2,0,P|465:206|425:229,1,93.5000028533936,10|0,0:1|0:0,0:0:0:0:
463,384,48254,2,0,P|475:339|492:296,2,93.5000028533936,2|0|10,0:1|1:0|0:1,0:0:0:0:
425,229,48654,1,0,1:2:0:0:
305,297,48787,6,0,P|293:252|277:209,1,93.5000028533936,2|0,0:1|1:0,0:0:0:0:
361,145,49054,2,0,P|373:99|389:55,1,93.5000028533936,10|2,0:1|0:0,0:0:0:0:
425,229,49321,1,2,0:1:0:0:
276,208,49454,1,0,1:0:0:0:
389,55,49587,2,0,P|322:75|254:91,1,140.25000428009,14|0,0:1|0:0,0:0:0:0:
206,156,49854,6,0,P|162:140|117:126,1,93.5000028533936,2|0,1:0|1:0,0:0:0:0:
224,2,50121,2,0,P|237:46|253:90,1,93.5000028533936,10|0,0:1|0:0,0:0:0:0:
52,64,50387,2,0,P|92:41|138:38,2,93.5000028533936,2|0|10,0:1|1:0|0:1,0:0:0:0:
206,156,50787,1,0,1:2:0:0:
84,210,50921,6,0,P|90:164|117:126,1,93.5000028533936,2|0,0:1|1:0,0:0:0:0:
103,298,51187,2,0,P|56:295|16:272,1,93.5000028533936,10|2,0:1|0:0,0:0:0:0:
206,156,51454,1,2,0:1:0:0:
84,210,51587,1,0,1:0:0:0:
225,244,51721,2,0,P|293:260|360:280,1,140.25000428009,14|0,0:1|0:0,0:0:0:0:
425,229,51987,6,0,P|438:273|449:319,1,93.5000028533936,4|0,1:2|1:0,0:0:0:0:
328,137,52254,2,0,P|317:182|303:227,1,93.5000028533936,10|0,0:1|0:0,0:0:0:0:
512,113,52521,2,0,P|467:126|421:137,2,93.5000028533936,2|0|10,0:1|1:0|0:1,0:0:0:0:
375,57,52921,1,0,1:0:0:0:
303,227,53054,6,0,P|258:213|212:202,1,93.5000028533936,2|0,0:1|1:0,0:0:0:0:
71,136,53321,2,0,P|117:125|162:113,1,93.5000028533936,10|2,0:1|0:0,0:0:0:0:
282,56,53587,1,2,0:1:0:0:
212,202,53721,1,0,1:0:0:0:
155,21,53854,2,0,P|86:19|36:66,1,140.25000428009,14|0,0:1|0:0,0:0:0:0:
71,136,54121,6,0,P|84:180|95:226,1,93.5000028533936,2|0,1:0|1:0,0:0:0:0:
90,356,54387,2,0,P|46:342|0:331,1,93.5000028533936,10|0,0:1|0:0,0:0:0:0:
187,288,54654,2,0,P|209:247|211:201,2,93.5000028533936,2|0|10,0:1|1:0|0:1,0:0:0:0:
95,226,55054,1,0,1:0:0:0:
184,380,55187,6,0,P|228:366|274:355,1,93.5000028533936,0|0,1:0|0:0,0:0:0:0:
300,320,55387,1,8,0:3:0:0:
300,320,55454,2,0,P|344:333|390:344,1,93.5000028533936,8|4,0:0|0:3,0:0:0:0:
366,213,55721,1,8,0:0:0:0:
187,288,55854,1,8,0:3:0:0:
300,320,55987,2,0,P|283:251|263:184,1,140.25000428009,4|0,0:3|0:0,0:0:0:0:
233,114,56254,5,4,1:2:0:0:
232,114,56521,2,0,P|270:105|306:93,1,76.4999976654053,8|0,0:0|1:0,0:0:0:0:
484,35,56787,2,0,P|411:47|354:0,1,152.999995330811,12|0,0:1|0:0,0:0:0:0:
473,144,57187,1,8,0:0:0:0:
366,213,57321,6,0,P|384:138|405:65,1,152.999995330811,2|8,0:0|0:0,0:0:0:0:
263,184,57721,2,0,P|189:205|115:222,1,152.999995330811,2|0,0:0|1:0,0:0:0:0:
261,290,58121,2,0,P|298:299|334:310,1,76.4999976654053,10|0,0:0|0:0,0:0:0:0:
454,362,58387,5,4,1:2:0:0:
454,362,58654,2,0,P|443:325|433:288,1,76.4999976654053,8|0,0:0|0:0,0:0:0:0:
315,236,58921,2,0,P|325:272|335:309,1,76.4999976654053,4|0,1:0|1:0,0:0:0:0:
418,176,59187,1,2,0:0:0:0:
257,102,59321,6,0,P|332:88|404:64,1,152.999995330811,8|0,0:0|1:0,0:0:0:0:
315,236,59721,2,0,P|257:188|184:200,1,152.999995330811,8|4,0:0|1:0,0:0:0:0:
86,257,60121,1,0,1:0:0:0:
125,102,60254,2,0,P|136:66|145:29,1,76.4999976654053,8|0,0:0|0:0,0:0:0:0:
184,199,60521,6,0,P|220:210|257:219,1,76.4999976654053,6|0,1:2|1:0,0:0:0:0:
86,257,60787,2,0,P|49:268|12:277,2,76.4999976654053,8|2|8,0:0|1:2|0:0,0:0:0:0:
145,354,61187,1,2,1:2:0:0:
145,354,61454,5,8,0:0:0:0:
323,301,61587,2,0,P|247:315|175:339,1,152.999995330811,2|8,0:0|0:0,0:0:0:0:
267,188,61987,2,0,P|304:196|340:208,1,76.4999976654053,2|0,0:0|1:0,0:0:0:0:
416,318,62254,1,2,1:2:0:0:
450,132,62387,2,0,P|412:123|376:111,1,76.4999976654053,8|0,0:0|0:0,0:0:0:0:
274,26,62654,5,4,1:2:0:0:
207,266,62921,1,10,0:0:0:0:
267,188,63187,1,2,1:2:0:0:
267,188,63321,1,0,1:0:0:0:
214,104,63454,2,0,P|177:114|140:123,1,76.4999976654053,2|8,0:0|0:0,0:0:0:0:
274,26,63721,6,0,P|347:14|404:62,1,152.999995330811,2|8,0:0|0:3,0:0:0:0:
448,170,64121,2,0,P|429:166|410:162,1,38.2499988327027,0|0,1:0|1:0,0:0:0:0:
311,176,64254,1,4,0:3:0:0:
300,179,64321,1,4,0:3:0:0:
289,182,64387,1,4,0:3:0:0:
278,185,64455,1,4,0:3:0:0:
267,188,64521,2,0,P|274:244|276:302,1,114.749996498108,8|0,0:0|0:0,0:0:0:0:
256,376,64787,5,4,1:2:0:0:
81,146,65054,5,8,0:0:0:0:
145,296,65187,1,0,1:0:0:0:
192,215,65321,2,0,P|115:219|39:228,1,152.999995330811,12|0,0:1|1:0,0:0:0:0:
180,101,65721,6,0,P|256:96|332:87,1,152.999995330811,12|0,0:0|1:0,0:0:0:0:
455,54,66121,2,0,P|451:92|448:130,1,76.4999976654053,8|0,0:0|1:0,0:0:0:0:
320,215,66387,2,0,P|396:219|472:228,1,152.999995330811,8|0,0:0|1:0,0:0:0:0:
332,342,66787,2,0,P|256:333|180:329,1,152.999995330811,8|0,0:0|1:0,0:0:0:0:
116,220,67187,5,12,0:0:0:0:
256,57,67454,5,8,0:0:0:0:
396,220,67721,5,12,0:0:0:0:
411,34,67987,6,0,P|402:109|397:186,1,152.999995330811,8|0,0:0|1:0,0:0:0:0:
269,248,68387,2,0,P|264:171|255:95,1,152.999995330811,8|0,0:0|1:0,0:0:0:0:
101,34,68787,2,0,P|103:52|104:72,3,38.2499988327027,8|8|4|4,0:0|0:3|0:3|0:3,0:0:0:0:
164,120,69054,2,0,P|161:138|160:158,3,38.2499988327027,4|4|4|4,0:3|0:3|0:3|0:3,0:0:0:0:
116,220,69321,5,12,0:0:0:0:
256,383,69587,5,12,0:0:0:0:
449,289,69854,6,0,P|410:286|372:282,1,76.4999976654053,0|8,1:0|0:3,0:0:0:0:
285,240,70121,2,0,P|246:242|208:246,1,76.4999976654053,4|0,0:3|1:0,0:0:0:0:
116,220,70387,5,12,0:1:0:0:
372,282,70654,2,0,P|369:243|365:205,1,76.4999976654053,0|8,1:0|0:3,0:0:0:0:
407,117,70921,6,0,P|368:121|323:124,1,85,4|0,0:3|1:0,0:0:0:0:
256,57,71187,1,12,0:1:0:0:
108,135,71454,6,0,P|112:177|115:219,1,85,12|0,0:0|1:0,0:0:0:0:
208,246,71721,2,0,P|203:203|200:161,1,85,12|0,0:0|1:0,0:0:0:0:
15,108,71987,6,0,P|19:150|22:192,1,85,0|8,1:0|0:0,0:0:0:0:
135,42,72254,1,0,1:0:0:0:
200,161,72387,1,8,0:0:0:0:
200,161,72454,1,8,0:0:0:0:
200,161,72521,2,0,P|242:156|284:153,1,85,12|8,1:2|0:0,0:0:0:0:
113,241,72787,2,0,P|71:236|29:233,1,85,8|8,1:2|1:2,0:0:0:0:
200,321,73054,2,0,P|242:316|284:313,1,85,8|8,1:2|1:2,0:0:0:0:
477,251,73321,6,0,P|409:260|355:218,1,140.25000428009,6|0,1:2|0:0,0:0:0:0:
433,173,73587,2,0,P|442:105|400:51,1,140.25000428009,8|0,0:0|0:0,0:0:0:0:
310,66,73854,2,0,P|241:49|174:29,1,140.25000428009,2|0,1:2|0:0,0:0:0:0:
148,115,74121,2,0,P|216:131|284:152,1,140.25000428009,8|0,0:0|0:0,0:0:0:0:
355,218,74387,6,0,P|334:285|318:353,1,140.25000428009,2|0,1:2|0:0,0:0:0:0:
228,384,74654,1,8,0:0:0:0:
193,176,74921,2,0,P|238:164|283:151,1,93.5000028533936,2|0,1:2|0:0,0:0:0:0:
90,295,75187,2,0,P|73:226|53:159,1,140.25000428009,10|0,0:0|0:0,0:0:0:0:
9,83,75454,6,0,P|76:73|130:115,1,140.25000428009,4|0,1:0|0:0,0:0:0:0:
193,176,75721,1,8,0:0:0:0:
356,53,75987,2,0,P|288:73|220:89,1,140.25000428009,0|0,1:0|0:0,0:0:0:0:
158,29,76254,1,10,0:0:0:0:
255,236,76521,6,0,P|322:215|390:199,1,140.25000428009,2|0,1:2|0:0,0:0:0:0:
463,245,76787,2,0,P|472:177|430:123,1,140.25000428009,10|0,0:0|0:0,0:0:0:0:
376,67,77054,2,0,B|340:69|315:100|312:140|312:140|324:125|339:121,1,140.25000428009,2|0,1:2|0:0,0:0:0:0:
364,221,77321,2,0,B|373:207|389:199|389:199|389:239|367:272|332:278,1,140.25000428009,10|0,0:0|0:0,0:0:0:0:
255,236,77587,5,0,1:0:0:0:
188,60,77854,2,0,P|226:35|272:36,1,93.5000028533936,10|0,0:0|0:0,0:0:0:0:
103,85,78121,2,0,P|100:38|124:0,1,93.5000028533936,2|0,1:2|0:0,0:0:0:0:
82,171,78387,2,0,P|41:149|18:109,1,93.5000028533936,10|0,0:0|0:0,0:0:0:0:
280,145,78654,6,0,P|267:189|254:235,1,93.5000028533936,2|0,1:2|0:0,0:0:0:0:
70,263,78921,2,0,P|115:250|160:237,1,93.5000028533936,10|0,0:0|0:0,0:0:0:0:
299,343,79187,2,0,P|254:330|208:317,1,93.5000028533936,2|0,1:2|0:0,0:0:0:0:
186,108,79454,6,0,P|252:47|341:65,1,187.000005706787,10|0,0:0|1:0,0:0:0:0:
502,174,79854,1,0,1:0:0:0:
451,0,79987,2,0,P|423:89|402:180,1,187.000005706787,10|0,0:0|1:0,0:0:0:0:
447,278,80387,1,0,1:0:0:0:
295,200,80521,2,0,P|227:220|159:236,1,140.25000428009,10|0,0:0|0:0,0:0:0:0:
70,263,80787,5,2,1:2:0:0:
110,158,80921,1,0,1:0:0:0:
141,351,81054,1,10,0:0:0:0:
401,180,81321,5,2,1:2:0:0:
361,285,81454,1,0,1:0:0:0:
331,93,81587,2,0,P|328:73|327:54,1,38.2499988327027,10|0,0:0|0:0,0:0:0:0:
390,13,81854,6,0,P|322:33|254:48,1,140.25000428009,6|0,1:2|0:0,0:0:0:0:
187,113,82121,2,0,P|132:71|65:80,1,140.25000428009,8|0,0:0|0:0,0:0:0:0:
0,139,82387,2,0,P|20:71|35:3,1,140.25000428009,2|0,1:2|0:0,0:0:0:0:
65,80,82654,2,0,P|80:148|100:215,1,140.25000428009,8|0,0:0|0:0,0:0:0:0:
162,282,82921,6,0,B|178:278|195:284|195:284|166:312|128:320|99:299,1,140.25000428009,6|0,1:0|0:0,0:0:0:0:
27,256,83187,1,8,0:0:0:0:
256,360,83454,2,0,P|301:347|347:334,1,93.5000028533936,2|0,1:2|0:0,0:0:0:0:
480,240,83721,2,0,P|466:284|454:329,1,93.5000028533936,10|0,0:0|0:0,0:0:0:0:
332,171,83987,5,4,1:0:0:0:
332,171,84254,2,0,P|393:104|375:16,1,187.000005706787,10|0,0:0|1:0,0:0:0:0:
476,143,84654,1,0,1:0:0:0:
296,77,84787,2,0,P|250:88|206:102,1,93.5000028533936,10|0,0:0|0:0,0:0:0:0:
60,62,85054,6,0,P|101:116|93:183,1,140.25000428009,0|0,1:0|0:0,0:0:0:0:
14,228,85321,2,0,P|82:220|136:262,1,140.25000428009,10|0,0:0|0:0,0:0:0:0:
122,351,85587,1,2,1:2:0:0:
235,200,85721,1,2,0:0:0:0:
221,307,85854,2,0,P|289:322|356:343,1,140.25000428009,10|0,0:0|0:0,0:0:0:0:
438,370,86121,5,0,1:0:0:0:
438,370,86387,2,0,P|424:326|412:281,1,93.5000028533936,8|0,0:0|0:0,0:0:0:0:
512,144,86654,2,0,P|444:152|389:111,1,140.25000428009,2|0,1:2|0:0,0:0:0:0:
361,33,86921,2,0,P|316:47|271:59,1,93.5000028533936,10|0,0:0|0:0,0:0:0:0:
86,82,87187,5,0,1:0:0:0:
86,82,87454,2,0,P|131:94|175:108,1,93.5000028533936,8|0,0:0|0:0,0:0:0:0:
14,228,87721,2,0,P|80:206|149:191,1,140.25000428009,2|0,1:2|0:0,0:0:0:0:
235,200,87987,2,0,P|289:240|357:232,1,140.25000428009,10|0,0:0|0:0,0:0:0:0:
403,129,88254,6,0,P|358:141|312:154,2,93.5000028533936,12|0|0,0:1|1:0|1:0,0:0:0:0:
384,321,88654,2,0,P|371:275|358:231,1,93.5000028533936,8|0,0:0|1:0,0:0:0:0:
512,152,88921,1,8,0:0:0:0:
512,152,88987,1,8,0:0:0:0:
512,152,89054,2,0,P|499:196|486:242,1,93.5000028533936,8|8,0:0|0:0,0:0:0:0:
379,38,89321,6,0,P|423:51|469:63,2,93.5000028533936,8|8|8,1:2|1:2|0:3,0:0:0:0:
312,153,89721,1,4,0:3:0:0:
182,23,89854,2,0,P|196:67|208:112,1,93.5000028533936,8|8,0:0|0:3,0:0:0:0:
166,290,90121,2,0,P|153:244|139:200,1,93.5000028533936,4|0,0:3|1:0,0:0:0:0:
19,117,90387,5,4,1:2:0:0:
