osu file format v14

[General]
AudioFilename: audio.mp3
AudioLeadIn: 0
PreviewTime: 69873
Countdown: 2
SampleSet: Soft
StackLeniency: 0.7
Mode: 0
LetterboxInBreaks: 0
WidescreenStoryboard: 0

[Editor]
Bookmarks: 13913,32176,50453,89312,112138
DistanceSpacing: 1.5
BeatDivisor: 4
GridSize: 8
TimelineZoom: 1

[Metadata]
Title:Sign
TitleUnicode:Sign
Artist:Mr.Children
ArtistUnicode:Mr.Children
Creator:S h i o n
Version:Insane
Source:
Tags:
BeatmapID:1972634
BeatmapSetID:944564

[Difficulty]
HPDrainRate:5
CircleSize:4
OverallDifficulty:6
ApproachRate:7
SliderMultiplier:1.3
SliderTickRate:2

[Events]
//Background and Video events
0,0,"Sign.jpg",0,0
//Break Periods
//Storyboard Layer 0 (Background)
//Storyboard Layer 1 (Fail)
//Storyboard Layer 2 (Pass)
//Storyboard Layer 3 (Foreground)
//Storyboard Sound Samples

[TimingPoints]
212,571.156592099,4,2,1,45,1,0
32196,-100,4,2,1,25,0,0
32339,-100,4,2,1,45,0,0
50473,-100,4,2,1,25,0,0
50616,-100,4,2,1,45,0,0
51187,-133.333333333333,4,2,1,35,0,0
59612,-100,4,2,1,50,0,0
69893,-66.6666666666667,4,2,1,45,0,0
70273,-100,4,2,1,45,0,0
71035,571.156592099,4,2,1,60,1,1
77508,-100,4,2,1,30,0,1
77746,-100,4,2,1,60,0,1
78031,-100,4,2,1,40,0,1
78317,-100,4,2,1,60,0,1
78888,-100,4,2,1,40,0,1
79173,-100,4,2,1,50,0,1
80078,-100,4,2,1,50,0,1
80268,-100,4,2,1,60,0,1
89312,571.156592099,4,2,1,60,1,1
92024,-100,4,2,2,60,0,1
92310,-100,4,2,1,60,0,1
95451,-100,4,2,1,50,0,1
95737,-100,4,2,1,60,0,1
100021,-100,4,2,2,60,0,1
100306,-100,4,2,1,60,0,1
102924,-100,4,2,1,25,0,1
103162,-100,4,2,1,45,0,1
105209,-100,4,2,1,35,0,1
105399,-100,4,2,1,40,0,1
107589,571.156592099,4,2,1,50,1,0

[Colours]
Combo1 : 122,122,122
Combo2 : 255,130,130
Combo3 : 192,192,192
Combo4 : 253,82,0

[HitObjects]
279,245,13919,6,0,P|289:317|343:341,1,130
510,231,14776,2,0,P|445:207|390:233,1,130
344,145,15633,1,8,0:0:0:0:
352,155,16204,2,0,P|392:127|395:35,1,130
271,72,17061,2,0,P|212:80|168:15,1,130
237,142,17917,1,8,0:0:0:0:
324,184,18203,1,0,0:0:0:0:
220,267,18489,6,0,P|178:293|177:368,1,130
420,317,19345,2,0,P|378:333|308:273,1,130
359,204,20202,2,0,L|365:135,1,65,8|0,0:0|0:0,0:0:0:0:
235,48,20773,2,0,P|233:74|263:115,1,65
348,27,21344,2,0,P|376:63|422:58,1,97.5
456,94,21915,5,0,0:0:0:0:
249,315,22487,1,8,0:0:0:0:
249,315,23058,2,0,P|279:304|299:280,1,65
174,217,23629,2,0,P|131:233|90:320,1,130
90,302,24771,5,0,0:0:0:0:
151,148,25057,1,2,0:0:0:0:
151,148,25628,1,2,0:0:0:0:
214,74,25914,2,0,B|256:83|311:47|311:47|342:63,2,130
90,112,27341,5,0,0:0:0:0:
85,116,27627,2,0,P|74:144|70:188,1,65,0|2,0:0|0:0,0:0:0:0:
221,338,28198,2,0,P|208:282|174:204,1,130,2|0,0:0|0:0,0:0:0:0:
180,215,29340,1,0,0:0:0:0:
310,321,29626,2,0,P|375:325|447:321,1,130,2|2,0:0|0:0,0:0:0:0:
380,223,30483,2,0,P|372:191|355:164,1,65,0|2,0:0|0:0,0:0:0:0:
234,269,31054,2,0,P|225:297|227:346,2,65,0|2|2,0:0|0:0|0:0,0:0:0:0:
318,135,31911,1,0,0:0:0:0:
318,135,32053,1,0,0:0:0:0:
318,135,32196,6,0,P|260:100|277:34,1,130,4|0,0:0|0:0,0:0:0:0:
475,83,33053,2,0,P|423:50|357:63,1,130
400,150,33910,1,8,0:0:0:0:
333,221,34195,1,0,0:0:0:0:
350,316,34481,2,0,B|367:330|385:336|418:330,2,65
262,203,35338,2,0,P|195:196|115:207,1,130
124,365,36194,2,0,P|180:343|183:270,1,130,8|0,0:0|0:0,0:0:0:0:
258,210,37051,5,0,0:0:0:0:
242,113,37337,1,0,0:0:0:0:
372,25,37622,2,0,P|343:64|328:110,1,97.5
371,133,38193,2,0,P|339:153|294:138,1,65,0|8,0:0|0:0,0:0:0:0:
271,242,38765,1,0,0:0:0:0:
271,242,39050,2,0,P|245:266|231:307,1,65
402,338,39621,2,0,P|395:304|373:279,1,65
446,253,40050,1,0,0:0:0:0:
438,225,40192,6,0,P|429:157|483:120,1,130,0|8,0:0|0:0,0:0:0:0:
474,47,41049,1,0,0:0:0:0:
474,47,41192,1,0,0:0:0:0:
474,47,41335,2,0,P|430:82|360:59,1,130
474,47,42477,1,0,0:0:0:0:
271,156,43048,5,2,0:0:0:0:
358,57,43334,2,0,P|291:34|237:67,1,130,2|0,0:0|0:0,0:0:0:0:
344,269,44191,1,0,0:0:0:0:
344,269,44476,2,0,P|292:212|310:159,1,130
389,120,45333,2,0,L|467:91,1,65
484,259,45904,6,0,P|440:235|387:253,1,97.5
359,277,46475,2,0,P|330:283|292:273,1,65
296,275,46904,1,0,0:0:0:0:
296,275,47046,1,0,0:0:0:0:
301,281,47617,1,0,0:0:0:0:
188,121,47903,1,0,0:0:0:0:
188,121,48474,6,0,P|221:139|259:137,1,65,2|0,0:0|0:0,0:0:0:0:
361,225,49045,2,0,P|368:250|359:289,1,65,2|0,0:0|0:0,0:0:0:0:
203,334,49617,2,0,P|194:302|201:271,1,65,2|0,0:0|0:0,0:0:0:0:
335,147,50188,1,2,0:0:0:0:
335,147,50473,2,0,P|282:172|213:131,1,130,4|0,0:0|0:0,0:0:0:0:
209,255,51330,5,0,0:0:0:0:
191,315,51616,2,0,P|156:325|125:319,1,48.750001859665
105,274,52187,2,0,P|71:266|43:270,1,48.750001859665,8|0,0:0|0:0,0:0:0:0:
4,245,52758,2,0,B|-20:205|-20:205|5:160,1,97.50000371933
17,72,53615,5,0,0:0:0:0:
22,75,53900,2,0,P|52:79|79:96,1,48.750001859665
126,85,54471,1,8,0:0:0:0:
177,56,54757,2,0,P|229:61|275:24,1,97.50000371933
286,156,55614,2,0,P|238:149|197:174,1,97.50000371933
208,231,56470,1,0,0:0:0:0:
265,239,56756,2,0,P|292:251|336:232,1,73.1250027894975,8|0,0:0|0:0,0:0:0:0:
373,212,57327,2,0,B|400:171|400:171|462:151,2,97.50000371933
308,284,58755,5,0,0:0:0:0:
308,284,59041,2,0,P|277:298|256:272,1,73.1250027894975,8|0,0:0|0:0,0:0:0:0:
358,327,59612,6,0,L|394:242,1,65
220,243,60183,2,0,L|196:162,1,65
20,209,60754,2,8,P|98:212|123:181,1,97.5,0|0,0:0|0:0,0:0:0:0:
144,163,61325,2,0,P|177:163|210:194,1,65,8|0,0:0|0:0,0:0:0:0:
317,302,61896,5,0,0:0:0:0:
278,212,62182,1,0,0:0:0:0:
352,132,62468,1,0,0:0:0:0:
238,33,62753,1,0,0:0:0:0:
137,100,63039,2,0,P|108:100|65:79,1,65
0,227,63610,2,0,P|33:222|65:191,1,65,8|0,0:0|0:0,0:0:0:0:
249,287,64181,6,0,B|186:276|106:274,1,130
343,229,65038,1,0,0:0:0:0:
343,229,65323,2,0,P|411:234|474:243,1,130,0|8,0:0|0:0,0:0:0:0:
278,348,66180,1,0,0:0:0:0:
234,279,66466,6,0,P|204:279|144:286,1,65
335,206,67037,2,0,P|367:203|399:203,1,65
136,161,67608,2,0,P|103:161|71:163,1,65
303,81,68179,2,0,P|335:78|359:78,1,32.5,8|0,0:0|0:0,0:0:0:0:
386,74,68465,2,0,L|440:70,2,32.5
143,66,69179,1,0,0:0:0:0:
143,66,69321,2,0,L|112:60,2,32.5,8|0|0,0:0|0:0|0:0,0:0:0:0:
254,226,69893,6,0,P|310:211|308:173,1,97.50000371933,8|0,0:0|0:0,0:0:0:0:
273,135,70321,1,0,0:0:0:0:
243,163,70464,1,0,0:0:0:0:
230,235,70607,1,0,0:0:0:0:
278,329,70749,1,8,0:0:0:0:
462,311,71035,6,0,P|431:341|368:325,1,97.5,4|0,0:0|0:0,0:0:0:0:
334,322,71606,2,8,P|309:297|269:287,1,65,8|0,0:0|0:0,0:0:0:0:
430,248,72177,2,8,P|461:184|420:136,1,130,0|8,0:0|0:0,0:0:0:0:
350,197,73034,1,0,0:0:0:0:
256,27,73319,2,0,P|225:80|257:134,1,130,0|8,0:0|0:0,0:0:0:0:
254,275,74176,1,0,0:0:0:0:
254,275,74461,6,0,P|218:305|174:356,1,97.5
137,326,75033,2,0,P|94:331|22:346,1,97.5,8|0,0:0|0:0,0:0:0:0:
0,206,75604,2,0,P|47:196|80:193,1,65
126,268,76175,1,8,0:0:0:0:
155,93,76460,1,0,0:0:0:0:
68,54,76746,2,0,P|37:60|11:42,1,65
155,93,77317,1,8,0:0:0:0:
254,249,77603,6,0,B|258:311|253:382,1,130,4|2,0:0|0:0,0:0:0:0:
176,271,78460,1,0,0:0:0:0:
205,49,78745,1,2,0:0:0:0:
406,77,79031,2,0,P|437:113|434:163,1,97.5,4|0,0:0|0:0,0:0:0:0:
264,65,79602,2,0,P|306:42|365:60,1,97.5,8|0,0:0|0:0,0:0:0:0:
504,218,80173,6,0,P|449:250|387:237,1,130,4|8,0:0|0:0,0:0:0:0:
307,347,81030,1,0,0:0:0:0:
301,345,81315,2,0,B|238:342|238:342|292:292,1,130,0|8,0:0|0:0,0:0:0:0:
360,202,82172,1,0,0:0:0:0:
360,202,82315,1,0,0:0:0:0:
360,202,82458,2,0,L|365:127,1,65
174,39,83029,2,0,L|180:115,1,65,8|0,0:0|0:0,0:0:0:0:
270,241,83600,6,0,P|320:243|362:197,1,97.5
389,122,84171,2,0,P|453:109|462:98,1,65,8|0,0:0|0:0,0:0:0:0:
312,22,84742,2,0,P|272:41|230:77,1,97.5
217,122,85313,1,8,0:0:0:0:
333,153,85599,1,0,0:0:0:0:
280,310,85885,1,0,0:0:0:0:
280,310,86170,2,0,L|206:320,1,65,0|8,0:0|0:0,0:0:0:0:
445,348,86741,1,0,0:0:0:0:
445,348,86884,1,0,0:0:0:0:
445,348,87027,6,0,L|537:333,1,65,4|0,0:0|0:0,0:0:0:0:
360,197,87598,1,8,0:0:0:0:
366,99,87884,1,4,0:0:0:0:
136,315,88169,2,0,P|165:332|200:325,1,65
229,318,88598,1,0,0:0:0:0:
278,284,88740,1,0,0:0:0:0:
326,216,88883,1,0,0:0:0:0:
327,124,89026,1,0,0:0:0:0:
162,183,89312,6,0,P|124:223|146:306,1,130,4|8,0:0|0:0,0:0:0:0:
46,249,90168,1,0,0:0:0:0:
40,130,90454,2,0,P|58:77|31:50,1,97.5
96,40,91025,2,0,L|164:32,1,65,8|0,0:0|0:0,0:0:0:0:
259,171,91596,1,0,0:0:0:0:
259,171,91882,2,0,L|118:161,1,130
213,260,92738,6,0,P|233:302|211:343,1,97.5
301,282,93310,2,0,P|350:290|385:247,1,97.5,8|0,0:0|0:0,0:0:0:0:
468,116,93881,2,0,P|435:120|412:143,1,65
492,240,94452,1,8,0:0:0:0:
431,316,94737,1,0,0:0:0:0:
263,101,95023,2,0,L|327:95,1,65
398,28,95594,1,12,0:0:0:0:
433,281,95880,6,0,P|368:287|303:290,1,130
90,294,96737,1,8,0:0:0:0:
90,294,97022,2,0,P|172:308|214:262,1,130,4|0,0:0|0:0,0:0:0:0:
344,255,97879,1,8,0:0:0:0:
428,328,98164,1,0,0:0:0:0:
428,328,98307,1,0,0:0:0:0:
428,328,98450,2,0,L|492:326,1,65,4|0,0:0|0:0,0:0:0:0:
256,234,99021,5,8,0:0:0:0:
192,159,99307,1,0,0:0:0:0:
331,36,99592,1,0,0:0:0:0:
421,73,99878,2,0,P|458:82|490:1,1,130
266,174,100735,2,0,P|238:169|194:173,1,65
128,41,101306,1,8,0:0:0:0:
128,41,101591,2,0,P|103:104|98:181,1,130
179,358,102448,5,8,0:0:0:0:
179,358,102876,1,0,0:0:0:0:
179,358,103019,2,0,P|248:347|305:321,2,130,4|8|0,0:0|0:0|0:0,0:0:0:0:
344,152,104733,1,8,0:0:0:0:
344,152,105161,1,0,0:0:0:0:
344,152,105304,2,0,P|276:134|221:80,2,130,4|8|0,0:0|0:0|0:0,0:0:0:0:
344,152,107589,1,4,0:0:0:0:
