osu file format v14

[General]
AudioFilename: audio.mp3
AudioLeadIn: 0
PreviewTime: 98856
Countdown: 0
SampleSet: None
StackLeniency: 0.2
Mode: 0
LetterboxInBreaks: 0
WidescreenStoryboard: 0

[Editor]
Bookmarks: 30638,71489,91914,132765,153191
DistanceSpacing: 0.3
BeatDivisor: 8
GridSize: 4
TimelineZoom: 1

[Metadata]
Title:Metrosexual
TitleUnicode:Metrosexual
Artist:Mr.Bill
ArtistUnicode:Mr.Bill
Creator:Yoges
Version:Insane
Source:
Tags:css corrective scene surgery
BeatmapID:1563249
BeatmapSetID:741051

[Difficulty]
HPDrainRate:5
CircleSize:3.8
OverallDifficulty:7
ApproachRate:9
SliderMultiplier:3.09999990463257
SliderTickRate:1

[Events]
//Background and Video events
0,0,"202940.jpg",0,0
//Break Periods
//Storyboard Layer 0 (Background)
//Storyboard Layer 1 (Fail)
//Storyboard Layer 2 (Pass)
//Storyboard Layer 3 (Foreground)
//Storyboard Sound Samples

[TimingPoints]
0,638.297872340426,4,1,0,45,1,0
91914,-83.3333333333333,4,1,0,45,0,1
92234,-40,4,1,0,45,0,1
92553,-83.3333333333333,4,1,0,45,0,1
93031,-66.6666666666667,4,1,0,45,0,1
93829,-83.3333333333333,4,1,0,45,0,1
94468,-50,4,1,0,45,0,1
95106,-66.6666666666667,4,1,0,45,0,1
96063,-133.333333333333,4,1,0,45,0,1
97021,-133.333333333333,4,1,0,45,0,1
97340,-200,4,1,0,45,0,1
97819,-66.6666666666667,4,1,0,45,0,1
98138,-100,4,1,0,45,0,1
98617,-133.333333333333,4,1,0,45,0,1
98936,-200,4,1,0,45,0,1
99574,-133.333333333333,4,1,0,45,0,1
99893,-200,4,1,0,45,0,1
100372,-66.6666666666667,4,1,0,45,0,1
100691,-100,4,1,0,45,0,1
101170,-133.333333333333,4,1,0,45,0,1
101489,-100,4,1,0,45,0,0
102127,-50,4,1,0,45,0,1
102765,-200,4,1,0,45,0,1
103244,-66.6666666666667,4,1,0,45,0,1
104202,-133.333333333333,4,1,0,45,0,1
104680,-50,4,1,0,45,0,1
105319,-66.6666666666667,4,1,0,45,0,1
106276,-133.333333333333,4,1,0,45,0,1

[Colours]
Combo1 : 209,213,206
Combo2 : 58,143,133
Combo3 : 201,175,71
Combo4 : 122,19,16

[HitObjects]
236,80,91914,6,0,L|332:88,1,92.9999943008425
384,17,92234,6,0,P|292:7|236:80,1,193.749994039536
372,193,92553,6,0,L|186:180,1,185.999988601685
55,288,93031,2,0,L|46:172,1,116.250000858307
35,65,93351,1,0,0:0:0:0:
138,345,93510,5,0,0:0:0:0:
121,131,93670,1,0,0:0:0:0:
38,319,93829,5,0,0:0:0:0:
76,254,93989,2,0,L|195:247,1,92.9999943008425
276,379,94308,1,0,0:0:0:0:
488,102,94468,6,0,P|350:151|332:297,1,309.999990463257
456,239,94946,1,0,0:0:0:0:
291,252,95106,6,0,P|294:194|320:143,1,116.250000858307
456,239,95425,1,0,0:0:0:0:
455,115,95585,6,0,P|397:126|355:165,1,116.250000858307
456,239,95904,1,0,0:0:0:0:
241,97,96063,6,0,L|182:93,1,58.1250004291535
77,86,96382,5,0,0:0:0:0:
75,117,96542,1,0,0:0:0:0:
32,40,96702,5,0,0:0:0:0:
24,156,96861,1,0,0:0:0:0:
241,97,97021,6,0,L|300:93,1,58.1250004291535
326,112,97340,6,0,L|364:109,1,38.7499988079071
438,79,97659,1,0,0:0:0:0:
210,121,97819,6,0,L|325:112,1,116.250000858307
363,223,98138,6,0,L|285:216,1,77.4999976158143
411,327,98457,1,0,0:0:0:0:
261,340,98617,6,0,L|320:336,1,58.1250004291535
438,79,98936,6,0,L|433:131,1,38.7499988079071
285,216,99255,5,0,0:0:0:0:
489,199,99414,1,0,0:0:0:0:
179,95,99574,6,0,L|183:154,1,58.1250004291535
164,180,99893,6,0,L|167:218,1,38.7499988079071
155,64,100212,1,0,0:0:0:0:
192,268,100372,6,0,L|183:153,1,116.250000858307
252,21,100691,6,0,L|258:98,1,77.4999976158143
81,241,101010,1,0,0:0:0:0:
66,40,101170,6,0,L|70:97,1,58.1250004291535
0,188,101489,6,0,B|59:183|59:183|99:196|99:196|152:191,1,154.999995231629
152,174,101968,1,0,0:0:0:0:
354,360,102127,6,0,P|453:192|259:174,1,464.999985694885
351,245,102765,6,0,L|311:248,1,38.7499988079071
411,314,103085,1,0,0:0:0:0:
475,126,103244,6,0,L|466:241,1,116.250000858307
429,54,103563,1,0,0:0:0:0:
293,210,103723,2,0,L|177:218,1,116.250000858307
111,165,104042,5,0,0:0:0:0:
60,283,104202,2,0,L|56:226,1,58.1250004291535
125,339,104521,1,0,0:0:0:0:
221,136,104680,6,0,P|296:105|376:273,1,309.999990463257
378,269,105159,1,0,0:0:0:0:
270,90,105319,6,0,P|216:114|180:169,1,116.250000858307
182,159,105638,1,0,0:0:0:0:
375,153,105797,2,0,P|331:116|274:111,1,116.250000858307
274,111,106117,1,0,0:0:0:0:
278,348,106276,6,0,L|358:342,1,58.1250004291535
472,290,106595,5,0,0:0:0:0:
476,333,106755,1,0,0:0:0:0:
246,330,106914,5,0,0:0:0:0:
363,321,107074,1,0,0:0:0:0:
