osu file format v14

[General]
AudioFilename: audio.mp3
AudioLeadIn: 0
PreviewTime: 47255
Countdown: 0
SampleSet: None
StackLeniency: 0.3
Mode: 0
LetterboxInBreaks: 0
WidescreenStoryboard: 0

[Editor]
Bookmarks: 380,15380,26630,37880,52880,64130,77255,92255,111005
DistanceSpacing: 0.4
BeatDivisor: 16
GridSize: 4
TimelineZoom: 7.099997

[Metadata]
Title:Walls Remix
TitleUnicode:Walls Remix
Artist:Mr. Weq
ArtistUnicode:Mr. Weq
Creator:Aikyuu-Chan
Version:Es Krim Yang Kita Suka
Source:Walls Indo Ice Cream
Tags:dnb tech remix
BeatmapID:2021765
BeatmapSetID:965856

[Difficulty]
HPDrainRate:0
CircleSize:2.5
OverallDifficulty:9.9
ApproachRate:9.9
SliderMultiplier:2
SliderTickRate:1

[Events]
//Background and Video events
0,0,"walls logo.png",0,0
//Break Periods
//Storyboard Layer 0 (Background)
//Storyboard Layer 1 (Fail)
//Storyboard Layer 2 (Pass)
//Storyboard Layer 3 (Foreground)
//Storyboard Sound Samples

[TimingPoints]
380,468.75,4,2,1,100,1,0
380,-100,4,2,1,100,0,0
15380,-100,4,2,1,100,0,0
26630,-100,4,2,1,100,0,0
37880,-100,4,2,1,100,0,0
52880,-100,4,2,1,100,0,1
63661,-1000,4,2,1,100,0,0
64130,-100,4,2,1,100,0,1
77255,-33.3333333333333,4,2,1,100,0,0
84989,-25,4,2,1,100,0,0
85223,-33.3333333333333,4,2,1,100,0,0
85458,-25,4,2,1,100,0,0
85692,-33.3333333333333,4,2,1,100,0,0
86630,-25,4,2,1,100,0,0
87098,-33.3333333333333,4,2,1,100,0,0
92255,-28.5714285714286,4,2,1,100,0,0
107255,-1000,4,2,1,100,0,0
111005,-100,4,2,1,100,0,0

[HitObjects]
46,80,380,6,0,P|140:56|259:84,1,200
293,158,1083,5,0,0:0:0:0:
361,85,1317,1,0,0:0:0:0:
438,148,1551,1,0,0:0:0:0:
386,234,1786,1,0,0:0:0:0:
320,309,2020,1,0,0:0:0:0:
189,225,2255,5,0,0:0:0:0:
100,179,2489,1,0,0:0:0:0:
26,246,2723,1,0,0:0:0:0:
69,336,2958,1,0,0:0:0:0:
297,344,3192,6,0,P|291:289|300:239,1,100
417,150,3661,1,0,0:0:0:0:
417,150,3895,2,0,P|369:159|315:140,1,100
181,52,4364,6,0,P|229:39|283:58,2,100
106,116,5067,5,0,0:0:0:0:
60,205,5301,1,0,0:0:0:0:
120,284,5536,1,0,0:0:0:0:
198,222,5770,1,0,0:0:0:0:
276,284,6005,5,0,0:0:0:0:
196,344,6239,1,0,0:0:0:0:
133,265,6473,1,0,0:0:0:0:
208,198,6708,1,0,0:0:0:0:
436,344,6942,6,0,P|444:290|436:239,1,100
317,355,7411,2,0,P|269:363|218:354,2,100
350,52,8114,1,0,0:0:0:0:
317,355,8348,1,0,0:0:0:0:
350,52,8583,1,0,0:0:0:0:
76,40,8817,6,0,P|68:94|76:145,1,100
195,29,9286,2,0,P|243:21|294:30,2,100
162,332,9989,1,0,0:0:0:0:
195,29,10223,1,0,0:0:0:0:
162,332,10458,1,0,0:0:0:0:
195,29,10692,1,0,0:0:0:0:
418,229,10926,6,0,P|426:180|419:131,2,100
216,254,11630,5,0,0:0:0:0:
193,152,11864,1,0,0:0:0:0:
295,129,12098,1,0,0:0:0:0:
318,231,12333,1,0,0:0:0:0:
366,176,12567,5,0,0:0:0:0:
240,81,12801,1,0,0:0:0:0:
145,207,13036,1,0,0:0:0:0:
271,302,13270,1,0,0:0:0:0:
90,42,13505,5,0,0:0:0:0:
405,26,13739,1,0,0:0:0:0:
421,341,13973,1,0,0:0:0:0:
106,357,14208,1,0,0:0:0:0:
218,190,14442,5,0,0:0:0:0:
254,229,14677,1,0,0:0:0:0:
293,193,14911,1,0,0:0:0:0:
257,154,15145,1,0,0:0:0:0:
335,133,15380,6,0,P|385:137|448:125,1,100
256,60,15848,2,0,P|206:52|157:59,1,100
446,182,16317,1,0,0:0:0:0:
270,325,16551,1,0,0:0:0:0:
292,54,16786,1,0,0:0:0:0:
481,260,17020,1,0,0:0:0:0:
193,354,17255,6,0,P|191:305|195:245,1,100
319,30,17723,2,0,P|321:79|317:139,1,100
446,287,18192,1,0,0:0:0:0:
73,180,18426,1,0,0:0:0:0:
290,46,18661,1,0,0:0:0:0:
222,320,18895,1,0,0:0:0:0:
111,77,19130,6,0,B|81:125|43:141|43:141|81:160|99:233,1,200
176,143,19833,1,0,0:0:0:0:
344,216,20067,2,0,B|296:246|280:284|280:284|261:246|188:228,1,200
344,216,20770,1,0,0:0:0:0:
446,85,21005,6,0,B|407:150|407:150|453:197|428:273,1,200
430,265,21708,1,0,0:0:0:0:
245,95,21942,1,0,0:0:0:0:
120,189,22176,1,0,0:0:0:0:
285,311,22411,1,0,0:0:0:0:
120,189,22645,1,0,0:0:0:0:
354,61,22880,6,0,B|286:44|286:44|230:93|166:57,1,200
166,57,23583,1,0,0:0:0:0:
251,312,23817,1,0,0:0:0:0:
65,182,24051,1,0,0:0:0:0:
351,82,24286,1,0,0:0:0:0:
313,351,24520,6,0,P|260:359|206:350,2,100
140,293,25223,2,0,P|122:246|134:183,1,100
217,71,25692,2,0,P|232:124|216:171,1,100
94,59,26161,1,0,0:0:0:0:
94,59,26395,1,0,0:0:0:0:
177,251,26630,6,0,P|127:247|64:259,1,100
256,324,27098,2,0,P|305:331|354:324,1,100
66,202,27567,1,0,0:0:0:0:
242,59,27801,1,0,0:0:0:0:
220,330,28036,1,0,0:0:0:0:
31,124,28270,1,0,0:0:0:0:
319,30,28505,6,0,P|321:79|317:139,1,100
193,354,28973,2,0,P|191:305|195:245,1,100
66,97,29442,1,0,0:0:0:0:
439,204,29676,1,0,0:0:0:0:
222,338,29911,1,0,0:0:0:0:
290,64,30145,1,0,0:0:0:0:
401,307,30380,6,0,B|431:259|469:243|469:243|431:224|413:151,1,200
336,241,31083,1,0,0:0:0:0:
168,168,31317,2,0,B|216:138|232:100|232:100|251:138|324:156,1,200
168,168,32020,1,0,0:0:0:0:
66,299,32255,6,0,B|105:234|105:234|59:187|84:111,1,200
81,118,32958,1,0,0:0:0:0:
267,289,33192,1,0,0:0:0:0:
392,195,33426,1,0,0:0:0:0:
227,73,33661,1,0,0:0:0:0:
392,195,33895,1,0,0:0:0:0:
158,323,34130,6,0,B|226:340|226:340|282:291|346:327,1,200
345,326,34833,1,0,0:0:0:0:
261,72,35067,1,0,0:0:0:0:
447,202,35301,1,0,0:0:0:0:
161,302,35536,1,0,0:0:0:0:
199,33,35770,6,0,P|252:25|306:34,2,100
372,91,36473,2,0,P|390:138|378:201,1,100
295,313,36942,2,0,P|280:260|296:213,1,100
418,325,37411,1,0,0:0:0:0:
418,325,37645,1,0,0:0:0:0:
79,154,37880,6,0,L|74:96,2,50
157,108,38348,2,0,L|162:50,2,50
246,78,38817,2,0,L|261:21,2,50
306,153,39286,2,0,L|330:100,2,50
433,230,39755,6,0,L|438:288,2,50
355,276,40223,2,0,L|349:333,1,50
266,306,40458,1,0,0:0:0:0:
266,306,40692,2,0,L|250:362,2,50
206,231,41161,2,0,L|181:283,2,50
140,143,41630,5,0,0:0:0:0:
140,143,41747,1,0,0:0:0:0:
140,143,41864,1,0,0:0:0:0:
297,54,42098,2,0,P|328:62|371:63,2,50
353,207,42567,1,0,0:0:0:0:
353,207,42684,1,0,0:0:0:0:
353,207,42801,1,0,0:0:0:0:
243,292,43036,2,0,P|233:318|236:347,2,50
151,46,43505,6,0,P|140:70|137:100,1,50
477,353,43739,1,0,0:0:0:0:
477,353,43973,2,0,P|470:328|453:300,1,50
32,67,44208,1,0,0:0:0:0:
32,67,44442,2,0,P|31:97|41:123,1,50
458,240,44676,1,0,0:0:0:0:
458,240,44911,2,0,P|470:212|467:179,1,50
105,303,45145,1,0,0:0:0:0:
105,303,45380,6,0,P|133:310|159:302,1,50
407,81,45614,1,0,0:0:0:0:
407,81,45848,2,0,P|379:74|353:82,1,50
59,336,46083,1,0,0:0:0:0:
59,336,46317,2,0,P|96:345|129:334,1,50
452,47,46551,1,0,0:0:0:0:
452,47,46785,2,0,P|415:38|382:49,1,50
473,343,47020,1,0,0:0:0:0:
473,343,47255,6,0,B|463:319|463:319|466:287,2,50
431,208,47723,2,0,B|446:183|446:183|448:152,2,50
413,72,48192,2,0,B|386:52|386:52|377:28,2,50
287,53,48661,2,0,B|256:62|256:62|233:87,2,50
55,76,49130,5,0,0:0:0:0:
427,343,49364,1,0,0:0:0:0:
284,45,49598,1,0,0:0:0:0:
88,313,49833,1,0,0:0:0:0:
468,116,50067,1,0,0:0:0:0:
23,60,50301,1,0,0:0:0:0:
293,346,50536,1,0,0:0:0:0:
416,38,50770,1,0,0:0:0:0:
53,287,51005,5,0,0:0:0:0:
97,309,51122,1,0,0:0:0:0:
146,306,51239,1,0,0:0:0:0:
191,286,51356,1,0,0:0:0:0:
277,214,51473,5,0,0:0:0:0:
233,192,51590,1,0,0:0:0:0:
184,195,51707,1,0,0:0:0:0:
139,215,51824,1,0,0:0:0:0:
277,295,51942,5,0,0:0:0:0:
321,317,52059,1,0,0:0:0:0:
370,314,52176,1,0,0:0:0:0:
415,294,52293,1,0,0:0:0:0:
421,177,52411,6,0,L|426:151,5,16.6666666666667
342,226,52645,2,0,L|323:232,5,16.6666666666667
104,72,52880,6,0,L|96:159,1,50
443,313,53114,1,0,0:0:0:0:
443,313,53231,1,0,0:0:0:0:
443,313,53348,2,0,L|435:223,1,50
267,46,53583,2,0,L|255:122,1,50
103,312,53817,5,0,0:0:0:0:
80,210,53934,1,0,0:0:0:0:
182,187,54051,1,0,0:0:0:0:
205,289,54169,1,0,0:0:0:0:
183,178,54286,5,0,0:0:0:0:
210,300,54403,1,0,0:0:0:0:
88,328,54520,1,0,0:0:0:0:
60,205,54638,1,0,0:0:0:0:
66,350,54755,6,0,L|141:345,1,50
478,77,54989,1,0,0:0:0:0:
478,77,55106,1,0,0:0:0:0:
478,77,55223,2,0,L|427:90,1,50
273,116,55458,2,0,L|346:135,1,50
406,301,55692,5,0,0:0:0:0:
322,245,55809,1,0,0:0:0:0:
256,320,55926,1,0,0:0:0:0:
186,247,56044,1,0,0:0:0:0:
130,331,56161,5,0,0:0:0:0:
186,247,56278,1,0,0:0:0:0:
111,181,56395,1,0,0:0:0:0:
184,111,56513,1,0,0:0:0:0:
69,261,56630,6,0,L|115:234,1,50
61,124,56864,2,0,L|109:157,1,50
194,92,57098,2,0,L|184:151,1,50
284,216,57333,2,0,L|216:213,1,50
184,341,57567,2,0,P|175:308|179:276,3,50
276,355,58036,2,0,P|305:358|333:349,3,50
128,33,58505,6,0,P|126:64|134:94,1,50
482,292,58739,1,0,0:0:0:0:
473,220,58856,1,0,0:0:0:0:
482,292,58973,2,0,P|457:298|429:296,1,50
290,313,59208,2,0,P|324:316|355:308,1,50
335,177,59442,5,0,0:0:0:0:
280,112,59559,1,0,0:0:0:0:
335,177,59676,1,0,0:0:0:0:
280,112,59794,1,0,0:0:0:0:
366,214,59911,5,0,0:0:0:0:
256,84,60028,1,0,0:0:0:0:
366,214,60145,1,0,0:0:0:0:
256,84,60263,1,0,0:0:0:0:
119,353,60380,6,0,P|91:361|60:359,1,50
36,99,60614,1,0,0:0:0:0:
101,84,60731,1,0,0:0:0:0:
36,99,60848,2,0,P|26:70|27:35,1,50
123,145,61083,2,0,P|116:175|98:204,1,50
172,293,61317,5,0,0:0:0:0:
231,234,61434,1,0,0:0:0:0:
288,292,61551,1,0,0:0:0:0:
404,291,61669,5,0,0:0:0:0:
345,350,61786,1,0,0:0:0:0:
288,292,61903,1,0,0:0:0:0:
421,66,62020,2,0,L|430:133,1,50
159,171,62255,5,0,0:0:0:0:
141,217,62372,1,0,0:0:0:0:
142,266,62489,1,0,0:0:0:0:
161,311,62606,1,0,0:0:0:0:
351,256,62723,5,0,0:0:0:0:
306,237,62840,1,0,0:0:0:0:
257,236,62957,1,0,0:0:0:0:
211,254,63074,1,0,0:0:0:0:
397,332,63192,5,0,0:0:0:0:
416,287,63309,1,0,0:0:0:0:
417,238,63426,1,0,0:0:0:0:
399,192,63543,1,0,0:0:0:0:
148,256,63661,6,0,L|141:259,3,5
408,312,64130,6,0,L|416:225,1,50
69,71,64364,1,0,0:0:0:0:
69,71,64481,1,0,0:0:0:0:
69,71,64598,2,0,L|77:161,1,50
245,338,64833,2,0,L|257:262,1,50
409,72,65067,5,0,0:0:0:0:
432,174,65184,1,0,0:0:0:0:
330,197,65301,1,0,0:0:0:0:
307,95,65419,1,0,0:0:0:0:
329,206,65536,5,0,0:0:0:0:
302,84,65653,1,0,0:0:0:0:
424,56,65770,1,0,0:0:0:0:
452,179,65888,1,0,0:0:0:0:
446,34,66005,6,0,L|371:39,1,50
34,307,66239,1,0,0:0:0:0:
34,307,66356,1,0,0:0:0:0:
34,307,66473,2,0,L|85:294,1,50
239,268,66708,2,0,L|166:249,1,50
106,83,66942,5,0,0:0:0:0:
190,139,67059,1,0,0:0:0:0:
256,64,67176,1,0,0:0:0:0:
326,137,67294,1,0,0:0:0:0:
382,53,67411,5,0,0:0:0:0:
326,137,67528,1,0,0:0:0:0:
401,203,67645,1,0,0:0:0:0:
328,273,67763,1,0,0:0:0:0:
443,123,67880,6,0,L|397:150,1,50
451,260,68114,2,0,L|403:227,1,50
318,292,68348,2,0,L|328:233,1,50
228,168,68583,2,0,L|296:171,1,50
328,43,68817,2,0,P|337:76|333:108,3,50
236,29,69286,2,0,P|207:26|179:35,3,50
384,351,69755,6,0,P|386:320|378:290,1,50
30,92,69989,1,0,0:0:0:0:
39,164,70106,1,0,0:0:0:0:
30,92,70223,2,0,P|54:86|83:88,1,50
222,71,70458,2,0,P|187:67|157:76,1,50
177,207,70692,5,0,0:0:0:0:
232,272,70809,1,0,0:0:0:0:
177,207,70926,1,0,0:0:0:0:
232,272,71044,1,0,0:0:0:0:
146,170,71161,5,0,0:0:0:0:
256,300,71278,1,0,0:0:0:0:
146,170,71395,1,0,0:0:0:0:
256,300,71513,1,0,0:0:0:0:
393,31,71630,6,0,P|420:22|452:25,1,50
476,285,71864,1,0,0:0:0:0:
411,300,71981,1,0,0:0:0:0:
476,285,72098,2,0,P|486:314|485:349,1,50
389,239,72333,2,0,P|395:208|414:180,1,50
340,91,72567,5,0,0:0:0:0:
281,150,72684,1,0,0:0:0:0:
224,92,72801,1,0,0:0:0:0:
108,93,72919,5,0,0:0:0:0:
167,34,73036,1,0,0:0:0:0:
224,92,73153,1,0,0:0:0:0:
91,318,73270,2,0,L|82:251,1,50
421,66,73505,6,0,P|429:91|427:127,1,50
290,336,73739,2,0,P|267:345|243:341,1,50
161,128,73973,5,0,0:0:0:0:
206,147,74090,1,0,0:0:0:0:
251,167,74208,2,0,L|311:190,1,50
54,108,74442,6,0,P|40:74|42:36,1,50
248,312,74676,2,0,P|237:339|213:362,1,50
110,60,74911,2,0,P|131:31|166:13,1,50
174,303,75145,2,0,P|144:308|113:297,1,50
424,172,75380,6,0,L|474:166,1,50
342,181,75614,2,0,L|255:188,2,50
228,189,75965,1,0,0:0:0:0:
161,193,76083,2,0,L|93:195,2,50
160,124,76434,1,0,0:0:0:0:
159,63,76551,2,0,L|158:10,2,50
226,61,76903,1,0,0:0:0:0:
297,60,77020,2,0,L|298:112,1,50
297,109,77255,6,0,B|195:301|195:301|131:201|209:129|209:129|324:289|324:289|172:469|2:280|75:123|75:123|39:231|81:277,1,1200.00004577637
118,178,78309,6,0,P|97:134|103:81,1,75.0000028610231
148,26,78426,2,0,P|168:69|163:123,1,75.0000028610231
270,54,78544,6,0,P|313:33|367:39,1,75.0000028610231
422,84,78661,2,0,P|378:104|325:99,1,75.0000028610231
394,206,78778,6,0,P|414:249|409:303,1,75.0000028610231
364,358,78895,2,0,P|343:314|349:261,1,75.0000028610231
242,330,79012,6,0,P|198:350|145:345,1,75.0000028610231
38,157,79130,6,0,L|26:96,1,37.5000014305115
95,162,79188,6,0,L|87:215,1,37.5000014305115
148,150,79247,6,0,L|144:80,1,37.5000014305115
198,163,79305,6,0,L|194:220,1,37.5000014305115
240,140,79364,6,0,L|234:80,1,37.5000014305115
302,156,79422,6,0,L|282:212,1,37.5000014305115
334,130,79481,6,0,L|336:88,1,37.5000014305115
367,171,79540,6,0,L|401:222,1,37.5000014305115
330,257,79598,6,0,P|338:286|358:311,11,50.0000019073487
276,132,80067,5,0,0:0:0:0:
473,57,80184,1,0,0:0:0:0:
276,132,80301,5,0,0:0:0:0:
473,57,80418,1,0,0:0:0:0:
364,307,80536,6,0,L|377:356,5,50.0000019073487
339,243,80770,2,0,L|327:195,5,50.0000019073487
139,131,81005,6,0,P|81:175|69:254,1,150.000005722046
269,291,81239,2,0,P|197:278|153:220,1,150.000005722046
309,86,81473,2,0,P|251:130|238:203,1,150.000005722046
441,243,81708,2,0,P|369:230|325:172,1,150.000005722046
79,268,81942,6,0,P|64:196|82:117,1,150.000005722046
283,339,82176,2,0,P|210:354|138:340,1,150.000005722046
191,195,82411,6,0,P|194:223|186:252,15,37.5000014305115
393,112,82880,6,0,P|427:97|453:71,1,75.0000028610231
313,117,82997,2,0,P|278:131|254:159,1,75.0000028610231
388,132,83114,6,0,P|425:136|461:126,1,75.0000028610231
317,96,83231,2,0,P|280:92|245:103,1,75.0000028610231
374,148,83348,6,0,P|404:170|441:179,1,75.0000028610231
331,80,83465,2,0,P|301:58|265:50,1,75.0000028610231
355,154,83583,6,0,P|369:188|397:214,1,75.0000028610231
350,74,83700,2,0,P|336:40|309:15,1,75.0000028610231
298,119,83817,6,0,L|144:119,1,150.000005722046
291,339,84051,1,0,0:0:0:0:
433,39,84169,1,0,0:0:0:0:
291,339,84286,2,0,L|441:339,1,150.000005722046
221,339,84520,2,0,L|71:339,1,150.000005722046
232,161,84755,6,0,P|223:129|228:91,5,50.0000019073487
276,61,84989,2,0,P|303:57|331:61,7,50
129,92,85223,6,0,P|138:124|133:162,5,50.0000019073487
85,192,85457,2,0,P|58:196|30:192,7,50
140,236,85692,6,0,P|213:259|287:237,1,150.000005722046
326,221,85887,1,0,0:0:0:0:
356,179,85926,6,0,L|354:113,5,50.0000019073487
265,92,86161,6,0,P|246:85|226:89,7,37.5000014305115
183,147,86395,2,0,P|158:156|133:155,7,37.5000014305115
68,100,86630,2,0,B|64:100|64:100|72:100|72:100|64:100|64:100|72:100|72:100|64:100|64:100|72:100|72:100|64:100|64:100|72:100|72:100|64:100|64:100|72:100|72:100|64:100|64:100|72:100|72:100|64:100|64:100|72:100|72:100|64:100|64:100|72:100|72:100|64:100|64:100|72:100|72:100|64:100|64:100|72:100|72:100|64:100|64:100|72:100|72:100|64:100|64:100|72:100|72:100|64:100|64:100|72:100|72:100|64:100|64:100|72:100|72:100|64:100|64:100|72:100|72:100|64:100|64:100|72:100|72:100|64:100|64:100|72:100|72:100|64:100|64:100|72:100|72:100|64:100|64:100|72:100|72:100|64:100|64:100|72:100|72:100|64:100|64:100|72:100|72:100|64:100|64:100|72:100|72:100|64:100|64:100|72:100|72:100|64:100|64:100|72:100|72:100|64:100|64:100|72:100|72:100|68:104|44:272|228:244|228:244|228:236|228:236|228:244|228:244|228:236|228:236|228:244|228:244|228:236|228:236|228:244|228:244|228:236|228:236|228:244|228:244|228:236|228:236|228:244|228:244|228:236|228:236|228:244|228:244|228:236|228:236|228:244|228:244|228:236|228:236|228:244|228:244|228:236|228:236|228:244|228:244|228:236|228:236|228:244|228:244|228:236|228:236|228:244|228:244|228:236|228:236|228:244|228:244|228:236|228:236|228:244|228:244|228:236|228:236|228:244|228:244|228:236|228:236|228:244|228:244|228:236|228:236|228:244|228:244|228:236|228:236|228:244|228:244|228:236|228:236|228:244|228:244|228:236|228:236|228:240|228:240|228:236|228:236|228:244|228:244|228:236|228:236|228:244|228:244|228:236|228:236|228:240,1,800
396,80,87215,1,0,0:0:0:0:
396,80,87333,6,0,P|398:116|388:160,3,75.0000028610231
326,318,87567,2,0,L|316:244,3,75.0000028610231
195,105,87801,2,0,P|206:140|232:168,3,75.0000028610231
448,96,88036,6,0,L|424:248,1,150.000005722046
64,96,88270,2,0,L|87:244,1,150.000005722046
272,72,88505,6,0,P|300:81|328:80,11,50.0000019073487
388,32,88973,6,0,L|392:76,15,37.5000014305115
340,136,89442,6,0,P|362:141|392:140,15,37.5000014305115
294,199,89911,6,0,P|290:220|294:244,15,37.5000014305115
229,187,90380,5,0,0:0:0:0:
448,40,90497,1,0,0:0:0:0:
236,32,90614,5,0,0:0:0:0:
339,342,90731,1,0,0:0:0:0:
452,136,90848,5,0,0:0:0:0:
155,274,90965,1,0,0:0:0:0:
255,63,91083,5,0,0:0:0:0:
366,344,91200,1,0,0:0:0:0:
57,304,91317,5,0,0:0:0:0:
320,113,91434,1,0,0:0:0:0:
280,332,91551,5,0,0:0:0:0:
40,40,91669,1,0,0:0:0:0:
221,116,91786,5,0,0:0:0:0:
52,336,91903,1,0,0:0:0:0:
398,338,92020,5,0,0:0:0:0:
133,100,92137,1,0,0:0:0:0:
48,208,92255,6,0,P|140:236|212:208,1,175.00000166893
124,152,92489,6,0,P|132:124|120:96,17,58.3333338896433
232,124,93192,6,0,B|292:148|368:128|368:128|336:112,1,175.00000166893
276,48,93426,2,0,B|216:24|140:44|140:44|172:60,1,175.00000166893
232,124,93661,2,0,B|206:183|138:222|138:222|149:189,1,175.00000166893
40,104,93895,2,0,B|8:120|8:120|84:140|144:116,1,175.00000166893
80,236,94130,6,0,L|100:280,15,43.7500004172325
196,320,94598,6,0,P|216:292|220:264,5,58.3333338896433
176,172,94833,2,0,P|156:200|152:228,5,58.3333338896433
260,200,95067,2,0,P|288:206|311:224,5,58.3333338896433
328,304,95301,2,0,P|356:297|379:279,5,58.3333338896433
332,224,95536,6,0,B|352:164|352:164|312:108|348:56,1,175.00000166893
404,112,95770,2,0,B|355:145|299:105|299:105|239:125,1,175.00000166893
400,264,96005,6,0,L|392:328,7,43.7500004172325
308,344,96239,2,0,L|244:336,7,43.7500004172325
484,260,96473,6,0,L|476:196,7,43.7500004172325
392,180,96708,2,0,L|328:188,7,43.7500004172325
309,188,96942,5,0,0:0:0:0:
77,310,97176,1,0,0:0:0:0:
52,44,97411,6,0,L|80:104,15,43.7500004172325
219,327,97880,6,0,L|136:300,1,87.500000834465
405,298,97997,2,0,L|480:252,1,87.500000834465
250,313,98115,6,0,L|163:316,1,87.500000834465
416,269,98232,2,0,L|470:201,1,87.500000834465
274,301,98349,6,0,L|189:319,1,87.500000834465
405,243,98466,2,0,L|447:166,1,87.500000834465
299,287,98583,6,0,L|220:324,1,87.500000834465
393,220,98700,2,0,L|416:136,1,87.500000834465
328,232,98817,5,0,0:0:0:0:
104,336,99051,2,0,P|80:256|96:168,2,175.00000166893
464,48,99520,1,0,0:0:0:0:
148,84,99755,6,0,L|128:128,7,43.7500004172325
192,180,99989,2,0,P|194:214|212:248,5,58.3333338896433
280,140,100223,6,0,L|288:84,7,43.7500004172325
324,216,100458,2,0,P|360:224|392:212,5,58.3333338896433
368,128,100692,6,0,B|308:96|220:172|220:172|192:208|100:152|136:76,1,306.250002920628
127,105,100926,2,0,B|80:192|144:308|144:308|180:272|244:304,1,306.250002920628
231,298,101161,2,0,B|332:256|332:256|360:312|416:248|372:160|372:160|400:144,1,306.250002920628
396,145,101395,2,0,B|404:56|404:56|300:120|192:48,1,306.250002920628
64,172,101630,6,0,L|80:232,16,43.7500004172325
96,284,102215,1,0,0:0:0:0:
300,152,102333,6,0,P|289:193|300:244,1,87.500000834465
380,160,102450,2,0,P|390:118|380:68,1,87.500000834465
464,236,102567,2,0,P|421:246|379:239,1,87.500000834465
248,312,102684,2,0,P|290:322|332:315,1,87.500000834465
172,256,102801,2,0,P|161:298|168:340,1,87.500000834465
216,188,102919,2,0,P|173:177|131:184,1,87.500000834465
52,112,103036,6,0,L|48:60,7,43.7500004172325
60,176,103270,1,0,0:0:0:0:
412,328,103505,6,0,P|436:252|416:156,1,175.00000166893
418,160,103739,2,0,L|372:160,7,43.7500004172325
374,160,103973,6,0,P|298:136|202:156,1,175.00000166893
206,153,104208,2,0,L|205:199,7,43.7500004172325
336,104,104442,6,0,P|308:116|276:112,5,58.3333338896433
264,44,104676,2,0,P|235:42|208:53,5,58.3333338896433
219,126,104911,2,0,P|192:137|164:136,5,58.3333338896433
104,92,105145,2,0,P|92:65|94:36,5,58.3333338896433
52,168,105380,5,0,0:0:0:0:
52,168,105497,1,0,0:0:0:0:
52,168,105614,2,0,P|110:243|188:260,1,175.00000166893
260,192,105848,6,0,P|272:296|240:356,1,175.00000166893
168,164,106083,2,0,P|240:108|320:124,1,175.00000166893
416,348,106317,2,0,B|414:287|414:287|452:232|440:156,1,175.00000166893
408,40,106551,2,0,B|350:53|350:53|284:28|284:28|228:44,1,175.00000166893
84,336,106786,6,0,B|66:282|66:282|80:224|80:224|64:164,1,175.00000166893
64,167,107020,1,0,0:0:0:0:
64,167,107137,1,0,0:0:0:0:
204,72,107255,6,0,L|208:80,1,5
252,144,107489,6,0,L|244:148,2,5
304,80,107840,1,0,0:0:0:0:
304,80,107958,6,0,L|300:72,2,5
344,152,108309,1,0,0:0:0:0:
344,152,108426,6,0,L|352:148,2,5
396,80,108778,1,0,0:0:0:0:
396,80,108895,6,0,L|400:72,2,5
440,152,109247,1,0,0:0:0:0:
440,152,109364,6,0,L|448:156,2,5
388,224,109715,1,0,0:0:0:0:
388,224,109832,6,0,L|384:232,2,5
336,292,110184,1,0,0:0:0:0:
336,292,110301,6,0,L|344:296,2,5
304,208,110653,1,0,0:0:0:0:
304,208,110770,6,0,L|296:212,2,5
