osu file format v14

[General]
AudioFilename: audio.mp3
AudioLeadIn: 0
PreviewTime: 12363
Countdown: 0
SampleSet: Normal
StackLeniency: 0.7
Mode: 1
LetterboxInBreaks: 0
WidescreenStoryboard: 0

[Editor]
DistanceSpacing: 2
BeatDivisor: 4
GridSize: 32
TimelineZoom: 2.699999

[Metadata]
Title:Wadimor Sarung Khas Indonesia
TitleUnicode:Wadimor Sarung Khas Indonesia
Artist:Mr. Weq
ArtistUnicode:Mr. Weq
Creator:Lookie-
Version:Surono main Bedug dan Rebbana
Source:
Tags:ajeb ajeb
BeatmapID:1005894
BeatmapSetID:469816

[Difficulty]
HPDrainRate:6
CircleSize:2
OverallDifficulty:6.6
ApproachRate:10
SliderMultiplier:1.4
SliderTickRate:1

[Events]
//Background and Video events
0,0,"sarung wadimor sonokembang.jpg",0,0
//Break Periods
//Storyboard Layer 0 (Background)
//Storyboard Layer 1 (Fail)
//Storyboard Layer 2 (Pass)
//Storyboard Layer 3 (Foreground)
//Storyboard Sound Samples

[TimingPoints]
30,400,4,1,0,80,1,0
11230,-90.9090909090909,4,1,0,80,0,0
11530,-83.3333333333333,4,1,0,80,0,0
11830,-76.9230769230769,4,1,0,80,0,0
12230,-66.6666666666667,4,1,0,80,0,0
12830,-100,4,1,0,80,0,0
25530,-95.2380952380952,4,1,0,80,0,0
25630,-90.9090909090909,4,1,0,80,0,1
36830,-90.9090909090909,4,1,0,80,0,0
38030,-92.5925925925926,4,1,0,80,0,0
38130,-94.3396226415094,4,1,0,80,0,0
38230,-96.1538461538461,4,1,0,80,0,0
38330,-98.0392156862745,4,1,0,80,0,0
38430,-100,4,1,0,80,0,1
46430,-99.009900990099,4,1,0,80,0,1
46530,-98.0392156862745,4,1,0,80,0,1
46630,-97.0873786407767,4,1,0,80,0,1
46730,-96.1538461538461,4,1,0,80,0,1
46830,-95.2380952380952,4,1,0,80,0,1
46930,-94.3396226415094,4,1,0,80,0,1
47030,-93.4579439252336,4,1,0,80,0,1
47130,-92.5925925925926,4,1,0,80,0,1
47230,-91.743119266055,4,1,0,80,0,1
47330,-90.9090909090909,4,1,0,80,0,1
47430,-90.0900900900901,4,1,0,80,0,1
47530,-89.2857142857143,4,1,0,80,0,1
47630,-88.4955752212389,4,1,0,80,0,1
47730,-87.719298245614,4,1,0,80,0,1
47830,-86.2068965517241,4,1,0,80,0,1
47930,-84.7457627118644,4,1,0,80,0,1
48030,-83.3333333333333,4,1,0,80,0,1
48130,-81.9672131147541,4,1,0,80,0,1
48230,-80.6451612903226,4,1,0,80,0,1
48330,-79.3650793650794,4,1,0,80,0,1
48430,-78.125,4,1,0,80,0,1
48530,-76.9230769230769,4,1,0,80,0,1
48630,-75.7575757575758,4,1,0,80,0,1
48730,-74.6268656716418,4,1,0,80,0,1
48830,-73.5294117647059,4,1,0,80,0,1
48930,-72.463768115942,4,1,0,80,0,1
49030,-71.4285714285714,4,1,0,80,0,1
49130,-70.4225352112676,4,1,0,80,0,1
49230,-69.4444444444444,4,1,0,80,0,1
49330,-68.4931506849315,4,1,0,80,0,1
49430,-67.5675675675676,4,1,0,80,0,1
49630,-66.6666666666667,4,1,0,80,0,1
49930,-71.4285714285714,4,1,0,80,0,1
50230,-76.9230769230769,4,1,0,80,0,1
50530,-83.3333333333333,4,1,0,80,0,1
50830,-90.9090909090909,4,1,0,80,0,1
51030,-100,4,1,0,80,0,1
51230,-100,4,1,0,80,0,0
51430,-133.333333333333,4,1,0,50,0,0

[HitObjects]
256,192,30,5,4,0:0:0:0:
256,192,230,1,0,0:0:0:0:
256,192,430,1,8,0:0:0:0:
256,192,630,1,0,0:0:0:0:
256,192,830,1,0,0:0:0:0:
256,192,1030,1,8,0:0:0:0:
256,192,1230,1,0,0:0:0:0:
256,192,1430,1,0,0:0:0:0:
256,192,1630,1,8,0:0:0:0:
256,192,1830,1,0,0:0:0:0:
256,192,2030,1,0,0:0:0:0:
256,192,2230,1,8,0:0:0:0:
256,192,2430,1,0,0:0:0:0:
256,192,2630,1,0,0:0:0:0:
256,192,2830,1,8,0:0:0:0:
256,192,3030,1,0,0:0:0:0:
256,192,3230,1,0,0:0:0:0:
256,192,3430,1,8,0:0:0:0:
256,192,3630,1,0,0:0:0:0:
256,192,3830,1,0,0:0:0:0:
256,192,4030,1,8,0:0:0:0:
256,192,4230,1,0,0:0:0:0:
256,192,4430,1,0,0:0:0:0:
256,192,4630,1,8,0:0:0:0:
256,192,4830,1,0,0:0:0:0:
256,192,5030,1,0,0:0:0:0:
256,192,5230,1,8,0:0:0:0:
256,192,5430,1,0,0:0:0:0:
256,192,5630,1,0,0:0:0:0:
256,192,5830,1,8,0:0:0:0:
256,192,6030,1,0,0:0:0:0:
256,192,6230,1,0,0:0:0:0:
256,192,6430,1,8,0:0:0:0:
256,192,6630,1,0,0:0:0:0:
256,192,6730,1,0,0:0:0:0:
256,192,6830,1,0,0:0:0:0:
256,192,7030,1,8,0:0:0:0:
256,192,7230,1,0,0:0:0:0:
256,192,7330,1,0,0:0:0:0:
256,192,7430,1,0,0:0:0:0:
256,192,7630,1,8,0:0:0:0:
256,192,7830,1,0,0:0:0:0:
256,192,7930,1,0,0:0:0:0:
256,192,8030,1,0,0:0:0:0:
256,192,8230,1,8,0:0:0:0:
256,192,8430,1,0,0:0:0:0:
256,192,8530,1,0,0:0:0:0:
256,192,8630,1,0,0:0:0:0:
256,192,8830,1,8,0:0:0:0:
256,192,9030,1,0,0:0:0:0:
256,192,9130,1,0,0:0:0:0:
256,192,9230,1,0,0:0:0:0:
256,192,9430,1,8,0:0:0:0:
256,192,9630,1,0,0:0:0:0:
256,192,9730,1,0,0:0:0:0:
256,192,9830,1,0,0:0:0:0:
256,192,10030,1,8,0:0:0:0:
256,192,10130,1,8,0:0:0:0:
256,192,10230,1,8,0:0:0:0:
256,192,10430,1,0,0:0:0:0:
256,192,10530,1,0,0:0:0:0:
256,192,10630,1,0,0:0:0:0:
256,192,10830,1,8,0:0:0:0:
256,192,10930,1,8,0:0:0:0:
256,192,11030,1,8,0:0:0:0:
256,192,11230,1,4,0:0:0:0:
256,192,11530,1,4,0:0:0:0:
256,192,11830,1,12,0:0:0:0:
256,192,12230,1,12,0:0:0:0:
256,192,12430,1,0,0:0:0:0:
256,192,12830,1,8,0:0:0:0:
256,192,13130,1,0,0:0:0:0:
256,192,13230,1,8,0:0:0:0:
256,192,13430,1,8,0:0:0:0:
256,192,13630,1,0,0:0:0:0:
256,192,13730,1,8,0:0:0:0:
256,192,13830,1,0,0:0:0:0:
256,192,14030,1,8,0:0:0:0:
256,192,14230,1,8,0:0:0:0:
256,192,14430,1,0,0:0:0:0:
256,192,14530,1,8,0:0:0:0:
256,192,14630,1,0,0:0:0:0:
256,192,14730,1,0,0:0:0:0:
256,192,14830,1,8,0:0:0:0:
256,192,15030,1,0,0:0:0:0:
256,192,15230,1,8,0:0:0:0:
256,192,15330,1,8,0:0:0:0:
256,192,15430,1,0,0:0:0:0:
256,192,15530,1,0,0:0:0:0:
256,192,15630,1,8,0:0:0:0:
256,192,15730,1,0,0:0:0:0:
256,192,15830,1,8,0:0:0:0:
256,192,16030,1,0,0:0:0:0:
256,192,16330,1,0,0:0:0:0:
256,192,16430,1,8,0:0:0:0:
256,192,16630,1,0,0:0:0:0:
256,192,16830,1,8,0:0:0:0:
256,192,16930,1,8,0:0:0:0:
256,192,17030,1,0,0:0:0:0:
256,192,17230,1,8,0:0:0:0:
256,192,17430,1,0,0:0:0:0:
256,192,17630,1,8,0:0:0:0:
256,192,17730,1,8,0:0:0:0:
256,192,17830,1,0,0:0:0:0:
256,192,17930,1,0,0:0:0:0:
256,192,18030,1,8,0:0:0:0:
256,192,18230,1,0,0:0:0:0:
256,192,18430,1,8,0:0:0:0:
256,192,18530,1,8,0:0:0:0:
256,192,18630,1,0,0:0:0:0:
256,192,18730,1,0,0:0:0:0:
256,192,18830,1,8,0:0:0:0:
256,192,18930,1,0,0:0:0:0:
256,192,19030,1,0,0:0:0:0:
256,192,19230,1,8,0:0:0:0:
256,192,19530,1,0,0:0:0:0:
256,192,19630,1,8,0:0:0:0:
256,192,19830,1,8,0:0:0:0:
256,192,20030,1,0,0:0:0:0:
256,192,20130,1,8,0:0:0:0:
256,192,20230,1,0,0:0:0:0:
256,192,20430,1,8,0:0:0:0:
256,192,20630,1,0,0:0:0:0:
256,192,20830,1,8,0:0:0:0:
256,192,20930,1,8,0:0:0:0:
256,192,21030,1,0,0:0:0:0:
256,192,21130,1,0,0:0:0:0:
256,192,21230,1,8,0:0:0:0:
256,192,21430,1,0,0:0:0:0:
256,192,21630,1,8,0:0:0:0:
256,192,21730,1,8,0:0:0:0:
256,192,21830,1,0,0:0:0:0:
256,192,21930,1,8,0:0:0:0:
256,192,22030,1,0,0:0:0:0:
256,192,22130,1,0,0:0:0:0:
256,192,22230,1,8,0:0:0:0:
256,192,22430,1,8,0:0:0:0:
256,192,22730,1,0,0:0:0:0:
256,192,22830,1,8,0:0:0:0:
256,192,23030,1,8,0:0:0:0:
256,192,23230,1,8,0:0:0:0:
256,192,23330,1,8,0:0:0:0:
256,192,23430,1,0,0:0:0:0:
256,192,23630,1,8,0:0:0:0:
256,192,23830,1,0,0:0:0:0:
256,192,24030,1,12,0:0:0:0:
256,192,24330,1,4,0:0:0:0:
256,192,24630,1,12,0:0:0:0:
256,192,24930,1,12,0:0:0:0:
256,192,25230,1,0,0:0:0:0:
256,192,25430,1,0,0:0:0:0:
256,192,25530,1,0,0:0:0:0:
256,192,25630,1,0,0:0:0:0:
256,192,25930,1,0,0:0:0:0:
256,192,26030,1,8,0:0:0:0:
256,192,26230,1,8,0:0:0:0:
256,192,26430,1,0,0:0:0:0:
256,192,26530,1,8,0:0:0:0:
256,192,26630,1,0,0:0:0:0:
256,192,26730,1,0,0:0:0:0:
256,192,26830,1,8,0:0:0:0:
256,192,27030,1,8,0:0:0:0:
256,192,27230,1,0,0:0:0:0:
256,192,27330,1,8,0:0:0:0:
256,192,27430,1,0,0:0:0:0:
256,192,27530,1,0,0:0:0:0:
256,192,27630,1,8,0:0:0:0:
256,192,27730,1,8,0:0:0:0:
256,192,27830,1,0,0:0:0:0:
256,192,28030,1,8,0:0:0:0:
256,192,28130,1,8,0:0:0:0:
256,192,28230,1,0,0:0:0:0:
256,192,28330,1,0,0:0:0:0:
256,192,28430,1,8,0:0:0:0:
256,192,28530,1,0,0:0:0:0:
256,192,28630,1,8,0:0:0:0:
256,192,28730,1,8,0:0:0:0:
256,192,28830,1,0,0:0:0:0:
256,192,29130,1,0,0:0:0:0:
256,192,29230,1,8,0:0:0:0:
256,192,29430,1,0,0:0:0:0:
256,192,29630,1,8,0:0:0:0:
256,192,29730,1,8,0:0:0:0:
256,192,29830,1,0,0:0:0:0:
256,192,29930,1,0,0:0:0:0:
256,192,30030,1,8,0:0:0:0:
256,192,30230,1,0,0:0:0:0:
256,192,30430,1,8,0:0:0:0:
256,192,30530,1,8,0:0:0:0:
256,192,30630,1,0,0:0:0:0:
256,192,30730,1,0,0:0:0:0:
256,192,30830,1,8,0:0:0:0:
256,192,30930,1,0,0:0:0:0:
256,192,31030,1,0,0:0:0:0:
256,192,31230,1,8,0:0:0:0:
256,192,31330,1,8,0:0:0:0:
256,192,31430,1,0,0:0:0:0:
256,192,31530,1,0,0:0:0:0:
256,192,31630,1,8,0:0:0:0:
256,192,31730,1,0,0:0:0:0:
256,192,31830,1,0,0:0:0:0:
256,192,31930,1,8,0:0:0:0:
256,192,32030,1,0,0:0:0:0:
256,192,32330,1,0,0:0:0:0:
256,192,32430,1,8,0:0:0:0:
256,192,32630,1,8,0:0:0:0:
256,192,32830,1,0,0:0:0:0:
256,192,32930,1,8,0:0:0:0:
256,192,33030,1,0,0:0:0:0:
256,192,33130,1,0,0:0:0:0:
256,192,33230,1,8,0:0:0:0:
256,192,33430,1,0,0:0:0:0:
256,192,33630,1,8,0:0:0:0:
256,192,33730,1,8,0:0:0:0:
256,192,33830,1,0,0:0:0:0:
256,192,33930,1,0,0:0:0:0:
256,192,34030,1,8,0:0:0:0:
256,192,34130,1,8,0:0:0:0:
256,192,34230,1,0,0:0:0:0:
256,192,34430,1,8,0:0:0:0:
256,192,34530,1,8,0:0:0:0:
256,192,34630,1,0,0:0:0:0:
256,192,34730,1,8,0:0:0:0:
256,192,34830,1,0,0:0:0:0:
256,192,34930,1,0,0:0:0:0:
256,192,35030,1,8,0:0:0:0:
256,192,35130,1,0,0:0:0:0:
256,192,35230,1,8,0:0:0:0:
256,192,35530,1,0,0:0:0:0:
256,192,35630,1,8,0:0:0:0:
256,192,35830,1,8,0:0:0:0:
256,192,36030,1,8,0:0:0:0:
256,192,36130,1,8,0:0:0:0:
256,192,36230,1,0,0:0:0:0:
256,192,36330,1,0,0:0:0:0:
256,192,36430,1,8,0:0:0:0:
256,192,36630,1,0,0:0:0:0:
256,192,36830,1,12,0:0:0:0:
256,192,37130,1,4,0:0:0:0:
256,192,37430,1,12,0:0:0:0:
256,192,37730,1,12,0:0:0:0:
256,192,37930,1,8,0:0:0:0:
256,192,38030,1,0,0:0:0:0:
256,192,38130,1,0,0:0:0:0:
256,192,38230,1,8,0:0:0:0:
256,192,38330,1,0,0:0:0:0:
256,192,38430,1,0,0:0:0:0:
256,192,38730,1,0,0:0:0:0:
256,192,38830,1,8,0:0:0:0:
256,192,39030,1,8,0:0:0:0:
256,192,39230,1,0,0:0:0:0:
256,192,39330,1,8,0:0:0:0:
256,192,39430,1,0,0:0:0:0:
256,192,39530,1,0,0:0:0:0:
256,192,39630,1,8,0:0:0:0:
256,192,39830,1,8,0:0:0:0:
256,192,40030,1,0,0:0:0:0:
256,192,40130,1,8,0:0:0:0:
256,192,40230,1,0,0:0:0:0:
256,192,40330,1,0,0:0:0:0:
256,192,40430,1,8,0:0:0:0:
256,192,40530,1,8,0:0:0:0:
256,192,40630,1,0,0:0:0:0:
256,192,40830,1,8,0:0:0:0:
256,192,40930,1,8,0:0:0:0:
256,192,41030,1,0,0:0:0:0:
256,192,41130,1,0,0:0:0:0:
256,192,41230,1,8,0:0:0:0:
256,192,41330,1,0,0:0:0:0:
256,192,41430,1,8,0:0:0:0:
256,192,41530,1,8,0:0:0:0:
256,192,41630,1,0,0:0:0:0:
256,192,41930,1,0,0:0:0:0:
256,192,42030,1,8,0:0:0:0:
256,192,42230,1,0,0:0:0:0:
256,192,42430,1,8,0:0:0:0:
256,192,42530,1,8,0:0:0:0:
256,192,42630,1,0,0:0:0:0:
256,192,42730,1,0,0:0:0:0:
256,192,42830,1,8,0:0:0:0:
256,192,43030,1,0,0:0:0:0:
256,192,43230,1,8,0:0:0:0:
256,192,43330,1,8,0:0:0:0:
256,192,43430,1,0,0:0:0:0:
256,192,43530,1,0,0:0:0:0:
256,192,43630,1,8,0:0:0:0:
256,192,43730,1,0,0:0:0:0:
256,192,43830,1,0,0:0:0:0:
256,192,44030,1,8,0:0:0:0:
256,192,44130,1,8,0:0:0:0:
256,192,44230,1,0,0:0:0:0:
256,192,44330,1,0,0:0:0:0:
256,192,44430,1,8,0:0:0:0:
256,192,44530,1,0,0:0:0:0:
256,192,44630,1,0,0:0:0:0:
256,192,44730,1,8,0:0:0:0:
256,192,44830,1,0,0:0:0:0:
256,192,45030,1,0,0:0:0:0:
256,192,45130,1,8,0:0:0:0:
256,192,45330,1,0,0:0:0:0:
256,192,45430,1,8,0:0:0:0:
256,192,45630,1,0,0:0:0:0:
256,192,45730,1,8,0:0:0:0:
256,192,45930,1,0,0:0:0:0:
256,192,46030,1,8,0:0:0:0:
256,192,46230,1,0,0:0:0:0:
256,192,46330,1,0,0:0:0:0:
256,192,46430,1,8,0:0:0:0:
256,192,46530,1,0,0:0:0:0:
256,192,46630,1,0,0:0:0:0:
256,192,46730,1,8,0:0:0:0:
256,192,46830,1,0,0:0:0:0:
256,192,46930,1,0,0:0:0:0:
256,192,47030,1,8,0:0:0:0:
256,192,47130,1,0,0:0:0:0:
256,192,47230,1,0,0:0:0:0:
256,192,47330,1,8,0:0:0:0:
256,192,47430,1,0,0:0:0:0:
256,192,47530,1,0,0:0:0:0:
256,192,47630,1,8,0:0:0:0:
256,192,47730,1,0,0:0:0:0:
256,192,47830,1,8,0:0:0:0:
256,192,47930,1,8,0:0:0:0:
256,192,48030,1,8,0:0:0:0:
256,192,48130,1,0,0:0:0:0:
256,192,48230,1,0,0:0:0:0:
256,192,48330,1,8,0:0:0:0:
256,192,48430,1,0,0:0:0:0:
256,192,48530,1,0,0:0:0:0:
256,192,48630,1,8,0:0:0:0:
256,192,48730,1,0,0:0:0:0:
256,192,48830,1,8,0:0:0:0:
256,192,48930,1,8,0:0:0:0:
256,192,49030,1,0,0:0:0:0:
256,192,49130,1,0,0:0:0:0:
256,192,49230,1,8,0:0:0:0:
256,192,49330,1,0,0:0:0:0:
256,192,49430,1,0,0:0:0:0:
256,192,49630,1,12,0:0:0:0:
256,192,49930,1,4,0:0:0:0:
256,192,50230,1,12,0:0:0:0:
256,192,50530,1,12,0:0:0:0:
256,192,50830,1,0,0:0:0:0:
256,192,51030,1,8,0:0:0:0:
256,192,51130,1,8,0:0:0:0:
256,192,51230,1,8,0:0:0:0:
256,192,51430,12,0,53030,0:0:0:0:
