osu file format v14

[General]
AudioFilename: due_tomorrow.mp3
AudioLeadIn: 0
PreviewTime: 1641
Countdown: 0
SampleSet: Normal
StackLeniency: 0.7
Mode: 3
LetterboxInBreaks: 0
SpecialStyle: 0
WidescreenStoryboard: 1

[Editor]
DistanceSpacing: 1.1
BeatDivisor: 2
GridSize: 8
TimelineZoom: 1.5

[Metadata]
Title:DUE TOMORROW
TitleUnicode:DUE TOMORROW
Artist:Mr. T
ArtistUnicode:Mr. T
Creator:Aqo
Version:drrrther
Source:beatmania IIDX13 DistorteD
Tags:
BeatmapID:1613153
BeatmapSetID:767424

[Difficulty]
HPDrainRate:9
CircleSize:7
OverallDifficulty:10
ApproachRate:10
SliderMultiplier:1.4
SliderTickRate:1

[Events]
//Background and Video events
0,0,"bg.jpg",0,0
//Break Periods
//Storyboard Layer 0 (Background)
//Storyboard Layer 1 (Fail)
//Storyboard Layer 2 (Pass)
//Storyboard Layer 3 (Foreground)
//Storyboard Sound Samples

[TimingPoints]
291,150,4,2,0,5,1,0
1416,-100,4,1,0,5,0,0
5091,-100,4,2,0,5,0,0
6216,-100,4,1,0,5,0,0
9891,-100,4,2,0,5,0,0
11016,-100,4,1,0,5,0,0
49491,600,4,1,0,5,1,0
49491,-400,4,1,0,5,0,0
57891,150,4,2,0,5,1,0
59016,-100,4,1,0,5,0,0
78141,-100,4,1,0,5,0,0
80091,-100,4,1,0,5,0,0
83091,-100,4,1,0,5,0,0
83916,-100,4,1,0,5,0,0
84291,-100,4,1,0,5,0,0
85341,-100,4,1,0,5,0,0
85491,-100,4,1,0,5,0,0
85791,-100,4,1,0,5,0,0
86691,-100,4,2,0,5,0,0
87816,-100,4,1,0,5,0,0

[HitObjects]
475,192,1491,5,0,0:0:0:0:
475,192,1566,1,0,0:0:0:0:
109,192,1641,1,0,0:0:0:0:
109,192,1716,1,0,0:0:0:0:
475,192,1791,1,0,0:0:0:0:
475,192,1866,1,0,0:0:0:0:
109,192,1941,1,0,0:0:0:0:
109,192,2016,1,0,0:0:0:0:
475,192,2091,1,0,0:0:0:0:
475,192,2166,1,0,0:0:0:0:
109,192,2241,1,0,0:0:0:0:
329,192,2241,1,0,0:0:0:0:
109,192,2316,1,0,0:0:0:0:
256,192,2316,1,0,0:0:0:0:
329,192,2391,1,0,0:0:0:0:
182,192,2391,1,0,0:0:0:0:
329,192,2466,1,0,0:0:0:0:
109,192,2466,1,0,0:0:0:0:
329,192,2541,1,0,0:0:0:0:
182,192,2541,1,0,0:0:0:0:
329,192,2616,1,0,0:0:0:0:
256,192,2616,1,0,0:0:0:0:
475,192,2691,1,0,0:0:0:0:
475,192,2766,1,0,0:0:0:0:
109,192,2841,1,0,0:0:0:0:
109,192,2916,1,0,0:0:0:0:
475,192,2991,1,0,0:0:0:0:
475,192,3066,1,0,0:0:0:0:
109,192,3141,1,0,0:0:0:0:
256,192,3141,1,0,0:0:0:0:
109,192,3216,1,0,0:0:0:0:
402,192,3216,1,0,0:0:0:0:
475,192,3291,1,0,0:0:0:0:
256,192,3291,1,0,0:0:0:0:
475,192,3366,1,0,0:0:0:0:
109,192,3441,1,0,0:0:0:0:
329,192,3441,1,0,0:0:0:0:
109,192,3516,1,0,0:0:0:0:
256,192,3516,1,0,0:0:0:0:
329,192,3591,1,0,0:0:0:0:
182,192,3591,1,0,0:0:0:0:
329,192,3666,1,0,0:0:0:0:
109,192,3666,1,0,0:0:0:0:
329,192,3741,1,0,0:0:0:0:
182,192,3741,1,0,0:0:0:0:
329,192,3816,1,0,0:0:0:0:
256,192,3816,1,0,0:0:0:0:
475,192,3891,1,0,0:0:0:0:
475,192,3966,1,0,0:0:0:0:
109,192,4041,1,0,0:0:0:0:
109,192,4116,1,0,0:0:0:0:
475,192,4191,1,0,0:0:0:0:
475,192,4266,1,0,0:0:0:0:
109,192,4341,1,0,0:0:0:0:
256,192,4341,1,0,0:0:0:0:
109,192,4416,1,0,0:0:0:0:
402,192,4416,1,0,0:0:0:0:
475,192,4491,1,0,0:0:0:0:
256,192,4491,1,0,0:0:0:0:
475,192,4566,1,0,0:0:0:0:
109,192,4641,1,0,0:0:0:0:
329,192,4641,1,0,0:0:0:0:
109,192,4716,1,0,0:0:0:0:
256,192,4716,1,0,0:0:0:0:
329,192,4791,1,0,0:0:0:0:
182,192,4791,1,0,0:0:0:0:
329,192,4866,1,0,0:0:0:0:
109,192,4866,1,0,0:0:0:0:
329,192,4941,1,0,0:0:0:0:
182,192,4941,1,0,0:0:0:0:
329,192,5016,1,0,0:0:0:0:
256,192,5016,1,0,0:0:0:0:
475,192,5091,1,0,0:0:0:0:
475,192,5391,1,0,0:0:0:0:
475,192,5691,1,0,0:0:0:0:
475,192,5991,1,0,0:0:0:0:
402,192,6291,1,0,0:0:0:0:
475,192,6291,1,0,0:0:0:0:
402,192,6366,1,0,0:0:0:0:
36,192,6441,1,0,0:0:0:0:
109,192,6441,1,0,0:0:0:0:
36,192,6516,1,0,0:0:0:0:
402,192,6591,1,0,0:0:0:0:
402,192,6666,1,0,0:0:0:0:
256,192,6666,1,0,0:0:0:0:
36,192,6741,1,0,0:0:0:0:
475,192,6741,1,0,0:0:0:0:
36,192,6816,1,0,0:0:0:0:
182,192,6816,1,0,0:0:0:0:
402,192,6891,1,0,0:0:0:0:
475,192,6891,1,0,0:0:0:0:
402,192,6966,1,0,0:0:0:0:
36,192,7041,1,0,0:0:0:0:
109,192,7041,1,0,0:0:0:0:
256,192,7041,1,0,0:0:0:0:
36,192,7116,1,0,0:0:0:0:
329,192,7116,1,0,0:0:0:0:
182,192,7191,1,0,0:0:0:0:
402,192,7191,1,0,0:0:0:0:
182,192,7266,1,0,0:0:0:0:
256,192,7266,1,0,0:0:0:0:
475,192,7266,1,0,0:0:0:0:
182,192,7341,1,0,0:0:0:0:
402,192,7341,1,0,0:0:0:0:
182,192,7416,1,0,0:0:0:0:
329,192,7416,1,0,0:0:0:0:
402,192,7491,1,0,0:0:0:0:
402,192,7566,1,0,0:0:0:0:
36,192,7641,1,0,0:0:0:0:
109,192,7641,1,0,0:0:0:0:
36,192,7716,1,0,0:0:0:0:
402,192,7791,1,0,0:0:0:0:
402,192,7866,1,0,0:0:0:0:
256,192,7866,1,0,0:0:0:0:
36,192,7941,1,0,0:0:0:0:
475,192,7941,1,0,0:0:0:0:
36,192,8016,1,0,0:0:0:0:
182,192,8016,1,0,0:0:0:0:
402,192,8091,1,0,0:0:0:0:
475,192,8091,1,0,0:0:0:0:
402,192,8166,1,0,0:0:0:0:
36,192,8241,1,0,0:0:0:0:
109,192,8241,1,0,0:0:0:0:
256,192,8241,1,0,0:0:0:0:
36,192,8316,1,0,0:0:0:0:
329,192,8316,1,0,0:0:0:0:
182,192,8391,1,0,0:0:0:0:
402,192,8391,1,0,0:0:0:0:
182,192,8466,1,0,0:0:0:0:
256,192,8466,1,0,0:0:0:0:
475,192,8466,1,0,0:0:0:0:
182,192,8541,1,0,0:0:0:0:
402,192,8541,1,0,0:0:0:0:
182,192,8616,1,0,0:0:0:0:
329,192,8616,1,0,0:0:0:0:
402,192,8691,1,0,0:0:0:0:
402,192,8766,1,0,0:0:0:0:
36,192,8841,1,0,0:0:0:0:
109,192,8841,1,0,0:0:0:0:
36,192,8916,1,0,0:0:0:0:
402,192,8991,1,0,0:0:0:0:
402,192,9066,1,0,0:0:0:0:
256,192,9066,1,0,0:0:0:0:
36,192,9141,1,0,0:0:0:0:
475,192,9141,1,0,0:0:0:0:
36,192,9216,1,0,0:0:0:0:
182,192,9216,1,0,0:0:0:0:
402,192,9291,1,0,0:0:0:0:
475,192,9291,1,0,0:0:0:0:
402,192,9366,1,0,0:0:0:0:
36,192,9441,1,0,0:0:0:0:
256,192,9441,1,0,0:0:0:0:
36,192,9516,1,0,0:0:0:0:
109,192,9516,1,0,0:0:0:0:
329,192,9516,1,0,0:0:0:0:
182,192,9591,1,0,0:0:0:0:
402,192,9591,1,0,0:0:0:0:
182,192,9666,1,0,0:0:0:0:
256,192,9666,1,0,0:0:0:0:
475,192,9666,1,0,0:0:0:0:
182,192,9741,1,0,0:0:0:0:
402,192,9741,1,0,0:0:0:0:
182,192,9816,1,0,0:0:0:0:
329,192,9816,1,0,0:0:0:0:
475,192,9891,1,0,0:0:0:0:
475,192,10041,1,0,0:0:0:0:
475,192,10191,1,0,0:0:0:0:
475,192,10341,1,0,0:0:0:0:
475,192,10491,1,0,0:0:0:0:
475,192,10641,1,0,0:0:0:0:
475,192,10791,1,0,0:0:0:0:
475,192,10941,1,0,0:0:0:0:
475,192,11091,1,0,0:0:0:0:
256,192,11091,1,0,0:0:0:0:
402,192,11091,1,0,0:0:0:0:
475,192,11166,1,0,0:0:0:0:
109,192,11241,1,0,0:0:0:0:
109,192,11316,1,0,0:0:0:0:
182,192,11316,1,0,0:0:0:0:
36,192,11316,1,0,0:0:0:0:
475,192,11391,1,0,0:0:0:0:
475,192,11466,1,0,0:0:0:0:
109,192,11541,1,0,0:0:0:0:
256,192,11541,1,0,0:0:0:0:
36,192,11541,1,0,0:0:0:0:
109,192,11616,1,0,0:0:0:0:
475,192,11691,1,0,0:0:0:0:
475,192,11766,1,0,0:0:0:0:
182,192,11766,1,0,0:0:0:0:
402,192,11766,1,0,0:0:0:0:
109,192,11841,1,0,0:0:0:0:
109,192,11916,1,0,0:0:0:0:
329,192,11991,1,0,0:0:0:0:
256,192,11991,1,0,0:0:0:0:
402,192,11991,1,0,0:0:0:0:
329,192,12066,1,0,0:0:0:0:
329,192,12141,1,0,0:0:0:0:
182,192,12141,1,0,0:0:0:0:
36,192,12141,1,0,0:0:0:0:
329,192,12216,1,0,0:0:0:0:
475,192,12291,1,0,0:0:0:0:
256,192,12291,1,0,0:0:0:0:
36,192,12291,1,0,0:0:0:0:
475,192,12366,1,0,0:0:0:0:
109,192,12441,1,0,0:0:0:0:
109,192,12516,1,0,0:0:0:0:
182,192,12516,1,0,0:0:0:0:
402,192,12516,1,0,0:0:0:0:
475,192,12591,1,0,0:0:0:0:
475,192,12666,1,0,0:0:0:0:
109,192,12741,1,0,0:0:0:0:
256,192,12741,1,0,0:0:0:0:
402,192,12741,1,0,0:0:0:0:
109,192,12816,1,0,0:0:0:0:
475,192,12891,1,0,0:0:0:0:
475,192,12966,1,0,0:0:0:0:
182,192,12966,1,0,0:0:0:0:
36,192,12966,1,0,0:0:0:0:
109,192,13041,1,0,0:0:0:0:
109,192,13116,1,0,0:0:0:0:
329,192,13191,1,0,0:0:0:0:
256,192,13191,1,0,0:0:0:0:
36,192,13191,1,0,0:0:0:0:
329,192,13266,1,0,0:0:0:0:
329,192,13341,1,0,0:0:0:0:
182,192,13341,1,0,0:0:0:0:
402,192,13341,1,0,0:0:0:0:
329,192,13416,1,0,0:0:0:0:
475,192,13491,1,0,0:0:0:0:
256,192,13491,1,0,0:0:0:0:
402,192,13491,1,0,0:0:0:0:
475,192,13566,1,0,0:0:0:0:
109,192,13641,1,0,0:0:0:0:
109,192,13716,1,0,0:0:0:0:
182,192,13716,1,0,0:0:0:0:
36,192,13716,1,0,0:0:0:0:
475,192,13791,1,0,0:0:0:0:
475,192,13866,1,0,0:0:0:0:
109,192,13941,1,0,0:0:0:0:
256,192,13941,1,0,0:0:0:0:
36,192,13941,1,0,0:0:0:0:
109,192,14016,1,0,0:0:0:0:
475,192,14091,1,0,0:0:0:0:
475,192,14166,1,0,0:0:0:0:
182,192,14166,1,0,0:0:0:0:
402,192,14166,1,0,0:0:0:0:
109,192,14241,1,0,0:0:0:0:
109,192,14316,1,0,0:0:0:0:
329,192,14391,1,0,0:0:0:0:
256,192,14391,1,0,0:0:0:0:
402,192,14391,1,0,0:0:0:0:
329,192,14466,1,0,0:0:0:0:
329,192,14541,1,0,0:0:0:0:
182,192,14541,1,0,0:0:0:0:
36,192,14541,1,0,0:0:0:0:
329,192,14616,1,0,0:0:0:0:
402,192,14691,1,0,0:0:0:0:
256,192,14691,1,0,0:0:0:0:
36,192,14691,1,0,0:0:0:0:
402,192,14766,1,0,0:0:0:0:
182,192,14766,1,0,0:0:0:0:
109,192,14841,1,0,0:0:0:0:
109,192,14916,1,0,0:0:0:0:
256,192,14916,1,0,0:0:0:0:
402,192,14991,1,0,0:0:0:0:
182,192,14991,1,0,0:0:0:0:
402,192,15066,1,0,0:0:0:0:
329,192,15066,1,0,0:0:0:0:
36,192,15066,1,0,0:0:0:0:
109,192,15141,1,0,0:0:0:0:
256,192,15141,1,0,0:0:0:0:
109,192,15216,1,0,0:0:0:0:
182,192,15216,1,0,0:0:0:0:
402,192,15291,1,0,0:0:0:0:
329,192,15291,1,0,0:0:0:0:
402,192,15366,1,0,0:0:0:0:
256,192,15366,1,0,0:0:0:0:
36,192,15366,1,0,0:0:0:0:
109,192,15441,1,0,0:0:0:0:
329,192,15441,1,0,0:0:0:0:
109,192,15516,1,0,0:0:0:0:
475,192,15516,1,0,0:0:0:0:
182,192,15591,1,0,0:0:0:0:
402,192,15591,1,0,0:0:0:0:
182,192,15666,1,0,0:0:0:0:
329,192,15666,1,0,0:0:0:0:
36,192,15666,1,0,0:0:0:0:
182,192,15741,1,0,0:0:0:0:
256,192,15741,1,0,0:0:0:0:
182,192,15816,1,0,0:0:0:0:
329,192,15816,1,0,0:0:0:0:
475,192,15891,1,0,0:0:0:0:
402,192,15891,1,0,0:0:0:0:
36,192,15891,1,0,0:0:0:0:
475,192,15966,1,0,0:0:0:0:
109,192,16041,1,0,0:0:0:0:
109,192,16116,1,0,0:0:0:0:
256,192,16116,1,0,0:0:0:0:
182,192,16116,1,0,0:0:0:0:
475,192,16191,1,0,0:0:0:0:
475,192,16266,1,0,0:0:0:0:
109,192,16341,1,0,0:0:0:0:
402,192,16341,1,0,0:0:0:0:
182,192,16341,1,0,0:0:0:0:
109,192,16416,1,0,0:0:0:0:
475,192,16491,1,0,0:0:0:0:
475,192,16566,1,0,0:0:0:0:
256,192,16566,1,0,0:0:0:0:
36,192,16566,1,0,0:0:0:0:
109,192,16641,1,0,0:0:0:0:
109,192,16716,1,0,0:0:0:0:
402,192,16791,1,0,0:0:0:0:
329,192,16791,1,0,0:0:0:0:
36,192,16791,1,0,0:0:0:0:
329,192,16866,1,0,0:0:0:0:
256,192,16941,1,0,0:0:0:0:
329,192,16941,1,0,0:0:0:0:
182,192,16941,1,0,0:0:0:0:
329,192,17016,1,0,0:0:0:0:
475,192,17091,1,0,0:0:0:0:
402,192,17091,1,0,0:0:0:0:
182,192,17091,1,0,0:0:0:0:
475,192,17166,1,0,0:0:0:0:
109,192,17241,1,0,0:0:0:0:
109,192,17316,1,0,0:0:0:0:
256,192,17316,1,0,0:0:0:0:
36,192,17316,1,0,0:0:0:0:
475,192,17391,1,0,0:0:0:0:
475,192,17466,1,0,0:0:0:0:
109,192,17541,1,0,0:0:0:0:
402,192,17541,1,0,0:0:0:0:
36,192,17541,1,0,0:0:0:0:
109,192,17616,1,0,0:0:0:0:
475,192,17691,1,0,0:0:0:0:
475,192,17766,1,0,0:0:0:0:
256,192,17766,1,0,0:0:0:0:
182,192,17766,1,0,0:0:0:0:
109,192,17841,1,0,0:0:0:0:
109,192,17916,1,0,0:0:0:0:
329,192,17991,1,0,0:0:0:0:
402,192,17991,1,0,0:0:0:0:
182,192,17991,1,0,0:0:0:0:
329,192,18066,1,0,0:0:0:0:
329,192,18141,1,0,0:0:0:0:
256,192,18141,1,0,0:0:0:0:
36,192,18141,1,0,0:0:0:0:
329,192,18216,1,0,0:0:0:0:
475,192,18291,1,0,0:0:0:0:
402,192,18291,1,0,0:0:0:0:
36,192,18291,1,0,0:0:0:0:
475,192,18366,1,0,0:0:0:0:
109,192,18441,1,0,0:0:0:0:
109,192,18516,1,0,0:0:0:0:
256,192,18516,1,0,0:0:0:0:
182,192,18516,1,0,0:0:0:0:
475,192,18591,1,0,0:0:0:0:
475,192,18666,1,0,0:0:0:0:
109,192,18741,1,0,0:0:0:0:
402,192,18741,1,0,0:0:0:0:
182,192,18741,1,0,0:0:0:0:
109,192,18816,1,0,0:0:0:0:
475,192,18891,1,0,0:0:0:0:
475,192,18966,1,0,0:0:0:0:
256,192,18966,1,0,0:0:0:0:
36,192,18966,1,0,0:0:0:0:
109,192,19041,1,0,0:0:0:0:
109,192,19116,1,0,0:0:0:0:
329,192,19191,1,0,0:0:0:0:
402,192,19191,1,0,0:0:0:0:
36,192,19191,1,0,0:0:0:0:
329,192,19266,1,0,0:0:0:0:
329,192,19341,1,0,0:0:0:0:
256,192,19341,1,0,0:0:0:0:
182,192,19341,1,0,0:0:0:0:
329,192,19416,1,0,0:0:0:0:
109,192,19491,1,0,0:0:0:0:
402,192,19491,1,0,0:0:0:0:
182,192,19491,1,0,0:0:0:0:
256,192,19566,1,0,0:0:0:0:
475,192,19566,1,0,0:0:0:0:
109,192,19641,1,0,0:0:0:0:
402,192,19716,1,0,0:0:0:0:
109,192,19791,1,0,0:0:0:0:
256,192,19791,1,0,0:0:0:0:
182,192,19866,1,0,0:0:0:0:
475,192,19866,1,0,0:0:0:0:
109,192,19941,1,0,0:0:0:0:
402,192,19941,1,0,0:0:0:0:
109,192,20016,1,0,0:0:0:0:
256,192,20016,1,0,0:0:0:0:
182,192,20091,1,0,0:0:0:0:
329,192,20091,1,0,0:0:0:0:
256,192,20166,1,0,0:0:0:0:
475,192,20166,1,0,0:0:0:0:
109,192,20241,1,0,0:0:0:0:
402,192,20241,1,0,0:0:0:0:
182,192,20316,1,0,0:0:0:0:
36,192,20391,1,0,0:0:0:0:
329,192,20391,1,0,0:0:0:0:
109,192,20466,1,0,0:0:0:0:
475,192,20466,1,0,0:0:0:0:
256,192,20541,1,0,0:0:0:0:
402,192,20541,1,0,0:0:0:0:
329,192,20691,1,0,0:0:0:0:
475,192,20691,1,0,0:0:0:0:
329,192,20766,1,0,0:0:0:0:
475,192,20766,1,0,0:0:0:0:
329,192,20841,1,0,0:0:0:0:
475,192,20841,1,0,0:0:0:0:
256,192,20916,1,0,0:0:0:0:
36,192,20916,1,0,0:0:0:0:
402,192,20991,1,0,0:0:0:0:
182,192,20991,1,0,0:0:0:0:
402,192,21066,1,0,0:0:0:0:
182,192,21066,1,0,0:0:0:0:
329,192,21141,1,0,0:0:0:0:
475,192,21216,1,0,0:0:0:0:
109,192,21291,1,0,0:0:0:0:
256,192,21291,1,0,0:0:0:0:
109,192,21366,1,0,0:0:0:0:
256,192,21366,1,0,0:0:0:0:
109,192,21441,1,0,0:0:0:0:
256,192,21441,1,0,0:0:0:0:
329,192,21516,1,0,0:0:0:0:
475,192,21516,1,0,0:0:0:0:
182,192,21591,1,0,0:0:0:0:
402,192,21591,1,0,0:0:0:0:
402,192,21666,1,0,0:0:0:0:
182,192,21666,1,0,0:0:0:0:
256,192,21741,1,0,0:0:0:0:
36,192,21816,1,0,0:0:0:0:
329,192,21891,1,0,0:0:0:0:
475,192,21891,1,0,0:0:0:0:
475,192,21966,1,0,0:0:0:0:
329,192,21966,1,0,0:0:0:0:
475,192,22041,1,0,0:0:0:0:
329,192,22041,1,0,0:0:0:0:
256,192,22116,1,0,0:0:0:0:
36,192,22116,1,0,0:0:0:0:
402,192,22191,1,0,0:0:0:0:
182,192,22191,1,0,0:0:0:0:
182,192,22266,1,0,0:0:0:0:
402,192,22266,1,0,0:0:0:0:
329,192,22341,1,0,0:0:0:0:
475,192,22416,1,0,0:0:0:0:
109,192,22491,1,0,0:0:0:0:
256,192,22491,1,0,0:0:0:0:
256,192,22566,1,0,0:0:0:0:
109,192,22566,1,0,0:0:0:0:
256,192,22641,1,0,0:0:0:0:
109,192,22641,1,0,0:0:0:0:
329,192,22716,1,0,0:0:0:0:
475,192,22716,1,0,0:0:0:0:
402,192,22791,1,0,0:0:0:0:
182,192,22791,1,0,0:0:0:0:
402,192,22866,1,0,0:0:0:0:
182,192,22866,1,0,0:0:0:0:
256,192,22941,1,0,0:0:0:0:
36,192,23016,1,0,0:0:0:0:
475,192,23091,1,0,0:0:0:0:
329,192,23091,1,0,0:0:0:0:
329,192,23166,1,0,0:0:0:0:
475,192,23166,1,0,0:0:0:0:
329,192,23241,1,0,0:0:0:0:
475,192,23241,1,0,0:0:0:0:
256,192,23316,1,0,0:0:0:0:
36,192,23316,1,0,0:0:0:0:
182,192,23391,1,0,0:0:0:0:
402,192,23391,1,0,0:0:0:0:
402,192,23466,1,0,0:0:0:0:
182,192,23466,1,0,0:0:0:0:
329,192,23541,1,0,0:0:0:0:
475,192,23616,1,0,0:0:0:0:
256,192,23691,1,0,0:0:0:0:
109,192,23691,1,0,0:0:0:0:
109,192,23766,1,0,0:0:0:0:
256,192,23766,1,0,0:0:0:0:
109,192,23841,1,0,0:0:0:0:
256,192,23841,1,0,0:0:0:0:
329,192,23916,1,0,0:0:0:0:
475,192,23916,1,0,0:0:0:0:
182,192,23991,1,0,0:0:0:0:
402,192,23991,1,0,0:0:0:0:
182,192,24066,1,0,0:0:0:0:
402,192,24066,1,0,0:0:0:0:
256,192,24141,1,0,0:0:0:0:
36,192,24216,1,0,0:0:0:0:
329,192,24291,1,0,0:0:0:0:
475,192,24291,1,0,0:0:0:0:
475,192,24366,1,0,0:0:0:0:
329,192,24366,1,0,0:0:0:0:
329,192,24441,1,0,0:0:0:0:
475,192,24441,1,0,0:0:0:0:
256,192,24516,1,0,0:0:0:0:
36,192,24516,1,0,0:0:0:0:
402,192,24591,1,0,0:0:0:0:
182,192,24591,1,0,0:0:0:0:
182,192,24666,1,0,0:0:0:0:
402,192,24741,1,0,0:0:0:0:
182,192,24816,1,0,0:0:0:0:
402,192,24816,1,0,0:0:0:0:
182,192,24891,1,0,0:0:0:0:
402,192,24966,1,0,0:0:0:0:
402,192,25041,1,0,0:0:0:0:
182,192,25041,1,0,0:0:0:0:
182,192,25116,1,0,0:0:0:0:
402,192,25191,1,0,0:0:0:0:
182,192,25266,1,0,0:0:0:0:
402,192,25266,1,0,0:0:0:0:
182,192,25341,1,0,0:0:0:0:
402,192,25416,1,0,0:0:0:0:
256,192,25491,1,0,0:0:0:0:
109,192,25491,1,0,0:0:0:0:
109,192,25566,1,0,0:0:0:0:
256,192,25566,1,0,0:0:0:0:
109,192,25641,1,0,0:0:0:0:
256,192,25641,1,0,0:0:0:0:
182,192,25716,1,0,0:0:0:0:
475,192,25716,1,0,0:0:0:0:
36,192,25791,1,0,0:0:0:0:
329,192,25791,1,0,0:0:0:0:
36,192,25866,1,0,0:0:0:0:
329,192,25866,1,0,0:0:0:0:
109,192,25941,1,0,0:0:0:0:
475,192,26016,1,0,0:0:0:0:
402,192,26091,1,0,0:0:0:0:
256,192,26091,1,0,0:0:0:0:
402,192,26166,1,0,0:0:0:0:
256,192,26166,1,0,0:0:0:0:
256,192,26241,1,0,0:0:0:0:
402,192,26241,1,0,0:0:0:0:
329,192,26316,1,0,0:0:0:0:
109,192,26316,1,0,0:0:0:0:
182,192,26391,1,0,0:0:0:0:
475,192,26391,1,0,0:0:0:0:
182,192,26466,1,0,0:0:0:0:
475,192,26466,1,0,0:0:0:0:
329,192,26541,1,0,0:0:0:0:
402,192,26616,1,0,0:0:0:0:
256,192,26691,1,0,0:0:0:0:
109,192,26691,1,0,0:0:0:0:
109,192,26766,1,0,0:0:0:0:
256,192,26766,1,0,0:0:0:0:
256,192,26841,1,0,0:0:0:0:
109,192,26841,1,0,0:0:0:0:
182,192,26916,1,0,0:0:0:0:
475,192,26916,1,0,0:0:0:0:
36,192,26991,1,0,0:0:0:0:
329,192,26991,1,0,0:0:0:0:
329,192,27066,1,0,0:0:0:0:
36,192,27066,1,0,0:0:0:0:
109,192,27141,1,0,0:0:0:0:
475,192,27216,1,0,0:0:0:0:
402,192,27291,1,0,0:0:0:0:
256,192,27291,1,0,0:0:0:0:
256,192,27366,1,0,0:0:0:0:
402,192,27366,1,0,0:0:0:0:
256,192,27441,1,0,0:0:0:0:
402,192,27441,1,0,0:0:0:0:
329,192,27516,1,0,0:0:0:0:
109,192,27516,1,0,0:0:0:0:
182,192,27591,1,0,0:0:0:0:
475,192,27591,1,0,0:0:0:0:
182,192,27666,1,0,0:0:0:0:
475,192,27666,1,0,0:0:0:0:
329,192,27741,1,0,0:0:0:0:
402,192,27816,1,0,0:0:0:0:
109,192,27891,1,0,0:0:0:0:
256,192,27891,1,0,0:0:0:0:
256,192,27966,1,0,0:0:0:0:
109,192,27966,1,0,0:0:0:0:
109,192,28041,1,0,0:0:0:0:
256,192,28041,1,0,0:0:0:0:
182,192,28116,1,0,0:0:0:0:
475,192,28116,1,0,0:0:0:0:
329,192,28191,1,0,0:0:0:0:
36,192,28191,1,0,0:0:0:0:
36,192,28266,1,0,0:0:0:0:
329,192,28266,1,0,0:0:0:0:
109,192,28341,1,0,0:0:0:0:
475,192,28416,1,0,0:0:0:0:
256,192,28491,1,0,0:0:0:0:
402,192,28491,1,0,0:0:0:0:
402,192,28566,1,0,0:0:0:0:
256,192,28566,1,0,0:0:0:0:
402,192,28641,1,0,0:0:0:0:
256,192,28641,1,0,0:0:0:0:
329,192,28716,1,0,0:0:0:0:
109,192,28716,1,0,0:0:0:0:
475,192,28791,1,0,0:0:0:0:
182,192,28791,1,0,0:0:0:0:
475,192,28866,1,0,0:0:0:0:
182,192,28866,1,0,0:0:0:0:
329,192,28941,1,0,0:0:0:0:
402,192,29016,1,0,0:0:0:0:
256,192,29091,1,0,0:0:0:0:
109,192,29091,1,0,0:0:0:0:
109,192,29166,1,0,0:0:0:0:
256,192,29166,1,0,0:0:0:0:
256,192,29241,1,0,0:0:0:0:
109,192,29241,1,0,0:0:0:0:
182,192,29316,1,0,0:0:0:0:
475,192,29316,1,0,0:0:0:0:
36,192,29391,1,0,0:0:0:0:
329,192,29391,1,0,0:0:0:0:
36,192,29466,1,0,0:0:0:0:
329,192,29541,1,0,0:0:0:0:
36,192,29616,1,0,0:0:0:0:
329,192,29616,1,0,0:0:0:0:
36,192,29691,1,0,0:0:0:0:
329,192,29766,1,0,0:0:0:0:
329,192,29841,1,0,0:0:0:0:
36,192,29841,1,0,0:0:0:0:
36,192,29916,1,0,0:0:0:0:
329,192,29991,1,0,0:0:0:0:
329,192,30066,1,0,0:0:0:0:
36,192,30066,1,0,0:0:0:0:
36,192,30141,1,0,0:0:0:0:
329,192,30216,1,0,0:0:0:0:
329,192,30291,1,0,0:0:0:0:
36,192,30291,1,0,0:0:0:0:
475,192,30291,1,0,0:0:0:0:
256,192,30291,1,0,0:0:0:0:
402,192,30291,1,0,0:0:0:0:
475,192,30366,1,0,0:0:0:0:
109,192,30441,1,0,0:0:0:0:
109,192,30516,1,0,0:0:0:0:
182,192,30516,1,0,0:0:0:0:
36,192,30516,1,0,0:0:0:0:
475,192,30591,1,0,0:0:0:0:
475,192,30666,1,0,0:0:0:0:
109,192,30741,1,0,0:0:0:0:
256,192,30741,1,0,0:0:0:0:
36,192,30741,1,0,0:0:0:0:
109,192,30816,1,0,0:0:0:0:
475,192,30891,1,0,0:0:0:0:
475,192,30966,1,0,0:0:0:0:
182,192,30966,1,0,0:0:0:0:
402,192,30966,1,0,0:0:0:0:
109,192,31041,1,0,0:0:0:0:
109,192,31116,1,0,0:0:0:0:
329,192,31191,1,0,0:0:0:0:
256,192,31191,1,0,0:0:0:0:
402,192,31191,1,0,0:0:0:0:
329,192,31266,1,0,0:0:0:0:
329,192,31341,1,0,0:0:0:0:
182,192,31341,1,0,0:0:0:0:
36,192,31341,1,0,0:0:0:0:
329,192,31416,1,0,0:0:0:0:
475,192,31491,1,0,0:0:0:0:
256,192,31491,1,0,0:0:0:0:
36,192,31491,1,0,0:0:0:0:
475,192,31566,1,0,0:0:0:0:
109,192,31641,1,0,0:0:0:0:
109,192,31716,1,0,0:0:0:0:
182,192,31716,1,0,0:0:0:0:
402,192,31716,1,0,0:0:0:0:
475,192,31791,1,0,0:0:0:0:
475,192,31866,1,0,0:0:0:0:
109,192,31941,1,0,0:0:0:0:
256,192,31941,1,0,0:0:0:0:
402,192,31941,1,0,0:0:0:0:
109,192,32016,1,0,0:0:0:0:
475,192,32091,1,0,0:0:0:0:
475,192,32166,1,0,0:0:0:0:
182,192,32166,1,0,0:0:0:0:
36,192,32166,1,0,0:0:0:0:
109,192,32241,1,0,0:0:0:0:
109,192,32316,1,0,0:0:0:0:
329,192,32391,1,0,0:0:0:0:
256,192,32391,1,0,0:0:0:0:
36,192,32391,1,0,0:0:0:0:
329,192,32466,1,0,0:0:0:0:
329,192,32541,1,0,0:0:0:0:
182,192,32541,1,0,0:0:0:0:
402,192,32541,1,0,0:0:0:0:
329,192,32616,1,0,0:0:0:0:
475,192,32691,1,0,0:0:0:0:
256,192,32691,1,0,0:0:0:0:
402,192,32691,1,0,0:0:0:0:
475,192,32766,1,0,0:0:0:0:
109,192,32841,1,0,0:0:0:0:
109,192,32916,1,0,0:0:0:0:
182,192,32916,1,0,0:0:0:0:
36,192,32916,1,0,0:0:0:0:
475,192,32991,1,0,0:0:0:0:
475,192,33066,1,0,0:0:0:0:
109,192,33141,1,0,0:0:0:0:
256,192,33141,1,0,0:0:0:0:
36,192,33141,1,0,0:0:0:0:
109,192,33216,1,0,0:0:0:0:
475,192,33291,1,0,0:0:0:0:
475,192,33366,1,0,0:0:0:0:
182,192,33366,1,0,0:0:0:0:
402,192,33366,1,0,0:0:0:0:
109,192,33441,1,0,0:0:0:0:
109,192,33516,1,0,0:0:0:0:
329,192,33591,1,0,0:0:0:0:
256,192,33591,1,0,0:0:0:0:
402,192,33591,1,0,0:0:0:0:
329,192,33666,1,0,0:0:0:0:
329,192,33741,1,0,0:0:0:0:
182,192,33741,1,0,0:0:0:0:
36,192,33741,1,0,0:0:0:0:
329,192,33816,1,0,0:0:0:0:
402,192,33891,1,0,0:0:0:0:
256,192,33891,1,0,0:0:0:0:
36,192,33891,1,0,0:0:0:0:
402,192,33966,1,0,0:0:0:0:
182,192,33966,1,0,0:0:0:0:
109,192,34041,1,0,0:0:0:0:
109,192,34116,1,0,0:0:0:0:
256,192,34116,1,0,0:0:0:0:
402,192,34191,1,0,0:0:0:0:
182,192,34191,1,0,0:0:0:0:
402,192,34266,1,0,0:0:0:0:
329,192,34266,1,0,0:0:0:0:
36,192,34266,1,0,0:0:0:0:
109,192,34341,1,0,0:0:0:0:
256,192,34341,1,0,0:0:0:0:
109,192,34416,1,0,0:0:0:0:
182,192,34416,1,0,0:0:0:0:
402,192,34491,1,0,0:0:0:0:
329,192,34491,1,0,0:0:0:0:
402,192,34566,1,0,0:0:0:0:
256,192,34566,1,0,0:0:0:0:
36,192,34566,1,0,0:0:0:0:
109,192,34641,1,0,0:0:0:0:
329,192,34641,1,0,0:0:0:0:
109,192,34716,1,0,0:0:0:0:
475,192,34716,1,0,0:0:0:0:
182,192,34791,1,0,0:0:0:0:
402,192,34791,1,0,0:0:0:0:
182,192,34866,1,0,0:0:0:0:
329,192,34866,1,0,0:0:0:0:
36,192,34866,1,0,0:0:0:0:
182,192,34941,1,0,0:0:0:0:
256,192,34941,1,0,0:0:0:0:
182,192,35016,1,0,0:0:0:0:
329,192,35016,1,0,0:0:0:0:
475,192,35091,1,0,0:0:0:0:
402,192,35091,1,0,0:0:0:0:
36,192,35091,1,0,0:0:0:0:
475,192,35166,1,0,0:0:0:0:
109,192,35241,1,0,0:0:0:0:
109,192,35316,1,0,0:0:0:0:
256,192,35316,1,0,0:0:0:0:
182,192,35316,1,0,0:0:0:0:
475,192,35391,1,0,0:0:0:0:
475,192,35466,1,0,0:0:0:0:
109,192,35541,1,0,0:0:0:0:
402,192,35541,1,0,0:0:0:0:
182,192,35541,1,0,0:0:0:0:
109,192,35616,1,0,0:0:0:0:
475,192,35691,1,0,0:0:0:0:
475,192,35766,1,0,0:0:0:0:
256,192,35766,1,0,0:0:0:0:
36,192,35766,1,0,0:0:0:0:
109,192,35841,1,0,0:0:0:0:
109,192,35916,1,0,0:0:0:0:
402,192,35991,1,0,0:0:0:0:
329,192,35991,1,0,0:0:0:0:
36,192,35991,1,0,0:0:0:0:
329,192,36066,1,0,0:0:0:0:
256,192,36141,1,0,0:0:0:0:
329,192,36141,1,0,0:0:0:0:
182,192,36141,1,0,0:0:0:0:
329,192,36216,1,0,0:0:0:0:
475,192,36291,1,0,0:0:0:0:
402,192,36291,1,0,0:0:0:0:
182,192,36291,1,0,0:0:0:0:
475,192,36366,1,0,0:0:0:0:
109,192,36441,1,0,0:0:0:0:
109,192,36516,1,0,0:0:0:0:
256,192,36516,1,0,0:0:0:0:
36,192,36516,1,0,0:0:0:0:
475,192,36591,1,0,0:0:0:0:
475,192,36666,1,0,0:0:0:0:
109,192,36741,1,0,0:0:0:0:
402,192,36741,1,0,0:0:0:0:
36,192,36741,1,0,0:0:0:0:
109,192,36816,1,0,0:0:0:0:
475,192,36891,1,0,0:0:0:0:
475,192,36966,1,0,0:0:0:0:
256,192,36966,1,0,0:0:0:0:
182,192,36966,1,0,0:0:0:0:
109,192,37041,1,0,0:0:0:0:
109,192,37116,1,0,0:0:0:0:
329,192,37191,1,0,0:0:0:0:
402,192,37191,1,0,0:0:0:0:
182,192,37191,1,0,0:0:0:0:
329,192,37266,1,0,0:0:0:0:
329,192,37341,1,0,0:0:0:0:
256,192,37341,1,0,0:0:0:0:
36,192,37341,1,0,0:0:0:0:
329,192,37416,1,0,0:0:0:0:
475,192,37491,1,0,0:0:0:0:
402,192,37491,1,0,0:0:0:0:
36,192,37491,1,0,0:0:0:0:
475,192,37566,1,0,0:0:0:0:
109,192,37641,1,0,0:0:0:0:
109,192,37716,1,0,0:0:0:0:
256,192,37716,1,0,0:0:0:0:
182,192,37716,1,0,0:0:0:0:
475,192,37791,1,0,0:0:0:0:
475,192,37866,1,0,0:0:0:0:
109,192,37941,1,0,0:0:0:0:
402,192,37941,1,0,0:0:0:0:
182,192,37941,1,0,0:0:0:0:
109,192,38016,1,0,0:0:0:0:
475,192,38091,1,0,0:0:0:0:
475,192,38166,1,0,0:0:0:0:
256,192,38166,1,0,0:0:0:0:
36,192,38166,1,0,0:0:0:0:
109,192,38241,1,0,0:0:0:0:
109,192,38316,1,0,0:0:0:0:
329,192,38391,1,0,0:0:0:0:
402,192,38391,1,0,0:0:0:0:
36,192,38391,1,0,0:0:0:0:
329,192,38466,1,0,0:0:0:0:
329,192,38541,1,0,0:0:0:0:
256,192,38541,1,0,0:0:0:0:
182,192,38541,1,0,0:0:0:0:
329,192,38616,1,0,0:0:0:0:
109,192,38691,1,0,0:0:0:0:
402,192,38691,1,0,0:0:0:0:
256,192,38766,1,0,0:0:0:0:
475,192,38766,1,0,0:0:0:0:
36,192,38766,1,0,0:0:0:0:
109,192,38841,1,0,0:0:0:0:
402,192,38916,1,0,0:0:0:0:
109,192,38991,1,0,0:0:0:0:
256,192,38991,1,0,0:0:0:0:
182,192,39066,1,0,0:0:0:0:
475,192,39066,1,0,0:0:0:0:
36,192,39066,1,0,0:0:0:0:
109,192,39141,1,0,0:0:0:0:
402,192,39141,1,0,0:0:0:0:
109,192,39216,1,0,0:0:0:0:
256,192,39216,1,0,0:0:0:0:
182,192,39291,1,0,0:0:0:0:
329,192,39291,1,0,0:0:0:0:
256,192,39366,1,0,0:0:0:0:
475,192,39366,1,0,0:0:0:0:
36,192,39366,1,0,0:0:0:0:
109,192,39441,1,0,0:0:0:0:
402,192,39441,1,0,0:0:0:0:
182,192,39516,1,0,0:0:0:0:
36,192,39591,1,0,0:0:0:0:
329,192,39591,1,0,0:0:0:0:
109,192,39666,1,0,0:0:0:0:
475,192,39666,1,0,0:0:0:0:
256,192,39741,1,0,0:0:0:0:
402,192,39741,1,0,0:0:0:0:
329,192,39891,1,0,0:0:0:0:
475,192,39891,1,0,0:0:0:0:
36,192,39891,1,0,0:0:0:0:
329,192,39966,1,0,0:0:0:0:
475,192,39966,1,0,0:0:0:0:
329,192,40041,1,0,0:0:0:0:
475,192,40041,1,0,0:0:0:0:
109,192,40116,1,0,0:0:0:0:
256,192,40116,1,0,0:0:0:0:
402,192,40191,1,0,0:0:0:0:
182,192,40191,1,0,0:0:0:0:
36,192,40191,1,0,0:0:0:0:
402,192,40266,1,0,0:0:0:0:
182,192,40266,1,0,0:0:0:0:
256,192,40341,1,0,0:0:0:0:
475,192,40416,1,0,0:0:0:0:
109,192,40491,1,0,0:0:0:0:
256,192,40491,1,0,0:0:0:0:
329,192,40491,1,0,0:0:0:0:
109,192,40566,1,0,0:0:0:0:
256,192,40566,1,0,0:0:0:0:
109,192,40641,1,0,0:0:0:0:
256,192,40641,1,0,0:0:0:0:
36,192,40716,1,0,0:0:0:0:
475,192,40716,1,0,0:0:0:0:
182,192,40791,1,0,0:0:0:0:
402,192,40791,1,0,0:0:0:0:
329,192,40791,1,0,0:0:0:0:
402,192,40866,1,0,0:0:0:0:
182,192,40866,1,0,0:0:0:0:
256,192,40941,1,0,0:0:0:0:
109,192,41016,1,0,0:0:0:0:
329,192,41091,1,0,0:0:0:0:
475,192,41091,1,0,0:0:0:0:
36,192,41091,1,0,0:0:0:0:
475,192,41166,1,0,0:0:0:0:
329,192,41166,1,0,0:0:0:0:
475,192,41241,1,0,0:0:0:0:
329,192,41241,1,0,0:0:0:0:
256,192,41316,1,0,0:0:0:0:
109,192,41316,1,0,0:0:0:0:
402,192,41391,1,0,0:0:0:0:
182,192,41391,1,0,0:0:0:0:
36,192,41391,1,0,0:0:0:0:
182,192,41466,1,0,0:0:0:0:
402,192,41466,1,0,0:0:0:0:
256,192,41541,1,0,0:0:0:0:
475,192,41616,1,0,0:0:0:0:
109,192,41691,1,0,0:0:0:0:
256,192,41691,1,0,0:0:0:0:
329,192,41691,1,0,0:0:0:0:
256,192,41766,1,0,0:0:0:0:
109,192,41766,1,0,0:0:0:0:
256,192,41841,1,0,0:0:0:0:
109,192,41841,1,0,0:0:0:0:
36,192,41916,1,0,0:0:0:0:
475,192,41916,1,0,0:0:0:0:
402,192,41991,1,0,0:0:0:0:
182,192,41991,1,0,0:0:0:0:
329,192,41991,1,0,0:0:0:0:
402,192,42066,1,0,0:0:0:0:
182,192,42066,1,0,0:0:0:0:
256,192,42141,1,0,0:0:0:0:
109,192,42216,1,0,0:0:0:0:
475,192,42291,1,0,0:0:0:0:
329,192,42291,1,0,0:0:0:0:
36,192,42291,1,0,0:0:0:0:
329,192,42366,1,0,0:0:0:0:
475,192,42366,1,0,0:0:0:0:
329,192,42441,1,0,0:0:0:0:
475,192,42441,1,0,0:0:0:0:
109,192,42516,1,0,0:0:0:0:
256,192,42516,1,0,0:0:0:0:
182,192,42591,1,0,0:0:0:0:
402,192,42591,1,0,0:0:0:0:
36,192,42591,1,0,0:0:0:0:
402,192,42666,1,0,0:0:0:0:
182,192,42666,1,0,0:0:0:0:
256,192,42741,1,0,0:0:0:0:
475,192,42816,1,0,0:0:0:0:
256,192,42891,1,0,0:0:0:0:
109,192,42891,1,0,0:0:0:0:
329,192,42891,1,0,0:0:0:0:
109,192,42966,1,0,0:0:0:0:
256,192,42966,1,0,0:0:0:0:
109,192,43041,1,0,0:0:0:0:
256,192,43041,1,0,0:0:0:0:
36,192,43116,1,0,0:0:0:0:
475,192,43116,1,0,0:0:0:0:
182,192,43191,1,0,0:0:0:0:
402,192,43191,1,0,0:0:0:0:
329,192,43191,1,0,0:0:0:0:
182,192,43266,1,0,0:0:0:0:
402,192,43266,1,0,0:0:0:0:
256,192,43341,1,0,0:0:0:0:
109,192,43416,1,0,0:0:0:0:
329,192,43491,1,0,0:0:0:0:
475,192,43491,1,0,0:0:0:0:
36,192,43491,1,0,0:0:0:0:
475,192,43566,1,0,0:0:0:0:
329,192,43566,1,0,0:0:0:0:
329,192,43641,1,0,0:0:0:0:
475,192,43641,1,0,0:0:0:0:
256,192,43716,1,0,0:0:0:0:
109,192,43716,1,0,0:0:0:0:
402,192,43791,1,0,0:0:0:0:
182,192,43791,1,0,0:0:0:0:
36,192,43791,1,0,0:0:0:0:
182,192,43866,1,0,0:0:0:0:
402,192,43941,1,0,0:0:0:0:
182,192,44016,1,0,0:0:0:0:
402,192,44016,1,0,0:0:0:0:
182,192,44091,1,0,0:0:0:0:
402,192,44166,1,0,0:0:0:0:
402,192,44241,1,0,0:0:0:0:
182,192,44241,1,0,0:0:0:0:
182,192,44316,1,0,0:0:0:0:
402,192,44391,1,0,0:0:0:0:
182,192,44466,1,0,0:0:0:0:
402,192,44466,1,0,0:0:0:0:
182,192,44541,1,0,0:0:0:0:
402,192,44616,1,0,0:0:0:0:
256,192,44691,1,0,0:0:0:0:
109,192,44691,1,0,0:0:0:0:
182,192,44691,1,0,0:0:0:0:
109,192,44766,1,0,0:0:0:0:
256,192,44766,1,0,0:0:0:0:
109,192,44841,1,0,0:0:0:0:
256,192,44841,1,0,0:0:0:0:
402,192,44916,1,0,0:0:0:0:
475,192,44916,1,0,0:0:0:0:
36,192,44991,1,0,0:0:0:0:
329,192,44991,1,0,0:0:0:0:
182,192,44991,1,0,0:0:0:0:
36,192,45066,1,0,0:0:0:0:
329,192,45066,1,0,0:0:0:0:
256,192,45141,1,0,0:0:0:0:
109,192,45216,1,0,0:0:0:0:
402,192,45291,1,0,0:0:0:0:
256,192,45291,1,0,0:0:0:0:
329,192,45291,1,0,0:0:0:0:
402,192,45366,1,0,0:0:0:0:
256,192,45366,1,0,0:0:0:0:
256,192,45441,1,0,0:0:0:0:
402,192,45441,1,0,0:0:0:0:
36,192,45516,1,0,0:0:0:0:
109,192,45516,1,0,0:0:0:0:
182,192,45591,1,0,0:0:0:0:
475,192,45591,1,0,0:0:0:0:
329,192,45591,1,0,0:0:0:0:
182,192,45666,1,0,0:0:0:0:
475,192,45666,1,0,0:0:0:0:
256,192,45741,1,0,0:0:0:0:
402,192,45816,1,0,0:0:0:0:
256,192,45891,1,0,0:0:0:0:
109,192,45891,1,0,0:0:0:0:
182,192,45891,1,0,0:0:0:0:
109,192,45966,1,0,0:0:0:0:
256,192,45966,1,0,0:0:0:0:
256,192,46041,1,0,0:0:0:0:
109,192,46041,1,0,0:0:0:0:
402,192,46116,1,0,0:0:0:0:
475,192,46116,1,0,0:0:0:0:
36,192,46191,1,0,0:0:0:0:
329,192,46191,1,0,0:0:0:0:
182,192,46191,1,0,0:0:0:0:
329,192,46266,1,0,0:0:0:0:
36,192,46266,1,0,0:0:0:0:
256,192,46341,1,0,0:0:0:0:
109,192,46416,1,0,0:0:0:0:
402,192,46491,1,0,0:0:0:0:
256,192,46491,1,0,0:0:0:0:
329,192,46491,1,0,0:0:0:0:
256,192,46566,1,0,0:0:0:0:
402,192,46566,1,0,0:0:0:0:
256,192,46641,1,0,0:0:0:0:
402,192,46641,1,0,0:0:0:0:
36,192,46716,1,0,0:0:0:0:
109,192,46716,1,0,0:0:0:0:
182,192,46791,1,0,0:0:0:0:
475,192,46791,1,0,0:0:0:0:
329,192,46791,1,0,0:0:0:0:
182,192,46866,1,0,0:0:0:0:
475,192,46866,1,0,0:0:0:0:
256,192,46941,1,0,0:0:0:0:
402,192,47016,1,0,0:0:0:0:
109,192,47091,1,0,0:0:0:0:
256,192,47091,1,0,0:0:0:0:
182,192,47091,1,0,0:0:0:0:
256,192,47166,1,0,0:0:0:0:
109,192,47166,1,0,0:0:0:0:
109,192,47241,1,0,0:0:0:0:
256,192,47241,1,0,0:0:0:0:
402,192,47316,1,0,0:0:0:0:
475,192,47316,1,0,0:0:0:0:
329,192,47391,1,0,0:0:0:0:
36,192,47391,1,0,0:0:0:0:
182,192,47391,1,0,0:0:0:0:
36,192,47466,1,0,0:0:0:0:
329,192,47466,1,0,0:0:0:0:
256,192,47541,1,0,0:0:0:0:
109,192,47616,1,0,0:0:0:0:
256,192,47691,1,0,0:0:0:0:
402,192,47691,1,0,0:0:0:0:
329,192,47691,1,0,0:0:0:0:
402,192,47766,1,0,0:0:0:0:
256,192,47766,1,0,0:0:0:0:
402,192,47841,1,0,0:0:0:0:
256,192,47841,1,0,0:0:0:0:
109,192,47916,1,0,0:0:0:0:
36,192,47916,1,0,0:0:0:0:
475,192,47991,1,0,0:0:0:0:
182,192,47991,1,0,0:0:0:0:
329,192,47991,1,0,0:0:0:0:
475,192,48066,1,0,0:0:0:0:
182,192,48066,1,0,0:0:0:0:
256,192,48141,1,0,0:0:0:0:
402,192,48216,1,0,0:0:0:0:
256,192,48291,1,0,0:0:0:0:
109,192,48291,1,0,0:0:0:0:
182,192,48291,1,0,0:0:0:0:
109,192,48366,1,0,0:0:0:0:
256,192,48366,1,0,0:0:0:0:
256,192,48441,1,0,0:0:0:0:
109,192,48441,1,0,0:0:0:0:
402,192,48516,1,0,0:0:0:0:
475,192,48516,1,0,0:0:0:0:
36,192,48591,1,0,0:0:0:0:
329,192,48591,1,0,0:0:0:0:
182,192,48591,1,0,0:0:0:0:
36,192,48666,1,0,0:0:0:0:
329,192,48741,1,0,0:0:0:0:
36,192,48816,1,0,0:0:0:0:
329,192,48816,1,0,0:0:0:0:
36,192,48891,1,0,0:0:0:0:
329,192,48966,1,0,0:0:0:0:
329,192,49041,1,0,0:0:0:0:
36,192,49041,1,0,0:0:0:0:
36,192,49116,1,0,0:0:0:0:
329,192,49191,1,0,0:0:0:0:
329,192,49266,1,0,0:0:0:0:
36,192,49266,1,0,0:0:0:0:
36,192,49341,1,0,0:0:0:0:
329,192,49416,1,0,0:0:0:0:
329,192,49491,1,0,0:0:0:0:
36,192,49491,1,0,0:0:0:0:
182,192,49491,1,0,0:0:0:0:
475,192,49491,1,0,0:0:0:0:
182,192,49791,1,0,0:0:0:0:
182,192,50091,1,0,0:0:0:0:
182,192,50391,1,0,0:0:0:0:
182,192,50691,1,0,0:0:0:0:
182,192,50991,1,0,0:0:0:0:
182,192,51291,1,0,0:0:0:0:
182,192,51591,1,0,0:0:0:0:
475,192,51891,1,0,0:0:0:0:
475,192,52191,1,0,0:0:0:0:
475,192,52491,1,0,0:0:0:0:
475,192,52791,1,0,0:0:0:0:
475,192,53091,1,0,0:0:0:0:
475,192,53391,1,0,0:0:0:0:
475,192,53691,1,0,0:0:0:0:
475,192,53991,1,0,0:0:0:0:
329,192,54291,1,0,0:0:0:0:
329,192,54591,1,0,0:0:0:0:
329,192,54891,1,0,0:0:0:0:
329,192,55191,1,0,0:0:0:0:
329,192,55491,1,0,0:0:0:0:
329,192,55791,1,0,0:0:0:0:
329,192,56091,1,0,0:0:0:0:
329,192,56391,1,0,0:0:0:0:
182,192,56691,1,0,0:0:0:0:
182,192,56991,1,0,0:0:0:0:
182,192,57291,1,0,0:0:0:0:
182,192,57591,1,0,0:0:0:0:
182,192,57891,1,0,0:0:0:0:
182,192,58191,1,0,0:0:0:0:
182,192,58491,1,0,0:0:0:0:
182,192,58791,1,0,0:0:0:0:
182,192,59091,1,0,0:0:0:0:
256,192,59091,1,0,0:0:0:0:
402,192,59091,1,0,0:0:0:0:
109,192,59091,1,0,0:0:0:0:
36,192,59091,1,0,0:0:0:0:
109,192,59241,1,0,0:0:0:0:
182,192,59241,1,0,0:0:0:0:
402,192,59241,1,0,0:0:0:0:
475,192,59241,1,0,0:0:0:0:
329,192,59241,1,0,0:0:0:0:
109,192,59391,1,0,0:0:0:0:
182,192,59391,1,0,0:0:0:0:
329,192,59391,1,0,0:0:0:0:
475,192,59391,1,0,0:0:0:0:
36,192,59391,1,0,0:0:0:0:
36,192,59541,1,0,0:0:0:0:
256,192,59541,1,0,0:0:0:0:
475,192,59541,1,0,0:0:0:0:
182,192,59541,1,0,0:0:0:0:
402,192,59541,1,0,0:0:0:0:
36,192,59691,1,0,0:0:0:0:
256,192,59691,1,0,0:0:0:0:
402,192,59691,1,0,0:0:0:0:
109,192,59691,1,0,0:0:0:0:
475,192,59691,1,0,0:0:0:0:
36,192,59841,1,0,0:0:0:0:
475,192,59841,1,0,0:0:0:0:
109,192,59841,1,0,0:0:0:0:
329,192,59841,1,0,0:0:0:0:
256,192,59841,1,0,0:0:0:0:
329,192,59991,1,0,0:0:0:0:
475,192,59991,1,0,0:0:0:0:
36,192,59991,1,0,0:0:0:0:
182,192,59991,1,0,0:0:0:0:
402,192,59991,1,0,0:0:0:0:
36,192,60141,1,0,0:0:0:0:
182,192,60141,1,0,0:0:0:0:
402,192,60141,1,0,0:0:0:0:
109,192,60141,1,0,0:0:0:0:
329,192,60141,1,0,0:0:0:0:
109,192,60291,1,0,0:0:0:0:
329,192,60291,1,0,0:0:0:0:
256,192,60291,1,0,0:0:0:0:
475,192,60291,1,0,0:0:0:0:
402,192,60291,1,0,0:0:0:0:
182,192,60441,1,0,0:0:0:0:
402,192,60441,1,0,0:0:0:0:
475,192,60441,1,0,0:0:0:0:
109,192,60441,1,0,0:0:0:0:
256,192,60441,1,0,0:0:0:0:
329,192,60591,1,0,0:0:0:0:
256,192,60591,1,0,0:0:0:0:
36,192,60591,1,0,0:0:0:0:
182,192,60591,1,0,0:0:0:0:
402,192,60591,1,0,0:0:0:0:
36,192,60741,1,0,0:0:0:0:
182,192,60741,1,0,0:0:0:0:
475,192,60741,1,0,0:0:0:0:
329,192,60741,1,0,0:0:0:0:
256,192,60741,1,0,0:0:0:0:
109,192,60891,1,0,0:0:0:0:
182,192,60891,1,0,0:0:0:0:
256,192,60891,1,0,0:0:0:0:
329,192,60891,1,0,0:0:0:0:
36,192,60891,1,0,0:0:0:0:
109,192,60966,1,0,0:0:0:0:
182,192,60966,1,0,0:0:0:0:
256,192,60966,1,0,0:0:0:0:
329,192,60966,1,0,0:0:0:0:
36,192,60966,1,0,0:0:0:0:
329,192,61041,1,0,0:0:0:0:
256,192,61041,1,0,0:0:0:0:
182,192,61041,1,0,0:0:0:0:
109,192,61041,1,0,0:0:0:0:
36,192,61041,1,0,0:0:0:0:
182,192,61191,1,0,0:0:0:0:
256,192,61191,1,0,0:0:0:0:
402,192,61191,1,0,0:0:0:0:
475,192,61191,1,0,0:0:0:0:
329,192,61191,1,0,0:0:0:0:
475,192,61266,1,0,0:0:0:0:
402,192,61266,1,0,0:0:0:0:
182,192,61266,1,0,0:0:0:0:
329,192,61266,1,0,0:0:0:0:
256,192,61266,1,0,0:0:0:0:
402,192,61341,1,0,0:0:0:0:
475,192,61341,1,0,0:0:0:0:
329,192,61341,1,0,0:0:0:0:
256,192,61341,1,0,0:0:0:0:
182,192,61341,1,0,0:0:0:0:
329,192,61491,1,0,0:0:0:0:
109,192,61491,1,0,0:0:0:0:
475,192,61491,1,0,0:0:0:0:
256,192,61491,1,0,0:0:0:0:
402,192,61491,1,0,0:0:0:0:
109,192,61641,1,0,0:0:0:0:
36,192,61641,1,0,0:0:0:0:
182,192,61641,1,0,0:0:0:0:
329,192,61641,1,0,0:0:0:0:
402,192,61641,1,0,0:0:0:0:
329,192,61791,1,0,0:0:0:0:
36,192,61791,1,0,0:0:0:0:
402,192,61791,1,0,0:0:0:0:
182,192,61791,1,0,0:0:0:0:
475,192,61791,1,0,0:0:0:0:
475,192,61941,1,0,0:0:0:0:
329,192,61941,1,0,0:0:0:0:
256,192,61941,1,0,0:0:0:0:
36,192,61941,1,0,0:0:0:0:
109,192,61941,1,0,0:0:0:0:
475,192,62091,1,0,0:0:0:0:
256,192,62091,1,0,0:0:0:0:
402,192,62091,1,0,0:0:0:0:
109,192,62091,1,0,0:0:0:0:
36,192,62091,1,0,0:0:0:0:
256,192,62241,1,0,0:0:0:0:
402,192,62241,1,0,0:0:0:0:
475,192,62241,1,0,0:0:0:0:
182,192,62241,1,0,0:0:0:0:
36,192,62241,1,0,0:0:0:0:
109,192,62391,1,0,0:0:0:0:
475,192,62391,1,0,0:0:0:0:
36,192,62391,1,0,0:0:0:0:
182,192,62391,1,0,0:0:0:0:
329,192,62391,1,0,0:0:0:0:
329,192,62541,1,0,0:0:0:0:
475,192,62541,1,0,0:0:0:0:
402,192,62541,1,0,0:0:0:0:
182,192,62541,1,0,0:0:0:0:
109,192,62541,1,0,0:0:0:0:
256,192,62691,1,0,0:0:0:0:
109,192,62691,1,0,0:0:0:0:
402,192,62691,1,0,0:0:0:0:
36,192,62691,1,0,0:0:0:0:
182,192,62691,1,0,0:0:0:0:
36,192,62841,1,0,0:0:0:0:
256,192,62841,1,0,0:0:0:0:
109,192,62841,1,0,0:0:0:0:
329,192,62841,1,0,0:0:0:0:
402,192,62841,1,0,0:0:0:0:
182,192,62991,1,0,0:0:0:0:
109,192,62991,1,0,0:0:0:0:
475,192,62991,1,0,0:0:0:0:
329,192,62991,1,0,0:0:0:0:
256,192,62991,1,0,0:0:0:0:
182,192,63141,1,0,0:0:0:0:
256,192,63141,1,0,0:0:0:0:
329,192,63141,1,0,0:0:0:0:
36,192,63141,1,0,0:0:0:0:
475,192,63141,1,0,0:0:0:0:
182,192,63291,1,0,0:0:0:0:
475,192,63291,1,0,0:0:0:0:
402,192,63291,1,0,0:0:0:0:
329,192,63291,1,0,0:0:0:0:
256,192,63291,1,0,0:0:0:0:
329,192,63366,1,0,0:0:0:0:
402,192,63366,1,0,0:0:0:0:
256,192,63366,1,0,0:0:0:0:
475,192,63366,1,0,0:0:0:0:
182,192,63366,1,0,0:0:0:0:
256,192,63441,1,0,0:0:0:0:
402,192,63441,1,0,0:0:0:0:
182,192,63441,1,0,0:0:0:0:
475,192,63441,1,0,0:0:0:0:
329,192,63441,1,0,0:0:0:0:
109,192,63591,1,0,0:0:0:0:
329,192,63591,1,0,0:0:0:0:
182,192,63591,1,0,0:0:0:0:
36,192,63591,1,0,0:0:0:0:
256,192,63591,1,0,0:0:0:0:
36,192,63666,1,0,0:0:0:0:
256,192,63666,1,0,0:0:0:0:
329,192,63666,1,0,0:0:0:0:
109,192,63666,1,0,0:0:0:0:
182,192,63666,1,0,0:0:0:0:
109,192,63741,1,0,0:0:0:0:
182,192,63741,1,0,0:0:0:0:
36,192,63741,1,0,0:0:0:0:
256,192,63741,1,0,0:0:0:0:
329,192,63741,1,0,0:0:0:0:
256,192,63891,1,0,0:0:0:0:
109,192,63891,1,0,0:0:0:0:
36,192,63891,1,0,0:0:0:0:
182,192,63891,1,0,0:0:0:0:
402,192,63891,1,0,0:0:0:0:
182,192,64041,1,0,0:0:0:0:
109,192,64041,1,0,0:0:0:0:
329,192,64041,1,0,0:0:0:0:
402,192,64041,1,0,0:0:0:0:
475,192,64041,1,0,0:0:0:0:
329,192,64191,1,0,0:0:0:0:
36,192,64191,1,0,0:0:0:0:
109,192,64191,1,0,0:0:0:0:
182,192,64191,1,0,0:0:0:0:
475,192,64191,1,0,0:0:0:0:
475,192,64341,1,0,0:0:0:0:
402,192,64341,1,0,0:0:0:0:
256,192,64341,1,0,0:0:0:0:
36,192,64341,1,0,0:0:0:0:
182,192,64341,1,0,0:0:0:0:
402,192,64491,1,0,0:0:0:0:
475,192,64491,1,0,0:0:0:0:
109,192,64491,1,0,0:0:0:0:
36,192,64491,1,0,0:0:0:0:
256,192,64491,1,0,0:0:0:0:
329,192,64641,1,0,0:0:0:0:
475,192,64641,1,0,0:0:0:0:
36,192,64641,1,0,0:0:0:0:
256,192,64641,1,0,0:0:0:0:
109,192,64641,1,0,0:0:0:0:
329,192,64791,1,0,0:0:0:0:
182,192,64791,1,0,0:0:0:0:
475,192,64791,1,0,0:0:0:0:
402,192,64791,1,0,0:0:0:0:
36,192,64791,1,0,0:0:0:0:
329,192,64941,1,0,0:0:0:0:
402,192,64941,1,0,0:0:0:0:
109,192,64941,1,0,0:0:0:0:
182,192,64941,1,0,0:0:0:0:
36,192,64941,1,0,0:0:0:0:
475,192,65091,1,0,0:0:0:0:
329,192,65091,1,0,0:0:0:0:
109,192,65091,1,0,0:0:0:0:
256,192,65091,1,0,0:0:0:0:
402,192,65091,1,0,0:0:0:0:
182,192,65241,1,0,0:0:0:0:
109,192,65241,1,0,0:0:0:0:
402,192,65241,1,0,0:0:0:0:
475,192,65241,1,0,0:0:0:0:
256,192,65241,1,0,0:0:0:0:
182,192,65391,1,0,0:0:0:0:
256,192,65391,1,0,0:0:0:0:
36,192,65391,1,0,0:0:0:0:
329,192,65391,1,0,0:0:0:0:
402,192,65391,1,0,0:0:0:0:
475,192,65541,1,0,0:0:0:0:
36,192,65541,1,0,0:0:0:0:
182,192,65541,1,0,0:0:0:0:
329,192,65541,1,0,0:0:0:0:
256,192,65541,1,0,0:0:0:0:
182,192,65691,1,0,0:0:0:0:
256,192,65691,1,0,0:0:0:0:
109,192,65691,1,0,0:0:0:0:
329,192,65691,1,0,0:0:0:0:
36,192,65691,1,0,0:0:0:0:
36,192,65766,1,0,0:0:0:0:
329,192,65766,1,0,0:0:0:0:
256,192,65766,1,0,0:0:0:0:
182,192,65766,1,0,0:0:0:0:
109,192,65766,1,0,0:0:0:0:
36,192,65841,1,0,0:0:0:0:
182,192,65841,1,0,0:0:0:0:
329,192,65841,1,0,0:0:0:0:
256,192,65841,1,0,0:0:0:0:
109,192,65841,1,0,0:0:0:0:
475,192,65991,1,0,0:0:0:0:
256,192,65991,1,0,0:0:0:0:
329,192,65991,1,0,0:0:0:0:
402,192,65991,1,0,0:0:0:0:
182,192,65991,1,0,0:0:0:0:
402,192,66066,1,0,0:0:0:0:
329,192,66066,1,0,0:0:0:0:
182,192,66066,1,0,0:0:0:0:
475,192,66066,1,0,0:0:0:0:
256,192,66066,1,0,0:0:0:0:
256,192,66141,1,0,0:0:0:0:
182,192,66141,1,0,0:0:0:0:
475,192,66141,1,0,0:0:0:0:
402,192,66141,1,0,0:0:0:0:
329,192,66141,1,0,0:0:0:0:
329,192,66291,1,0,0:0:0:0:
109,192,66291,1,0,0:0:0:0:
475,192,66291,1,0,0:0:0:0:
256,192,66291,1,0,0:0:0:0:
402,192,66291,1,0,0:0:0:0:
109,192,66441,1,0,0:0:0:0:
36,192,66441,1,0,0:0:0:0:
182,192,66441,1,0,0:0:0:0:
329,192,66441,1,0,0:0:0:0:
402,192,66441,1,0,0:0:0:0:
329,192,66591,1,0,0:0:0:0:
36,192,66591,1,0,0:0:0:0:
402,192,66591,1,0,0:0:0:0:
182,192,66591,1,0,0:0:0:0:
475,192,66591,1,0,0:0:0:0:
475,192,66741,1,0,0:0:0:0:
329,192,66741,1,0,0:0:0:0:
256,192,66741,1,0,0:0:0:0:
36,192,66741,1,0,0:0:0:0:
109,192,66741,1,0,0:0:0:0:
475,192,66891,1,0,0:0:0:0:
256,192,66891,1,0,0:0:0:0:
402,192,66891,1,0,0:0:0:0:
109,192,66891,1,0,0:0:0:0:
36,192,66891,1,0,0:0:0:0:
256,192,67041,1,0,0:0:0:0:
402,192,67041,1,0,0:0:0:0:
475,192,67041,1,0,0:0:0:0:
182,192,67041,1,0,0:0:0:0:
36,192,67041,1,0,0:0:0:0:
109,192,67191,1,0,0:0:0:0:
475,192,67191,1,0,0:0:0:0:
36,192,67191,1,0,0:0:0:0:
182,192,67191,1,0,0:0:0:0:
329,192,67191,1,0,0:0:0:0:
329,192,67341,1,0,0:0:0:0:
475,192,67341,1,0,0:0:0:0:
402,192,67341,1,0,0:0:0:0:
182,192,67341,1,0,0:0:0:0:
109,192,67341,1,0,0:0:0:0:
256,192,67491,1,0,0:0:0:0:
109,192,67491,1,0,0:0:0:0:
402,192,67491,1,0,0:0:0:0:
36,192,67491,1,0,0:0:0:0:
182,192,67491,1,0,0:0:0:0:
329,192,67566,1,0,0:0:0:0:
475,192,67566,1,0,0:0:0:0:
402,192,67641,1,0,0:0:0:0:
256,192,67641,1,0,0:0:0:0:
182,192,67641,1,0,0:0:0:0:
36,192,67641,1,0,0:0:0:0:
109,192,67716,1,0,0:0:0:0:
329,192,67716,1,0,0:0:0:0:
475,192,67716,1,0,0:0:0:0:
256,192,67791,1,0,0:0:0:0:
182,192,67791,1,0,0:0:0:0:
36,192,67791,1,0,0:0:0:0:
402,192,67791,1,0,0:0:0:0:
109,192,67866,1,0,0:0:0:0:
329,192,67866,1,0,0:0:0:0:
256,192,67941,1,0,0:0:0:0:
182,192,67941,1,0,0:0:0:0:
36,192,67941,1,0,0:0:0:0:
475,192,67941,1,0,0:0:0:0:
109,192,68016,1,0,0:0:0:0:
329,192,68016,1,0,0:0:0:0:
36,192,68091,1,0,0:0:0:0:
182,192,68091,1,0,0:0:0:0:
256,192,68091,1,0,0:0:0:0:
402,192,68091,1,0,0:0:0:0:
475,192,68691,1,0,0:0:0:0:
36,192,68691,1,0,0:0:0:0:
109,192,68691,1,0,0:0:0:0:
402,192,68766,1,0,0:0:0:0:
329,192,68841,1,0,0:0:0:0:
256,192,68916,1,0,0:0:0:0:
182,192,68991,1,0,0:0:0:0:
475,192,68991,1,0,0:0:0:0:
329,192,68991,1,0,0:0:0:0:
109,192,69066,1,0,0:0:0:0:
402,192,69066,1,0,0:0:0:0:
36,192,69141,1,0,0:0:0:0:
329,192,69141,1,0,0:0:0:0:
475,192,69141,1,0,0:0:0:0:
256,192,69216,1,0,0:0:0:0:
402,192,69216,1,0,0:0:0:0:
109,192,69216,1,0,0:0:0:0:
182,192,69291,1,0,0:0:0:0:
329,192,69291,1,0,0:0:0:0:
109,192,69366,1,0,0:0:0:0:
256,192,69366,1,0,0:0:0:0:
36,192,69441,1,0,0:0:0:0:
182,192,69441,1,0,0:0:0:0:
475,192,69441,1,0,0:0:0:0:
329,192,69441,1,0,0:0:0:0:
109,192,69516,1,0,0:0:0:0:
402,192,69516,1,0,0:0:0:0:
36,192,69591,1,0,0:0:0:0:
329,192,69591,1,0,0:0:0:0:
256,192,69666,1,0,0:0:0:0:
109,192,69666,1,0,0:0:0:0:
182,192,69741,1,0,0:0:0:0:
109,192,69816,1,0,0:0:0:0:
475,192,69891,1,0,0:0:0:0:
36,192,69891,1,0,0:0:0:0:
329,192,69891,1,0,0:0:0:0:
402,192,69966,1,0,0:0:0:0:
109,192,69966,1,0,0:0:0:0:
329,192,70041,1,0,0:0:0:0:
182,192,70041,1,0,0:0:0:0:
256,192,70116,1,0,0:0:0:0:
182,192,70191,1,0,0:0:0:0:
109,192,70266,1,0,0:0:0:0:
475,192,70341,1,0,0:0:0:0:
36,192,70341,1,0,0:0:0:0:
329,192,70341,1,0,0:0:0:0:
402,192,70416,1,0,0:0:0:0:
109,192,70416,1,0,0:0:0:0:
329,192,70491,1,0,0:0:0:0:
182,192,70491,1,0,0:0:0:0:
256,192,70566,1,0,0:0:0:0:
182,192,70641,1,0,0:0:0:0:
109,192,70716,1,0,0:0:0:0:
475,192,70791,1,0,0:0:0:0:
36,192,70791,1,0,0:0:0:0:
329,192,70791,1,0,0:0:0:0:
402,192,70866,1,0,0:0:0:0:
109,192,70866,1,0,0:0:0:0:
475,192,70941,1,0,0:0:0:0:
329,192,70941,1,0,0:0:0:0:
182,192,70941,1,0,0:0:0:0:
256,192,71016,1,0,0:0:0:0:
402,192,71016,1,0,0:0:0:0:
182,192,71091,1,0,0:0:0:0:
329,192,71091,1,0,0:0:0:0:
109,192,71166,1,0,0:0:0:0:
256,192,71166,1,0,0:0:0:0:
36,192,71241,1,0,0:0:0:0:
182,192,71241,1,0,0:0:0:0:
109,192,71316,1,0,0:0:0:0:
475,192,71391,1,0,0:0:0:0:
36,192,71391,1,0,0:0:0:0:
329,192,71391,1,0,0:0:0:0:
402,192,71466,1,0,0:0:0:0:
109,192,71466,1,0,0:0:0:0:
329,192,71541,1,0,0:0:0:0:
182,192,71541,1,0,0:0:0:0:
256,192,71616,1,0,0:0:0:0:
182,192,71691,1,0,0:0:0:0:
109,192,71766,1,0,0:0:0:0:
475,192,71841,1,0,0:0:0:0:
36,192,71841,1,0,0:0:0:0:
329,192,71841,1,0,0:0:0:0:
402,192,71916,1,0,0:0:0:0:
109,192,71916,1,0,0:0:0:0:
329,192,71991,1,0,0:0:0:0:
182,192,71991,1,0,0:0:0:0:
256,192,72066,1,0,0:0:0:0:
182,192,72141,1,0,0:0:0:0:
109,192,72216,1,0,0:0:0:0:
475,192,72291,1,0,0:0:0:0:
36,192,72291,1,0,0:0:0:0:
329,192,72291,1,0,0:0:0:0:
402,192,72366,1,0,0:0:0:0:
109,192,72366,1,0,0:0:0:0:
329,192,72441,1,0,0:0:0:0:
182,192,72441,1,0,0:0:0:0:
256,192,72516,1,0,0:0:0:0:
182,192,72591,1,0,0:0:0:0:
256,192,72628,1,0,0:0:0:0:
109,192,72666,1,0,0:0:0:0:
329,192,72666,1,0,0:0:0:0:
402,192,72703,1,0,0:0:0:0:
36,192,72741,1,0,0:0:0:0:
475,192,72741,1,0,0:0:0:0:
402,192,72778,1,0,0:0:0:0:
109,192,72816,1,0,0:0:0:0:
329,192,72816,1,0,0:0:0:0:
256,192,72853,1,0,0:0:0:0:
475,192,72891,1,0,0:0:0:0:
182,192,72891,1,0,0:0:0:0:
36,192,72891,1,0,0:0:0:0:
402,192,72966,1,0,0:0:0:0:
256,192,72966,1,0,0:0:0:0:
475,192,73041,1,0,0:0:0:0:
329,192,73041,1,0,0:0:0:0:
36,192,73041,1,0,0:0:0:0:
182,192,73041,1,0,0:0:0:0:
256,192,73116,1,0,0:0:0:0:
402,192,73116,1,0,0:0:0:0:
182,192,73191,1,0,0:0:0:0:
329,192,73191,1,0,0:0:0:0:
109,192,73266,1,0,0:0:0:0:
256,192,73266,1,0,0:0:0:0:
36,192,73341,1,0,0:0:0:0:
182,192,73341,1,0,0:0:0:0:
109,192,73416,1,0,0:0:0:0:
36,192,73491,1,0,0:0:0:0:
329,192,73491,1,0,0:0:0:0:
475,192,73491,1,0,0:0:0:0:
402,192,73566,1,0,0:0:0:0:
329,192,73641,1,0,0:0:0:0:
475,192,73641,1,0,0:0:0:0:
402,192,73716,1,0,0:0:0:0:
329,192,73791,1,0,0:0:0:0:
475,192,73791,1,0,0:0:0:0:
256,192,73791,1,0,0:0:0:0:
109,192,73791,1,0,0:0:0:0:
36,192,73791,1,0,0:0:0:0:
402,192,73866,1,0,0:0:0:0:
329,192,73941,1,0,0:0:0:0:
475,192,73941,1,0,0:0:0:0:
402,192,74016,1,0,0:0:0:0:
329,192,74091,1,0,0:0:0:0:
475,192,74091,1,0,0:0:0:0:
402,192,74166,1,0,0:0:0:0:
329,192,74241,1,0,0:0:0:0:
475,192,74241,1,0,0:0:0:0:
256,192,74241,1,0,0:0:0:0:
182,192,74241,1,0,0:0:0:0:
36,192,74241,1,0,0:0:0:0:
402,192,74316,1,0,0:0:0:0:
329,192,74391,1,0,0:0:0:0:
475,192,74391,1,0,0:0:0:0:
402,192,74466,1,0,0:0:0:0:
329,192,74541,1,0,0:0:0:0:
475,192,74541,1,0,0:0:0:0:
402,192,74616,1,0,0:0:0:0:
329,192,74691,1,0,0:0:0:0:
182,192,74691,1,0,0:0:0:0:
109,192,74691,1,0,0:0:0:0:
475,192,74691,1,0,0:0:0:0:
256,192,74766,1,0,0:0:0:0:
182,192,74841,1,0,0:0:0:0:
329,192,74841,1,0,0:0:0:0:
256,192,74916,1,0,0:0:0:0:
182,192,74991,1,0,0:0:0:0:
329,192,74991,1,0,0:0:0:0:
475,192,74991,1,0,0:0:0:0:
402,192,74991,1,0,0:0:0:0:
109,192,74991,1,0,0:0:0:0:
256,192,75066,1,0,0:0:0:0:
182,192,75141,1,0,0:0:0:0:
329,192,75141,1,0,0:0:0:0:
402,192,75141,1,0,0:0:0:0:
109,192,75141,1,0,0:0:0:0:
36,192,75141,1,0,0:0:0:0:
256,192,75216,1,0,0:0:0:0:
182,192,75291,1,0,0:0:0:0:
329,192,75291,1,0,0:0:0:0:
256,192,75366,1,0,0:0:0:0:
182,192,75441,1,0,0:0:0:0:
329,192,75441,1,0,0:0:0:0:
256,192,75516,1,0,0:0:0:0:
182,192,75591,1,0,0:0:0:0:
329,192,75591,1,0,0:0:0:0:
402,192,75591,1,0,0:0:0:0:
109,192,75591,1,0,0:0:0:0:
36,192,75591,1,0,0:0:0:0:
256,192,75666,1,0,0:0:0:0:
182,192,75741,1,0,0:0:0:0:
329,192,75741,1,0,0:0:0:0:
402,192,75741,1,0,0:0:0:0:
475,192,75741,1,0,0:0:0:0:
109,192,75741,1,0,0:0:0:0:
256,192,75816,1,0,0:0:0:0:
182,192,75891,1,0,0:0:0:0:
36,192,75891,1,0,0:0:0:0:
109,192,75966,1,0,0:0:0:0:
182,192,76041,1,0,0:0:0:0:
36,192,76041,1,0,0:0:0:0:
256,192,76041,1,0,0:0:0:0:
402,192,76041,1,0,0:0:0:0:
475,192,76041,1,0,0:0:0:0:
109,192,76116,1,0,0:0:0:0:
36,192,76191,1,0,0:0:0:0:
182,192,76191,1,0,0:0:0:0:
475,192,76191,1,0,0:0:0:0:
256,192,76191,1,0,0:0:0:0:
329,192,76191,1,0,0:0:0:0:
109,192,76266,1,0,0:0:0:0:
36,192,76341,1,0,0:0:0:0:
182,192,76341,1,0,0:0:0:0:
109,192,76416,1,0,0:0:0:0:
36,192,76491,1,0,0:0:0:0:
182,192,76491,1,0,0:0:0:0:
329,192,76491,1,0,0:0:0:0:
402,192,76491,1,0,0:0:0:0:
475,192,76491,1,0,0:0:0:0:
109,192,76566,1,0,0:0:0:0:
182,192,76641,1,0,0:0:0:0:
36,192,76641,1,0,0:0:0:0:
475,192,76641,1,0,0:0:0:0:
402,192,76641,1,0,0:0:0:0:
256,192,76641,1,0,0:0:0:0:
109,192,76716,1,0,0:0:0:0:
182,192,76791,1,0,0:0:0:0:
36,192,76791,1,0,0:0:0:0:
256,192,76791,1,0,0:0:0:0:
329,192,76791,1,0,0:0:0:0:
475,192,76791,1,0,0:0:0:0:
109,192,76866,1,0,0:0:0:0:
36,192,76941,1,0,0:0:0:0:
182,192,76941,1,0,0:0:0:0:
256,192,76941,1,0,0:0:0:0:
329,192,76941,1,0,0:0:0:0:
402,192,76941,1,0,0:0:0:0:
109,192,77016,1,0,0:0:0:0:
182,192,77091,1,0,0:0:0:0:
329,192,77091,1,0,0:0:0:0:
475,192,77091,1,0,0:0:0:0:
36,192,77091,1,0,0:0:0:0:
256,192,77166,1,0,0:0:0:0:
182,192,77241,1,0,0:0:0:0:
475,192,77241,1,0,0:0:0:0:
402,192,77241,1,0,0:0:0:0:
36,192,77241,1,0,0:0:0:0:
109,192,77241,1,0,0:0:0:0:
256,192,77316,1,0,0:0:0:0:
329,192,77391,1,0,0:0:0:0:
402,192,77391,1,0,0:0:0:0:
475,192,77391,1,0,0:0:0:0:
109,192,77391,1,0,0:0:0:0:
36,192,77391,1,0,0:0:0:0:
256,192,77466,1,0,0:0:0:0:
329,192,77541,1,0,0:0:0:0:
182,192,77541,1,0,0:0:0:0:
475,192,77541,1,0,0:0:0:0:
402,192,77541,1,0,0:0:0:0:
36,192,77541,1,0,0:0:0:0:
256,192,77616,1,0,0:0:0:0:
329,192,77691,1,0,0:0:0:0:
182,192,77691,1,0,0:0:0:0:
109,192,77691,1,0,0:0:0:0:
402,192,77691,1,0,0:0:0:0:
475,192,77691,1,0,0:0:0:0:
256,192,77766,1,0,0:0:0:0:
329,192,77841,1,0,0:0:0:0:
256,192,77916,1,0,0:0:0:0:
182,192,77991,1,0,0:0:0:0:
256,192,78066,1,0,0:0:0:0:
329,192,78141,1,0,0:0:0:0:
256,192,78216,1,0,0:0:0:0:
475,192,78291,1,0,0:0:0:0:
36,192,78291,1,0,0:0:0:0:
109,192,78291,1,0,0:0:0:0:
182,192,78291,1,0,0:0:0:0:
329,192,78291,1,0,0:0:0:0:
402,192,78291,1,0,0:0:0:0:
329,192,80391,1,0,0:0:0:0:
402,192,80391,1,0,0:0:0:0:
475,192,80391,1,0,0:0:0:0:
36,192,80391,1,0,0:0:0:0:
182,192,80391,1,0,0:0:0:0:
109,192,80391,1,0,0:0:0:0:
475,192,80541,1,0,0:0:0:0:
402,192,80541,1,0,0:0:0:0:
329,192,80541,1,0,0:0:0:0:
182,192,80541,1,0,0:0:0:0:
109,192,80541,1,0,0:0:0:0:
36,192,80541,1,0,0:0:0:0:
256,192,81816,1,0,0:0:0:0:
256,192,82941,1,0,0:0:0:0:
329,192,82941,1,0,0:0:0:0:
402,192,82941,1,0,0:0:0:0:
475,192,82941,1,0,0:0:0:0:
109,192,82941,1,0,0:0:0:0:
182,192,82941,1,0,0:0:0:0:
475,192,83091,1,0,0:0:0:0:
402,192,83091,1,0,0:0:0:0:
329,192,83091,1,0,0:0:0:0:
256,192,83091,1,0,0:0:0:0:
182,192,83091,1,0,0:0:0:0:
109,192,83091,1,0,0:0:0:0:
402,192,84141,1,0,0:0:0:0:
329,192,84141,1,0,0:0:0:0:
256,192,84141,1,0,0:0:0:0:
182,192,84141,1,0,0:0:0:0:
36,192,84141,1,0,0:0:0:0:
109,192,84141,1,0,0:0:0:0:
36,192,84216,1,0,0:0:0:0:
109,192,84216,1,0,0:0:0:0:
182,192,84216,1,0,0:0:0:0:
256,192,84216,1,0,0:0:0:0:
329,192,84216,1,0,0:0:0:0:
402,192,84216,1,0,0:0:0:0:
36,192,84291,1,0,0:0:0:0:
182,192,84291,1,0,0:0:0:0:
109,192,84291,1,0,0:0:0:0:
256,192,84291,1,0,0:0:0:0:
329,192,84291,1,0,0:0:0:0:
402,192,84291,1,0,0:0:0:0:
109,192,85341,1,0,0:0:0:0:
182,192,85341,1,0,0:0:0:0:
329,192,85341,1,0,0:0:0:0:
475,192,85341,1,0,0:0:0:0:
402,192,85341,1,0,0:0:0:0:
256,192,85341,1,0,0:0:0:0:
109,192,85416,1,0,0:0:0:0:
182,192,85416,1,0,0:0:0:0:
329,192,85416,1,0,0:0:0:0:
402,192,85416,1,0,0:0:0:0:
475,192,85416,1,0,0:0:0:0:
256,192,85416,1,0,0:0:0:0:
109,192,85491,1,0,0:0:0:0:
182,192,85491,1,0,0:0:0:0:
329,192,85491,1,0,0:0:0:0:
402,192,85491,1,0,0:0:0:0:
475,192,85491,1,0,0:0:0:0:
256,192,85491,1,0,0:0:0:0:
475,192,85641,1,0,0:0:0:0:
402,192,85641,1,0,0:0:0:0:
329,192,85641,1,0,0:0:0:0:
182,192,85641,1,0,0:0:0:0:
109,192,85641,1,0,0:0:0:0:
256,192,85641,1,0,0:0:0:0:
402,192,85941,1,0,0:0:0:0:
329,192,85941,1,0,0:0:0:0:
256,192,85941,1,0,0:0:0:0:
182,192,85941,1,0,0:0:0:0:
109,192,85941,1,0,0:0:0:0:
36,192,85941,1,0,0:0:0:0:
402,192,86016,1,0,0:0:0:0:
256,192,86016,1,0,0:0:0:0:
182,192,86016,1,0,0:0:0:0:
36,192,86016,1,0,0:0:0:0:
109,192,86016,1,0,0:0:0:0:
329,192,86016,1,0,0:0:0:0:
36,192,86091,1,0,0:0:0:0:
109,192,86091,1,0,0:0:0:0:
329,192,86091,1,0,0:0:0:0:
402,192,86091,1,0,0:0:0:0:
256,192,86091,1,0,0:0:0:0:
182,192,86091,1,0,0:0:0:0:
402,192,86166,1,0,0:0:0:0:
256,192,86166,1,0,0:0:0:0:
182,192,86166,1,0,0:0:0:0:
36,192,86166,1,0,0:0:0:0:
109,192,86166,1,0,0:0:0:0:
329,192,86166,1,0,0:0:0:0:
402,192,86241,1,0,0:0:0:0:
329,192,86241,1,0,0:0:0:0:
256,192,86241,1,0,0:0:0:0:
109,192,86241,1,0,0:0:0:0:
182,192,86241,1,0,0:0:0:0:
36,192,86241,1,0,0:0:0:0:
402,192,86541,1,0,0:0:0:0:
329,192,86541,1,0,0:0:0:0:
256,192,86541,1,0,0:0:0:0:
182,192,86541,1,0,0:0:0:0:
109,192,86541,1,0,0:0:0:0:
36,192,86541,1,0,0:0:0:0:
256,192,86691,1,0,0:0:0:0:
475,192,86691,1,0,0:0:0:0:
256,192,86841,1,0,0:0:0:0:
475,192,86841,1,0,0:0:0:0:
256,192,86991,1,0,0:0:0:0:
475,192,86991,1,0,0:0:0:0:
256,192,87141,1,0,0:0:0:0:
475,192,87141,1,0,0:0:0:0:
256,192,87291,1,0,0:0:0:0:
475,192,87291,1,0,0:0:0:0:
256,192,87441,1,0,0:0:0:0:
475,192,87441,1,0,0:0:0:0:
256,192,87591,1,0,0:0:0:0:
475,192,87591,1,0,0:0:0:0:
256,192,87741,1,0,0:0:0:0:
475,192,87741,1,0,0:0:0:0:
475,192,87891,1,0,0:0:0:0:
256,192,87891,1,0,0:0:0:0:
36,192,87891,1,0,0:0:0:0:
402,192,87966,1,0,0:0:0:0:
182,192,87966,1,0,0:0:0:0:
329,192,88041,1,0,0:0:0:0:
109,192,88041,1,0,0:0:0:0:
256,192,88116,1,0,0:0:0:0:
36,192,88116,1,0,0:0:0:0:
182,192,88191,1,0,0:0:0:0:
329,192,88191,1,0,0:0:0:0:
475,192,88191,1,0,0:0:0:0:
402,192,88266,1,0,0:0:0:0:
256,192,88266,1,0,0:0:0:0:
182,192,88341,1,0,0:0:0:0:
329,192,88341,1,0,0:0:0:0:
475,192,88341,1,0,0:0:0:0:
402,192,88416,1,0,0:0:0:0:
109,192,88416,1,0,0:0:0:0:
475,192,88491,1,0,0:0:0:0:
256,192,88491,1,0,0:0:0:0:
36,192,88491,1,0,0:0:0:0:
182,192,88566,1,0,0:0:0:0:
402,192,88566,1,0,0:0:0:0:
329,192,88641,1,0,0:0:0:0:
109,192,88641,1,0,0:0:0:0:
36,192,88716,1,0,0:0:0:0:
256,192,88716,1,0,0:0:0:0:
182,192,88791,1,0,0:0:0:0:
475,192,88791,1,0,0:0:0:0:
329,192,88791,1,0,0:0:0:0:
402,192,88866,1,0,0:0:0:0:
256,192,88866,1,0,0:0:0:0:
182,192,88941,1,0,0:0:0:0:
475,192,88941,1,0,0:0:0:0:
329,192,88941,1,0,0:0:0:0:
402,192,89016,1,0,0:0:0:0:
109,192,89016,1,0,0:0:0:0:
475,192,89091,1,0,0:0:0:0:
256,192,89091,1,0,0:0:0:0:
36,192,89091,1,0,0:0:0:0:
182,192,89166,1,0,0:0:0:0:
402,192,89166,1,0,0:0:0:0:
109,192,89241,1,0,0:0:0:0:
329,192,89241,1,0,0:0:0:0:
36,192,89316,1,0,0:0:0:0:
256,192,89316,1,0,0:0:0:0:
475,192,89391,1,0,0:0:0:0:
182,192,89391,1,0,0:0:0:0:
329,192,89391,1,0,0:0:0:0:
402,192,89466,1,0,0:0:0:0:
256,192,89466,1,0,0:0:0:0:
475,192,89541,1,0,0:0:0:0:
182,192,89541,1,0,0:0:0:0:
329,192,89541,1,0,0:0:0:0:
109,192,89616,1,0,0:0:0:0:
402,192,89616,1,0,0:0:0:0:
475,192,89691,1,0,0:0:0:0:
256,192,89691,1,0,0:0:0:0:
36,192,89691,1,0,0:0:0:0:
182,192,89766,1,0,0:0:0:0:
402,192,89766,1,0,0:0:0:0:
329,192,89841,1,0,0:0:0:0:
109,192,89841,1,0,0:0:0:0:
256,192,89916,1,0,0:0:0:0:
36,192,89916,1,0,0:0:0:0:
475,192,89991,1,0,0:0:0:0:
329,192,89991,1,0,0:0:0:0:
182,192,89991,1,0,0:0:0:0:
256,192,90066,1,0,0:0:0:0:
402,192,90066,1,0,0:0:0:0:
182,192,90141,1,0,0:0:0:0:
329,192,90141,1,0,0:0:0:0:
475,192,90141,1,0,0:0:0:0:
402,192,90216,1,0,0:0:0:0:
109,192,90216,1,0,0:0:0:0:
256,192,90291,1,0,0:0:0:0:
475,192,90291,1,0,0:0:0:0:
36,192,90291,1,0,0:0:0:0:
402,192,90366,1,0,0:0:0:0:
182,192,90366,1,0,0:0:0:0:
329,192,90441,1,0,0:0:0:0:
109,192,90441,1,0,0:0:0:0:
256,192,90516,1,0,0:0:0:0:
36,192,90516,1,0,0:0:0:0:
329,192,90591,1,0,0:0:0:0:
182,192,90591,1,0,0:0:0:0:
475,192,90591,1,0,0:0:0:0:
256,192,90666,1,0,0:0:0:0:
402,192,90666,1,0,0:0:0:0:
329,192,90741,1,0,0:0:0:0:
182,192,90741,1,0,0:0:0:0:
475,192,90741,1,0,0:0:0:0:
402,192,90816,1,0,0:0:0:0:
109,192,90816,1,0,0:0:0:0:
256,192,90891,1,0,0:0:0:0:
475,192,90891,1,0,0:0:0:0:
36,192,90891,1,0,0:0:0:0:
402,192,90966,1,0,0:0:0:0:
182,192,90966,1,0,0:0:0:0:
109,192,91041,1,0,0:0:0:0:
329,192,91041,1,0,0:0:0:0:
36,192,91116,1,0,0:0:0:0:
256,192,91116,1,0,0:0:0:0:
182,192,91191,1,0,0:0:0:0:
329,192,91191,1,0,0:0:0:0:
475,192,91191,1,0,0:0:0:0:
402,192,91266,1,0,0:0:0:0:
256,192,91266,1,0,0:0:0:0:
475,192,91341,1,0,0:0:0:0:
329,192,91341,1,0,0:0:0:0:
182,192,91341,1,0,0:0:0:0:
109,192,91416,1,0,0:0:0:0:
402,192,91416,1,0,0:0:0:0:
475,192,91491,1,0,0:0:0:0:
256,192,91491,1,0,0:0:0:0:
36,192,91491,1,0,0:0:0:0:
182,192,91566,1,0,0:0:0:0:
402,192,91566,1,0,0:0:0:0:
109,192,91641,1,0,0:0:0:0:
329,192,91641,1,0,0:0:0:0:
36,192,91716,1,0,0:0:0:0:
256,192,91716,1,0,0:0:0:0:
475,192,91791,1,0,0:0:0:0:
182,192,91791,1,0,0:0:0:0:
329,192,91791,1,0,0:0:0:0:
402,192,91866,1,0,0:0:0:0:
256,192,91866,1,0,0:0:0:0:
475,192,91941,1,0,0:0:0:0:
182,192,91941,1,0,0:0:0:0:
329,192,91941,1,0,0:0:0:0:
109,192,92016,1,0,0:0:0:0:
402,192,92016,1,0,0:0:0:0:
475,192,92091,1,0,0:0:0:0:
256,192,92091,1,0,0:0:0:0:
36,192,92091,1,0,0:0:0:0:
182,192,92166,1,0,0:0:0:0:
402,192,92166,1,0,0:0:0:0:
329,192,92241,1,0,0:0:0:0:
109,192,92241,1,0,0:0:0:0:
256,192,92316,1,0,0:0:0:0:
36,192,92316,1,0,0:0:0:0:
475,192,92391,1,0,0:0:0:0:
329,192,92391,1,0,0:0:0:0:
182,192,92391,1,0,0:0:0:0:
256,192,92466,1,0,0:0:0:0:
402,192,92466,1,0,0:0:0:0:
182,192,92541,1,0,0:0:0:0:
329,192,92541,1,0,0:0:0:0:
475,192,92541,1,0,0:0:0:0:
402,192,92616,1,0,0:0:0:0:
109,192,92616,1,0,0:0:0:0:
36,192,92691,1,0,0:0:0:0:
329,192,92691,1,0,0:0:0:0:
182,192,92691,1,0,0:0:0:0:
256,192,92766,1,0,0:0:0:0:
109,192,92766,1,0,0:0:0:0:
475,192,92766,1,0,0:0:0:0:
182,192,92841,1,0,0:0:0:0:
36,192,92841,1,0,0:0:0:0:
402,192,92841,1,0,0:0:0:0:
109,192,92916,1,0,0:0:0:0:
256,192,92916,1,0,0:0:0:0:
329,192,92991,1,0,0:0:0:0:
475,192,92991,1,0,0:0:0:0:
182,192,92991,1,0,0:0:0:0:
36,192,92991,1,0,0:0:0:0:
256,192,93066,1,0,0:0:0:0:
402,192,93066,1,0,0:0:0:0:
109,192,93141,1,0,0:0:0:0:
329,192,93141,1,0,0:0:0:0:
256,192,93216,1,0,0:0:0:0:
402,192,93216,1,0,0:0:0:0:
329,192,93291,1,0,0:0:0:0:
182,192,93291,1,0,0:0:0:0:
475,192,93291,1,0,0:0:0:0:
109,192,93366,1,0,0:0:0:0:
256,192,93366,1,0,0:0:0:0:
402,192,93366,1,0,0:0:0:0:
36,192,93441,1,0,0:0:0:0:
182,192,93441,1,0,0:0:0:0:
475,192,93441,1,0,0:0:0:0:
256,192,93516,1,0,0:0:0:0:
109,192,93516,1,0,0:0:0:0:
402,192,93516,1,0,0:0:0:0:
329,192,93591,1,0,0:0:0:0:
182,192,93591,1,0,0:0:0:0:
475,192,93591,1,0,0:0:0:0:
256,192,93666,1,0,0:0:0:0:
402,192,93666,1,0,0:0:0:0:
109,192,93741,1,0,0:0:0:0:
329,192,93741,1,0,0:0:0:0:
256,192,93816,1,0,0:0:0:0:
402,192,93816,1,0,0:0:0:0:
36,192,93816,1,0,0:0:0:0:
182,192,93891,1,0,0:0:0:0:
329,192,93891,1,0,0:0:0:0:
109,192,93966,1,0,0:0:0:0:
256,192,93966,1,0,0:0:0:0:
475,192,93966,1,0,0:0:0:0:
36,192,94041,1,0,0:0:0:0:
182,192,94041,1,0,0:0:0:0:
402,192,94041,1,0,0:0:0:0:
256,192,94116,1,0,0:0:0:0:
109,192,94116,1,0,0:0:0:0:
182,192,94191,1,0,0:0:0:0:
329,192,94191,1,0,0:0:0:0:
475,192,94191,1,0,0:0:0:0:
36,192,94191,1,0,0:0:0:0:
402,192,94266,1,0,0:0:0:0:
256,192,94266,1,0,0:0:0:0:
329,192,94341,1,0,0:0:0:0:
109,192,94341,1,0,0:0:0:0:
256,192,94416,1,0,0:0:0:0:
402,192,94416,1,0,0:0:0:0:
329,192,94491,1,0,0:0:0:0:
182,192,94491,1,0,0:0:0:0:
475,192,94491,1,0,0:0:0:0:
256,192,94566,1,0,0:0:0:0:
109,192,94566,1,0,0:0:0:0:
402,192,94566,1,0,0:0:0:0:
182,192,94641,1,0,0:0:0:0:
36,192,94641,1,0,0:0:0:0:
475,192,94641,1,0,0:0:0:0:
109,192,94716,1,0,0:0:0:0:
256,192,94716,1,0,0:0:0:0:
402,192,94716,1,0,0:0:0:0:
475,192,94791,1,0,0:0:0:0:
329,192,94791,1,0,0:0:0:0:
182,192,94791,1,0,0:0:0:0:
256,192,94866,1,0,0:0:0:0:
402,192,94866,1,0,0:0:0:0:
109,192,94941,1,0,0:0:0:0:
329,192,94941,1,0,0:0:0:0:
402,192,95016,1,0,0:0:0:0:
256,192,95016,1,0,0:0:0:0:
36,192,95016,1,0,0:0:0:0:
182,192,95091,1,0,0:0:0:0:
329,192,95091,1,0,0:0:0:0:
109,192,95166,1,0,0:0:0:0:
256,192,95166,1,0,0:0:0:0:
475,192,95166,1,0,0:0:0:0:
36,192,95241,1,0,0:0:0:0:
182,192,95241,1,0,0:0:0:0:
402,192,95241,1,0,0:0:0:0:
256,192,95316,1,0,0:0:0:0:
109,192,95316,1,0,0:0:0:0:
182,192,95391,1,0,0:0:0:0:
329,192,95391,1,0,0:0:0:0:
475,192,95391,1,0,0:0:0:0:
36,192,95391,1,0,0:0:0:0:
402,192,95466,1,0,0:0:0:0:
256,192,95466,1,0,0:0:0:0:
329,192,95541,1,0,0:0:0:0:
109,192,95541,1,0,0:0:0:0:
256,192,95616,1,0,0:0:0:0:
402,192,95616,1,0,0:0:0:0:
329,192,95691,1,0,0:0:0:0:
182,192,95691,1,0,0:0:0:0:
475,192,95691,1,0,0:0:0:0:
256,192,95766,1,0,0:0:0:0:
109,192,95766,1,0,0:0:0:0:
402,192,95766,1,0,0:0:0:0:
182,192,95841,1,0,0:0:0:0:
36,192,95841,1,0,0:0:0:0:
475,192,95841,1,0,0:0:0:0:
109,192,95916,1,0,0:0:0:0:
256,192,95916,1,0,0:0:0:0:
402,192,95916,1,0,0:0:0:0:
475,192,95991,1,0,0:0:0:0:
329,192,95991,1,0,0:0:0:0:
182,192,95991,1,0,0:0:0:0:
256,192,96066,1,0,0:0:0:0:
402,192,96066,1,0,0:0:0:0:
109,192,96141,1,0,0:0:0:0:
329,192,96141,1,0,0:0:0:0:
402,192,96216,1,0,0:0:0:0:
256,192,96216,1,0,0:0:0:0:
36,192,96216,1,0,0:0:0:0:
182,192,96291,1,0,0:0:0:0:
329,192,96291,1,0,0:0:0:0:
109,192,96366,1,0,0:0:0:0:
256,192,96366,1,0,0:0:0:0:
475,192,96366,1,0,0:0:0:0:
329,192,96366,1,0,0:0:0:0:
36,192,96441,1,0,0:0:0:0:
182,192,96441,1,0,0:0:0:0:
402,192,96441,1,0,0:0:0:0:
256,192,96516,1,0,0:0:0:0:
109,192,96516,1,0,0:0:0:0:
182,192,96591,1,0,0:0:0:0:
329,192,96591,1,0,0:0:0:0:
475,192,96591,1,0,0:0:0:0:
36,192,96591,1,0,0:0:0:0:
402,192,96666,1,0,0:0:0:0:
256,192,96666,1,0,0:0:0:0:
36,192,96666,1,0,0:0:0:0:
329,192,96741,1,0,0:0:0:0:
109,192,96741,1,0,0:0:0:0:
256,192,96816,1,0,0:0:0:0:
402,192,96816,1,0,0:0:0:0:
329,192,96891,1,0,0:0:0:0:
182,192,96891,1,0,0:0:0:0:
256,192,96966,1,0,0:0:0:0:
109,192,96966,1,0,0:0:0:0:
402,192,96966,1,0,0:0:0:0:
329,192,96966,1,0,0:0:0:0:
182,192,97041,1,0,0:0:0:0:
36,192,97041,1,0,0:0:0:0:
475,192,97041,1,0,0:0:0:0:
109,192,97116,1,0,0:0:0:0:
256,192,97116,1,0,0:0:0:0:
402,192,97116,1,0,0:0:0:0:
475,192,97191,1,0,0:0:0:0:
329,192,97191,1,0,0:0:0:0:
182,192,97191,1,0,0:0:0:0:
36,192,97191,1,0,0:0:0:0:
256,192,97266,1,0,0:0:0:0:
402,192,97266,1,0,0:0:0:0:
36,192,97266,1,0,0:0:0:0:
475,192,97266,1,0,0:0:0:0:
109,192,97341,1,0,0:0:0:0:
329,192,97341,1,0,0:0:0:0:
402,192,97416,1,0,0:0:0:0:
256,192,97416,1,0,0:0:0:0:
329,192,97491,1,0,0:0:0:0:
109,192,97491,1,0,0:0:0:0:
36,192,97491,1,0,0:0:0:0:
182,192,97491,1,0,0:0:0:0:
475,192,97491,1,0,0:0:0:0:
256,192,97491,1,0,0:0:0:0:
