osu file format v14

[General]
AudioFilename: audio.mp3
AudioLeadIn: 0
PreviewTime: -1
Countdown: 0
SampleSet: Normal
StackLeniency: 0.7
Mode: 3
LetterboxInBreaks: 0
SpecialStyle: 0
WidescreenStoryboard: 0

[Editor]
Bookmarks: 108380
DistanceSpacing: 1.3
BeatDivisor: 3
GridSize: 4
TimelineZoom: 0.9

[Metadata]
Title:Coco Jambo
TitleUnicode:Coco Jambo
Artist:Mr. President
ArtistUnicode:Mr. President
Creator:LordTimeWaste
Version:Coco Jambo
Source:
Tags:
BeatmapID:1737255
BeatmapSetID:823841

[Difficulty]
HPDrainRate:8
CircleSize:4
OverallDifficulty:8
ApproachRate:5
SliderMultiplier:1.4
SliderTickRate:1

[Events]
//Background and Video events
0,0,"pBPcDpeDb8HfN6a6nMTcmR.jpg",0,0
//Break Periods
//Storyboard Layer 0 (Background)
//Storyboard Layer 1 (Fail)
//Storyboard Layer 2 (Pass)
//Storyboard Layer 3 (Foreground)
//Storyboard Sound Samples

[TimingPoints]
1880,600,4,1,0,20,1,0

[HitObjects]
320,192,1880,5,0,0:0:0:0:
64,192,1880,1,0,0:0:0:0:
320,192,2030,1,0,0:0:0:0:
192,192,2180,1,0,0:0:0:0:
448,192,2180,1,0,0:0:0:0:
192,192,2330,1,0,0:0:0:0:
64,192,2480,1,0,0:0:0:0:
448,192,2480,1,0,0:0:0:0:
320,192,2480,1,0,0:0:0:0:
64,192,2630,1,0,0:0:0:0:
448,192,2780,1,0,0:0:0:0:
192,192,2780,1,0,0:0:0:0:
448,192,2930,1,0,0:0:0:0:
320,192,3080,1,0,0:0:0:0:
192,192,3080,1,0,0:0:0:0:
320,192,3230,1,0,0:0:0:0:
64,192,3380,1,0,0:0:0:0:
448,192,3380,1,0,0:0:0:0:
64,192,3530,1,0,0:0:0:0:
192,192,3680,1,0,0:0:0:0:
448,192,3680,1,0,0:0:0:0:
320,192,3680,1,0,0:0:0:0:
192,192,3830,1,0,0:0:0:0:
448,192,3980,1,0,0:0:0:0:
64,192,3980,1,0,0:0:0:0:
448,192,4130,1,0,0:0:0:0:
192,192,4280,1,0,0:0:0:0:
320,192,4280,1,0,0:0:0:0:
192,192,4430,1,0,0:0:0:0:
320,192,4580,1,0,0:0:0:0:
64,192,4580,1,0,0:0:0:0:
320,192,4730,1,0,0:0:0:0:
192,192,4880,1,0,0:0:0:0:
448,192,4880,1,0,0:0:0:0:
64,192,4880,1,0,0:0:0:0:
448,192,5030,1,0,0:0:0:0:
64,192,5180,1,0,0:0:0:0:
320,192,5180,1,0,0:0:0:0:
64,192,5330,1,0,0:0:0:0:
192,192,5480,1,0,0:0:0:0:
448,192,5480,1,0,0:0:0:0:
448,192,5630,1,0,0:0:0:0:
320,192,5780,1,0,0:0:0:0:
64,192,5780,1,0,0:0:0:0:
320,192,5930,1,0,0:0:0:0:
64,192,6080,1,0,0:0:0:0:
448,192,6080,1,0,0:0:0:0:
192,192,6080,1,0,0:0:0:0:
64,192,6230,1,0,0:0:0:0:
192,192,6380,1,0,0:0:0:0:
320,192,6380,1,0,0:0:0:0:
192,192,6530,1,0,0:0:0:0:
448,192,6680,1,0,0:0:0:0:
64,192,6680,1,0,0:0:0:0:
320,192,6730,1,0,0:0:0:0:
192,192,6780,1,0,0:0:0:0:
64,192,6830,1,0,0:0:0:0:
192,192,6880,1,0,0:0:0:0:
320,192,6930,1,0,0:0:0:0:
448,192,6980,1,0,0:0:0:0:
192,192,7030,1,0,0:0:0:0:
64,192,7080,1,0,0:0:0:0:
448,192,7130,1,0,0:0:0:0:
320,192,7130,1,0,0:0:0:0:
192,192,7180,1,0,0:0:0:0:
64,192,7230,1,0,0:0:0:0:
320,192,7280,1,0,0:0:0:0:
448,192,7330,1,0,0:0:0:0:
192,192,7380,1,0,0:0:0:0:
64,192,7430,1,0,0:0:0:0:
448,192,7480,1,0,0:0:0:0:
320,192,7530,1,0,0:0:0:0:
192,192,7580,1,0,0:0:0:0:
64,192,7580,1,0,0:0:0:0:
448,192,7630,1,0,0:0:0:0:
320,192,7680,1,0,0:0:0:0:
192,192,7730,1,0,0:0:0:0:
448,192,7780,1,0,0:0:0:0:
64,192,7830,1,0,0:0:0:0:
192,192,7880,1,0,0:0:0:0:
320,192,7880,1,0,0:0:0:0:
448,192,7930,1,0,0:0:0:0:
64,192,7980,1,0,0:0:0:0:
192,192,8030,1,0,0:0:0:0:
320,192,8080,1,0,0:0:0:0:
448,192,8130,1,0,0:0:0:0:
64,192,8180,1,0,0:0:0:0:
192,192,8230,1,0,0:0:0:0:
320,192,8280,1,0,0:0:0:0:
448,192,8330,1,0,0:0:0:0:
320,192,8380,1,0,0:0:0:0:
192,192,8430,1,0,0:0:0:0:
64,192,8480,1,0,0:0:0:0:
448,192,8480,1,0,0:0:0:0:
320,192,8530,1,0,0:0:0:0:
192,192,8580,1,0,0:0:0:0:
64,192,8630,1,0,0:0:0:0:
192,192,8680,1,0,0:0:0:0:
320,192,8730,1,0,0:0:0:0:
448,192,8780,1,0,0:0:0:0:
64,192,8830,1,0,0:0:0:0:
192,192,8880,1,0,0:0:0:0:
320,192,8930,1,0,0:0:0:0:
448,192,8980,1,0,0:0:0:0:
320,192,9030,1,0,0:0:0:0:
64,192,9080,1,0,0:0:0:0:
192,192,9080,1,0,0:0:0:0:
448,192,9130,1,0,0:0:0:0:
320,192,9180,1,0,0:0:0:0:
192,192,9230,1,0,0:0:0:0:
64,192,9280,1,0,0:0:0:0:
192,192,9330,1,0,0:0:0:0:
320,192,9380,1,0,0:0:0:0:
448,192,9430,1,0,0:0:0:0:
64,192,9480,1,0,0:0:0:0:
192,192,9530,1,0,0:0:0:0:
448,192,9530,1,0,0:0:0:0:
320,192,9580,1,0,0:0:0:0:
192,192,9630,1,0,0:0:0:0:
64,192,9680,1,0,0:0:0:0:
320,192,9730,1,0,0:0:0:0:
448,192,9780,1,0,0:0:0:0:
64,192,9830,1,0,0:0:0:0:
192,192,9880,1,0,0:0:0:0:
320,192,9930,1,0,0:0:0:0:
448,192,9980,1,0,0:0:0:0:
64,192,9980,1,0,0:0:0:0:
192,192,10030,1,0,0:0:0:0:
320,192,10080,1,0,0:0:0:0:
448,192,10130,1,0,0:0:0:0:
192,192,10180,1,0,0:0:0:0:
320,192,10230,1,0,0:0:0:0:
448,192,10280,1,0,0:0:0:0:
64,192,10280,1,0,0:0:0:0:
64,192,10430,1,0,0:0:0:0:
192,192,10580,1,0,0:0:0:0:
448,192,10580,1,0,0:0:0:0:
448,192,10730,1,0,0:0:0:0:
64,192,10880,1,0,0:0:0:0:
320,192,10880,1,0,0:0:0:0:
192,192,10880,1,0,0:0:0:0:
192,192,11030,1,0,0:0:0:0:
320,192,11180,1,0,0:0:0:0:
448,192,11180,1,0,0:0:0:0:
320,192,11330,1,0,0:0:0:0:
64,192,11480,1,0,0:0:0:0:
192,192,11480,1,0,0:0:0:0:
320,192,11480,1,0,0:0:0:0:
448,192,11480,1,0,0:0:0:0:
192,192,11630,1,0,0:0:0:0:
64,192,11780,1,0,0:0:0:0:
320,192,11780,1,0,0:0:0:0:
448,192,11780,1,0,0:0:0:0:
448,192,11930,1,0,0:0:0:0:
192,192,11930,1,0,0:0:0:0:
64,192,12080,1,0,0:0:0:0:
192,192,12080,1,0,0:0:0:0:
320,192,12080,1,0,0:0:0:0:
448,192,12080,1,0,0:0:0:0:
320,192,12230,1,0,0:0:0:0:
192,192,12380,1,0,0:0:0:0:
448,192,12380,1,0,0:0:0:0:
64,192,12380,1,0,0:0:0:0:
64,192,12530,1,0,0:0:0:0:
192,192,12680,1,0,0:0:0:0:
320,192,12680,1,0,0:0:0:0:
448,192,12680,1,0,0:0:0:0:
64,192,12680,1,0,0:0:0:0:
320,192,12830,1,0,0:0:0:0:
192,192,12980,1,0,0:0:0:0:
64,192,12980,1,0,0:0:0:0:
448,192,12980,1,0,0:0:0:0:
64,192,13130,1,0,0:0:0:0:
192,192,13130,1,0,0:0:0:0:
64,192,13280,1,0,0:0:0:0:
192,192,13280,1,0,0:0:0:0:
320,192,13280,1,0,0:0:0:0:
448,192,13280,1,0,0:0:0:0:
320,192,13430,1,0,0:0:0:0:
448,192,13580,1,0,0:0:0:0:
192,192,13580,1,0,0:0:0:0:
64,192,13580,1,0,0:0:0:0:
448,192,13730,1,0,0:0:0:0:
448,192,13880,1,0,0:0:0:0:
320,192,13880,1,0,0:0:0:0:
192,192,13880,1,0,0:0:0:0:
64,192,13880,1,0,0:0:0:0:
320,192,14030,1,0,0:0:0:0:
448,192,14180,1,0,0:0:0:0:
192,192,14180,1,0,0:0:0:0:
64,192,14180,1,0,0:0:0:0:
64,192,14330,1,0,0:0:0:0:
320,192,14330,1,0,0:0:0:0:
448,192,14480,1,0,0:0:0:0:
320,192,14480,1,0,0:0:0:0:
192,192,14480,1,0,0:0:0:0:
64,192,14480,1,0,0:0:0:0:
192,192,14630,1,0,0:0:0:0:
320,192,14780,1,0,0:0:0:0:
64,192,14780,1,0,0:0:0:0:
448,192,14780,1,0,0:0:0:0:
448,192,14930,1,0,0:0:0:0:
320,192,15080,1,0,0:0:0:0:
192,192,15080,1,0,0:0:0:0:
64,192,15080,1,0,0:0:0:0:
448,192,15080,1,0,0:0:0:0:
192,192,15230,1,0,0:0:0:0:
320,192,15380,1,0,0:0:0:0:
448,192,15380,1,0,0:0:0:0:
64,192,15380,1,0,0:0:0:0:
448,192,15530,1,0,0:0:0:0:
320,192,15530,1,0,0:0:0:0:
448,192,15680,1,0,0:0:0:0:
320,192,15680,1,0,0:0:0:0:
192,192,15680,1,0,0:0:0:0:
64,192,15680,1,0,0:0:0:0:
192,192,15830,1,0,0:0:0:0:
64,192,15980,1,0,0:0:0:0:
320,192,15980,1,0,0:0:0:0:
448,192,15980,1,0,0:0:0:0:
64,192,16130,1,0,0:0:0:0:
448,192,16280,1,0,0:0:0:0:
192,192,16280,1,0,0:0:0:0:
320,192,16330,1,0,0:0:0:0:
64,192,16380,1,0,0:0:0:0:
192,192,16430,1,0,0:0:0:0:
320,192,16480,1,0,0:0:0:0:
448,192,16530,1,0,0:0:0:0:
320,192,16580,1,0,0:0:0:0:
192,192,16630,1,0,0:0:0:0:
64,192,16680,1,0,0:0:0:0:
448,192,16730,1,0,0:0:0:0:
320,192,16730,1,0,0:0:0:0:
192,192,16780,1,0,0:0:0:0:
64,192,16830,1,0,0:0:0:0:
320,192,16880,1,0,0:0:0:0:
448,192,16930,1,0,0:0:0:0:
192,192,16980,1,0,0:0:0:0:
64,192,17030,1,0,0:0:0:0:
448,192,17080,1,0,0:0:0:0:
320,192,17130,1,0,0:0:0:0:
192,192,17180,1,0,0:0:0:0:
64,192,17180,1,0,0:0:0:0:
448,192,17230,1,0,0:0:0:0:
320,192,17280,1,0,0:0:0:0:
192,192,17330,1,0,0:0:0:0:
448,192,17380,1,0,0:0:0:0:
64,192,17430,1,0,0:0:0:0:
192,192,17480,1,0,0:0:0:0:
320,192,17480,1,0,0:0:0:0:
448,192,17530,1,0,0:0:0:0:
64,192,17580,1,0,0:0:0:0:
192,192,17630,1,0,0:0:0:0:
320,192,17680,1,0,0:0:0:0:
448,192,17730,1,0,0:0:0:0:
64,192,17780,1,0,0:0:0:0:
192,192,17830,1,0,0:0:0:0:
320,192,17880,1,0,0:0:0:0:
448,192,17930,1,0,0:0:0:0:
320,192,17980,1,0,0:0:0:0:
192,192,18030,1,0,0:0:0:0:
64,192,18080,1,0,0:0:0:0:
448,192,18080,1,0,0:0:0:0:
320,192,18130,1,0,0:0:0:0:
192,192,18180,1,0,0:0:0:0:
64,192,18230,1,0,0:0:0:0:
192,192,18280,1,0,0:0:0:0:
320,192,18330,1,0,0:0:0:0:
448,192,18380,1,0,0:0:0:0:
64,192,18430,1,0,0:0:0:0:
192,192,18480,1,0,0:0:0:0:
320,192,18530,1,0,0:0:0:0:
448,192,18580,1,0,0:0:0:0:
320,192,18630,1,0,0:0:0:0:
64,192,18680,1,0,0:0:0:0:
192,192,18680,1,0,0:0:0:0:
448,192,18730,1,0,0:0:0:0:
320,192,18780,1,0,0:0:0:0:
192,192,18830,1,0,0:0:0:0:
64,192,18880,1,0,0:0:0:0:
192,192,18930,1,0,0:0:0:0:
320,192,18980,1,0,0:0:0:0:
448,192,19030,1,0,0:0:0:0:
64,192,19080,1,0,0:0:0:0:
192,192,19130,1,0,0:0:0:0:
448,192,19130,1,0,0:0:0:0:
320,192,19180,1,0,0:0:0:0:
192,192,19230,1,0,0:0:0:0:
64,192,19280,1,0,0:0:0:0:
320,192,19330,1,0,0:0:0:0:
448,192,19380,1,0,0:0:0:0:
64,192,19430,1,0,0:0:0:0:
192,192,19480,1,0,0:0:0:0:
320,192,19530,1,0,0:0:0:0:
448,192,19580,1,0,0:0:0:0:
64,192,19580,1,0,0:0:0:0:
192,192,19630,1,0,0:0:0:0:
320,192,19680,1,0,0:0:0:0:
448,192,19730,1,0,0:0:0:0:
192,192,19780,1,0,0:0:0:0:
320,192,19830,1,0,0:0:0:0:
448,192,19880,1,0,0:0:0:0:
64,192,19880,1,0,0:0:0:0:
192,192,20030,1,0,0:0:0:0:
320,192,20030,1,0,0:0:0:0:
64,192,20180,1,0,0:0:0:0:
448,192,20180,1,0,0:0:0:0:
192,192,20330,1,0,0:0:0:0:
320,192,20330,1,0,0:0:0:0:
64,192,20480,128,0,20780:0:0:0:0:
448,192,20480,128,0,20780:0:0:0:0:
192,192,20780,128,0,21080:0:0:0:0:
320,192,20780,128,0,21080:0:0:0:0:
64,192,21080,1,0,0:0:0:0:
448,192,21080,1,0,0:0:0:0:
64,192,21230,1,0,0:0:0:0:
192,192,21380,1,0,0:0:0:0:
320,192,21380,1,0,0:0:0:0:
448,192,21380,1,0,0:0:0:0:
64,192,21530,1,0,0:0:0:0:
320,192,21530,1,0,0:0:0:0:
64,192,21680,1,0,0:0:0:0:
320,192,21680,1,0,0:0:0:0:
448,192,21680,1,0,0:0:0:0:
192,192,21680,1,0,0:0:0:0:
192,192,21830,1,0,0:0:0:0:
192,192,21980,1,0,0:0:0:0:
320,192,21980,1,0,0:0:0:0:
448,192,21980,1,0,0:0:0:0:
320,192,22130,1,0,0:0:0:0:
448,192,22130,1,0,0:0:0:0:
192,192,22280,1,0,0:0:0:0:
64,192,22280,1,0,0:0:0:0:
320,192,22280,1,0,0:0:0:0:
448,192,22280,1,0,0:0:0:0:
64,192,22430,1,0,0:0:0:0:
192,192,22580,1,0,0:0:0:0:
320,192,22580,1,0,0:0:0:0:
448,192,22580,1,0,0:0:0:0:
320,192,22730,1,0,0:0:0:0:
64,192,22730,1,0,0:0:0:0:
192,192,22880,1,0,0:0:0:0:
320,192,22880,1,0,0:0:0:0:
448,192,22880,1,0,0:0:0:0:
64,192,22880,1,0,0:0:0:0:
192,192,23030,1,0,0:0:0:0:
64,192,23180,1,0,0:0:0:0:
320,192,23180,1,0,0:0:0:0:
448,192,23180,1,0,0:0:0:0:
320,192,23330,1,0,0:0:0:0:
448,192,23480,1,0,0:0:0:0:
64,192,23480,1,0,0:0:0:0:
192,192,23480,1,0,0:0:0:0:
320,192,23480,1,0,0:0:0:0:
448,192,23630,1,0,0:0:0:0:
64,192,23780,1,0,0:0:0:0:
320,192,23780,1,0,0:0:0:0:
192,192,23780,1,0,0:0:0:0:
448,192,23930,1,0,0:0:0:0:
64,192,23930,1,0,0:0:0:0:
192,192,24080,1,0,0:0:0:0:
320,192,24080,1,0,0:0:0:0:
448,192,24080,1,0,0:0:0:0:
64,192,24080,1,0,0:0:0:0:
320,192,24230,1,0,0:0:0:0:
192,192,24380,1,0,0:0:0:0:
320,192,24380,1,0,0:0:0:0:
64,192,24380,1,0,0:0:0:0:
192,192,24530,1,0,0:0:0:0:
64,192,24530,1,0,0:0:0:0:
64,192,24680,1,0,0:0:0:0:
192,192,24680,1,0,0:0:0:0:
320,192,24680,1,0,0:0:0:0:
448,192,24680,1,0,0:0:0:0:
320,192,24830,1,0,0:0:0:0:
64,192,24980,1,0,0:0:0:0:
192,192,24980,1,0,0:0:0:0:
448,192,24980,1,0,0:0:0:0:
320,192,25130,1,0,0:0:0:0:
64,192,25130,1,0,0:0:0:0:
64,192,25280,1,0,0:0:0:0:
192,192,25280,1,0,0:0:0:0:
320,192,25280,1,0,0:0:0:0:
448,192,25280,1,0,0:0:0:0:
192,192,25430,1,0,0:0:0:0:
64,192,25580,1,0,0:0:0:0:
320,192,25580,1,0,0:0:0:0:
448,192,25580,1,0,0:0:0:0:
320,192,25730,1,0,0:0:0:0:
64,192,25880,1,0,0:0:0:0:
192,192,25880,1,0,0:0:0:0:
448,192,25880,1,0,0:0:0:0:
320,192,25880,1,0,0:0:0:0:
192,192,26030,1,0,0:0:0:0:
64,192,26180,1,0,0:0:0:0:
320,192,26180,1,0,0:0:0:0:
448,192,26180,1,0,0:0:0:0:
448,192,26330,1,0,0:0:0:0:
192,192,26330,1,0,0:0:0:0:
448,192,26480,1,0,0:0:0:0:
320,192,26480,1,0,0:0:0:0:
192,192,26480,1,0,0:0:0:0:
64,192,26480,1,0,0:0:0:0:
192,192,26630,1,0,0:0:0:0:
64,192,26780,1,0,0:0:0:0:
320,192,26780,1,0,0:0:0:0:
448,192,26780,1,0,0:0:0:0:
448,192,26930,1,0,0:0:0:0:
320,192,26930,1,0,0:0:0:0:
64,192,27080,1,0,0:0:0:0:
192,192,27080,1,0,0:0:0:0:
448,192,27080,1,0,0:0:0:0:
320,192,27080,1,0,0:0:0:0:
192,192,27230,1,0,0:0:0:0:
64,192,27380,1,0,0:0:0:0:
320,192,27380,1,0,0:0:0:0:
448,192,27380,1,0,0:0:0:0:
192,192,27530,1,0,0:0:0:0:
448,192,27530,1,0,0:0:0:0:
64,192,27680,1,0,0:0:0:0:
192,192,27680,1,0,0:0:0:0:
448,192,27680,1,0,0:0:0:0:
320,192,27680,1,0,0:0:0:0:
64,192,27830,1,0,0:0:0:0:
320,192,27830,1,0,0:0:0:0:
192,192,27980,1,0,0:0:0:0:
448,192,27980,1,0,0:0:0:0:
64,192,27980,1,0,0:0:0:0:
448,192,28130,1,0,0:0:0:0:
192,192,28130,1,0,0:0:0:0:
64,192,28280,1,0,0:0:0:0:
192,192,28280,1,0,0:0:0:0:
320,192,28280,1,0,0:0:0:0:
448,192,28280,1,0,0:0:0:0:
64,192,28430,1,0,0:0:0:0:
320,192,28430,1,0,0:0:0:0:
320,192,28580,1,0,0:0:0:0:
448,192,28580,1,0,0:0:0:0:
192,192,28580,1,0,0:0:0:0:
64,192,28730,1,0,0:0:0:0:
448,192,28730,1,0,0:0:0:0:
64,192,28880,1,0,0:0:0:0:
448,192,28880,1,0,0:0:0:0:
320,192,28880,1,0,0:0:0:0:
192,192,28880,1,0,0:0:0:0:
320,192,29030,1,0,0:0:0:0:
192,192,29030,1,0,0:0:0:0:
64,192,29180,1,0,0:0:0:0:
320,192,29180,1,0,0:0:0:0:
448,192,29180,1,0,0:0:0:0:
64,192,29330,1,0,0:0:0:0:
192,192,29330,1,0,0:0:0:0:
320,192,29480,1,0,0:0:0:0:
448,192,29480,1,0,0:0:0:0:
320,192,29630,1,0,0:0:0:0:
448,192,29630,1,0,0:0:0:0:
320,192,29780,1,0,0:0:0:0:
448,192,29780,1,0,0:0:0:0:
320,192,29930,1,0,0:0:0:0:
448,192,29930,1,0,0:0:0:0:
64,192,30080,1,0,0:0:0:0:
192,192,30080,1,0,0:0:0:0:
64,192,30230,1,0,0:0:0:0:
192,192,30230,1,0,0:0:0:0:
64,192,30380,1,0,0:0:0:0:
192,192,30380,1,0,0:0:0:0:
64,192,30530,1,0,0:0:0:0:
192,192,30530,1,0,0:0:0:0:
448,192,30680,1,0,0:0:0:0:
64,192,30680,1,0,0:0:0:0:
320,192,30680,1,0,0:0:0:0:
192,192,30680,1,0,0:0:0:0:
448,192,30830,1,0,0:0:0:0:
320,192,30980,1,0,0:0:0:0:
192,192,30980,1,0,0:0:0:0:
64,192,30980,1,0,0:0:0:0:
448,192,31130,1,0,0:0:0:0:
192,192,31130,1,0,0:0:0:0:
448,192,31280,1,0,0:0:0:0:
192,192,31280,1,0,0:0:0:0:
64,192,31280,1,0,0:0:0:0:
320,192,31280,1,0,0:0:0:0:
320,192,31430,1,0,0:0:0:0:
320,192,31580,1,0,0:0:0:0:
192,192,31580,1,0,0:0:0:0:
64,192,31580,1,0,0:0:0:0:
192,192,31730,1,0,0:0:0:0:
64,192,31730,1,0,0:0:0:0:
320,192,31880,1,0,0:0:0:0:
448,192,31880,1,0,0:0:0:0:
192,192,31880,1,0,0:0:0:0:
64,192,31880,1,0,0:0:0:0:
448,192,32030,1,0,0:0:0:0:
320,192,32180,1,0,0:0:0:0:
192,192,32180,1,0,0:0:0:0:
64,192,32180,1,0,0:0:0:0:
192,192,32330,1,0,0:0:0:0:
448,192,32330,1,0,0:0:0:0:
320,192,32480,1,0,0:0:0:0:
192,192,32480,1,0,0:0:0:0:
64,192,32480,1,0,0:0:0:0:
448,192,32480,1,0,0:0:0:0:
320,192,32630,1,0,0:0:0:0:
448,192,32780,1,0,0:0:0:0:
192,192,32780,1,0,0:0:0:0:
64,192,32780,1,0,0:0:0:0:
192,192,32930,1,0,0:0:0:0:
64,192,33080,1,0,0:0:0:0:
448,192,33080,1,0,0:0:0:0:
320,192,33080,1,0,0:0:0:0:
192,192,33080,1,0,0:0:0:0:
64,192,33230,1,0,0:0:0:0:
448,192,33380,1,0,0:0:0:0:
192,192,33380,1,0,0:0:0:0:
320,192,33380,1,0,0:0:0:0:
64,192,33530,1,0,0:0:0:0:
448,192,33530,1,0,0:0:0:0:
320,192,33680,1,0,0:0:0:0:
192,192,33680,1,0,0:0:0:0:
64,192,33680,1,0,0:0:0:0:
448,192,33680,1,0,0:0:0:0:
192,192,33830,1,0,0:0:0:0:
320,192,33980,1,0,0:0:0:0:
192,192,33980,1,0,0:0:0:0:
448,192,33980,1,0,0:0:0:0:
320,192,34130,1,0,0:0:0:0:
448,192,34130,1,0,0:0:0:0:
448,192,34280,1,0,0:0:0:0:
320,192,34280,1,0,0:0:0:0:
192,192,34280,1,0,0:0:0:0:
64,192,34280,1,0,0:0:0:0:
192,192,34430,1,0,0:0:0:0:
448,192,34580,1,0,0:0:0:0:
320,192,34580,1,0,0:0:0:0:
64,192,34580,1,0,0:0:0:0:
192,192,34730,1,0,0:0:0:0:
448,192,34730,1,0,0:0:0:0:
448,192,34880,1,0,0:0:0:0:
320,192,34880,1,0,0:0:0:0:
192,192,34880,1,0,0:0:0:0:
64,192,34880,1,0,0:0:0:0:
320,192,35030,1,0,0:0:0:0:
448,192,35180,1,0,0:0:0:0:
192,192,35180,1,0,0:0:0:0:
64,192,35180,1,0,0:0:0:0:
192,192,35330,1,0,0:0:0:0:
448,192,35480,1,0,0:0:0:0:
320,192,35480,1,0,0:0:0:0:
64,192,35480,1,0,0:0:0:0:
192,192,35480,1,0,0:0:0:0:
320,192,35630,1,0,0:0:0:0:
448,192,35780,1,0,0:0:0:0:
192,192,35780,1,0,0:0:0:0:
64,192,35780,1,0,0:0:0:0:
64,192,35930,1,0,0:0:0:0:
320,192,35930,1,0,0:0:0:0:
64,192,36080,1,0,0:0:0:0:
192,192,36080,1,0,0:0:0:0:
320,192,36080,1,0,0:0:0:0:
448,192,36080,1,0,0:0:0:0:
320,192,36230,1,0,0:0:0:0:
448,192,36380,1,0,0:0:0:0:
192,192,36380,1,0,0:0:0:0:
64,192,36380,1,0,0:0:0:0:
64,192,36530,1,0,0:0:0:0:
192,192,36530,1,0,0:0:0:0:
448,192,36680,1,0,0:0:0:0:
320,192,36680,1,0,0:0:0:0:
64,192,36680,1,0,0:0:0:0:
192,192,36680,1,0,0:0:0:0:
320,192,36830,1,0,0:0:0:0:
448,192,36980,1,0,0:0:0:0:
192,192,36980,1,0,0:0:0:0:
64,192,36980,1,0,0:0:0:0:
320,192,37130,1,0,0:0:0:0:
64,192,37130,1,0,0:0:0:0:
448,192,37280,1,0,0:0:0:0:
320,192,37280,1,0,0:0:0:0:
64,192,37280,1,0,0:0:0:0:
192,192,37280,1,0,0:0:0:0:
448,192,37430,1,0,0:0:0:0:
192,192,37430,1,0,0:0:0:0:
320,192,37580,1,0,0:0:0:0:
64,192,37580,1,0,0:0:0:0:
448,192,37580,1,0,0:0:0:0:
64,192,37730,1,0,0:0:0:0:
320,192,37730,1,0,0:0:0:0:
448,192,37880,1,0,0:0:0:0:
320,192,37880,1,0,0:0:0:0:
192,192,37880,1,0,0:0:0:0:
64,192,37880,1,0,0:0:0:0:
448,192,38030,1,0,0:0:0:0:
192,192,38030,1,0,0:0:0:0:
192,192,38180,1,0,0:0:0:0:
64,192,38180,1,0,0:0:0:0:
320,192,38180,1,0,0:0:0:0:
448,192,38330,1,0,0:0:0:0:
64,192,38330,1,0,0:0:0:0:
448,192,38480,1,0,0:0:0:0:
64,192,38480,1,0,0:0:0:0:
192,192,38480,1,0,0:0:0:0:
320,192,38480,1,0,0:0:0:0:
192,192,38630,1,0,0:0:0:0:
320,192,38630,1,0,0:0:0:0:
448,192,38780,1,0,0:0:0:0:
192,192,38780,1,0,0:0:0:0:
64,192,38780,1,0,0:0:0:0:
448,192,38930,1,0,0:0:0:0:
192,192,39080,1,0,0:0:0:0:
320,192,39080,1,0,0:0:0:0:
64,192,39230,1,0,0:0:0:0:
448,192,39230,1,0,0:0:0:0:
192,192,39380,1,0,0:0:0:0:
320,192,39380,1,0,0:0:0:0:
64,192,39530,1,0,0:0:0:0:
448,192,39530,1,0,0:0:0:0:
192,192,39680,128,0,39980:0:0:0:0:
320,192,39680,128,0,39980:0:0:0:0:
448,192,39980,128,0,40280:0:0:0:0:
64,192,39980,128,0,40280:0:0:0:0:
192,192,40280,1,0,0:0:0:0:
320,192,40280,1,0,0:0:0:0:
320,192,40430,1,0,0:0:0:0:
64,192,40430,1,0,0:0:0:0:
192,192,40580,1,0,0:0:0:0:
448,192,40580,1,0,0:0:0:0:
192,192,40730,1,0,0:0:0:0:
64,192,40730,1,0,0:0:0:0:
320,192,40730,1,0,0:0:0:0:
64,192,40880,1,0,0:0:0:0:
320,192,40880,1,0,0:0:0:0:
448,192,40880,1,0,0:0:0:0:
192,192,40880,1,0,0:0:0:0:
320,192,41030,1,0,0:0:0:0:
192,192,41180,1,0,0:0:0:0:
64,192,41180,1,0,0:0:0:0:
448,192,41180,1,0,0:0:0:0:
192,192,41330,1,0,0:0:0:0:
320,192,41330,1,0,0:0:0:0:
448,192,41330,1,0,0:0:0:0:
64,192,41480,1,0,0:0:0:0:
320,192,41480,1,0,0:0:0:0:
192,192,41480,1,0,0:0:0:0:
64,192,41630,1,0,0:0:0:0:
192,192,41780,1,0,0:0:0:0:
320,192,41780,1,0,0:0:0:0:
448,192,41780,1,0,0:0:0:0:
64,192,41930,1,0,0:0:0:0:
320,192,41930,1,0,0:0:0:0:
448,192,41930,1,0,0:0:0:0:
64,192,42080,1,0,0:0:0:0:
192,192,42080,1,0,0:0:0:0:
448,192,42080,1,0,0:0:0:0:
192,192,42230,1,0,0:0:0:0:
64,192,42380,1,0,0:0:0:0:
320,192,42380,1,0,0:0:0:0:
448,192,42380,1,0,0:0:0:0:
320,192,42530,1,0,0:0:0:0:
64,192,42680,1,0,0:0:0:0:
192,192,42680,1,0,0:0:0:0:
448,192,42680,1,0,0:0:0:0:
320,192,42830,1,0,0:0:0:0:
192,192,42830,1,0,0:0:0:0:
64,192,42830,1,0,0:0:0:0:
448,192,42980,1,0,0:0:0:0:
320,192,42980,1,0,0:0:0:0:
192,192,42980,1,0,0:0:0:0:
64,192,43130,1,0,0:0:0:0:
448,192,43130,1,0,0:0:0:0:
320,192,43130,1,0,0:0:0:0:
64,192,43280,1,0,0:0:0:0:
192,192,43280,1,0,0:0:0:0:
448,192,43280,1,0,0:0:0:0:
320,192,43430,1,0,0:0:0:0:
192,192,43430,1,0,0:0:0:0:
64,192,43430,1,0,0:0:0:0:
448,192,43580,1,0,0:0:0:0:
320,192,43580,1,0,0:0:0:0:
192,192,43580,1,0,0:0:0:0:
64,192,43730,1,0,0:0:0:0:
320,192,43730,1,0,0:0:0:0:
448,192,43730,1,0,0:0:0:0:
192,192,43880,1,0,0:0:0:0:
64,192,43880,1,0,0:0:0:0:
448,192,43880,1,0,0:0:0:0:
192,192,44030,1,0,0:0:0:0:
64,192,44180,1,0,0:0:0:0:
320,192,44180,1,0,0:0:0:0:
448,192,44180,1,0,0:0:0:0:
192,192,44330,1,0,0:0:0:0:
64,192,44330,1,0,0:0:0:0:
320,192,44330,1,0,0:0:0:0:
448,192,44480,1,0,0:0:0:0:
192,192,44480,1,0,0:0:0:0:
64,192,44480,1,0,0:0:0:0:
448,192,44630,1,0,0:0:0:0:
192,192,44780,1,0,0:0:0:0:
320,192,44780,1,0,0:0:0:0:
64,192,44780,1,0,0:0:0:0:
320,192,44930,1,0,0:0:0:0:
448,192,44930,1,0,0:0:0:0:
192,192,44930,1,0,0:0:0:0:
64,192,45080,1,0,0:0:0:0:
192,192,45080,1,0,0:0:0:0:
448,192,45080,1,0,0:0:0:0:
320,192,45230,1,0,0:0:0:0:
64,192,45230,1,0,0:0:0:0:
448,192,45230,1,0,0:0:0:0:
320,192,45380,1,0,0:0:0:0:
192,192,45380,1,0,0:0:0:0:
320,192,45530,1,0,0:0:0:0:
64,192,45530,1,0,0:0:0:0:
192,192,45530,1,0,0:0:0:0:
64,192,45680,1,0,0:0:0:0:
192,192,45680,1,0,0:0:0:0:
320,192,45680,1,0,0:0:0:0:
448,192,45680,1,0,0:0:0:0:
64,192,45830,1,0,0:0:0:0:
448,192,45830,1,0,0:0:0:0:
192,192,45830,1,0,0:0:0:0:
320,192,45980,1,0,0:0:0:0:
448,192,45980,1,0,0:0:0:0:
64,192,46130,1,0,0:0:0:0:
320,192,46130,1,0,0:0:0:0:
192,192,46130,1,0,0:0:0:0:
192,192,46280,1,0,0:0:0:0:
448,192,46280,1,0,0:0:0:0:
64,192,46280,1,0,0:0:0:0:
320,192,46430,1,0,0:0:0:0:
448,192,46430,1,0,0:0:0:0:
64,192,46430,1,0,0:0:0:0:
192,192,46580,1,0,0:0:0:0:
320,192,46580,1,0,0:0:0:0:
64,192,46730,1,0,0:0:0:0:
192,192,46730,1,0,0:0:0:0:
448,192,46730,1,0,0:0:0:0:
320,192,46880,1,0,0:0:0:0:
64,192,46880,1,0,0:0:0:0:
192,192,46880,1,0,0:0:0:0:
448,192,46880,1,0,0:0:0:0:
320,192,47030,1,0,0:0:0:0:
192,192,47180,1,0,0:0:0:0:
64,192,47180,1,0,0:0:0:0:
64,192,47330,1,0,0:0:0:0:
320,192,47330,1,0,0:0:0:0:
448,192,47330,1,0,0:0:0:0:
192,192,47480,1,0,0:0:0:0:
320,192,47480,1,0,0:0:0:0:
448,192,47480,1,0,0:0:0:0:
64,192,47630,1,0,0:0:0:0:
192,192,47630,1,0,0:0:0:0:
448,192,47630,1,0,0:0:0:0:
320,192,47780,1,0,0:0:0:0:
64,192,47780,1,0,0:0:0:0:
192,192,47780,1,0,0:0:0:0:
448,192,47930,1,0,0:0:0:0:
320,192,47930,1,0,0:0:0:0:
64,192,47930,1,0,0:0:0:0:
192,192,48080,1,0,0:0:0:0:
448,192,48080,1,0,0:0:0:0:
320,192,48080,1,0,0:0:0:0:
64,192,48230,1,0,0:0:0:0:
192,192,48230,1,0,0:0:0:0:
448,192,48230,1,0,0:0:0:0:
320,192,48380,1,0,0:0:0:0:
64,192,48380,1,0,0:0:0:0:
192,192,48380,1,0,0:0:0:0:
448,192,48530,1,0,0:0:0:0:
320,192,48530,1,0,0:0:0:0:
64,192,48530,1,0,0:0:0:0:
192,192,48680,1,0,0:0:0:0:
448,192,48680,1,0,0:0:0:0:
320,192,48680,1,0,0:0:0:0:
192,192,48830,1,0,0:0:0:0:
64,192,48980,1,0,0:0:0:0:
320,192,48980,1,0,0:0:0:0:
448,192,48980,1,0,0:0:0:0:
192,192,49130,1,0,0:0:0:0:
64,192,49130,1,0,0:0:0:0:
448,192,49130,1,0,0:0:0:0:
320,192,49280,1,0,0:0:0:0:
192,192,49280,1,0,0:0:0:0:
64,192,49280,1,0,0:0:0:0:
320,192,49430,1,0,0:0:0:0:
192,192,49580,1,0,0:0:0:0:
64,192,49580,1,0,0:0:0:0:
448,192,49580,1,0,0:0:0:0:
320,192,49730,1,0,0:0:0:0:
448,192,49730,1,0,0:0:0:0:
192,192,49730,1,0,0:0:0:0:
64,192,49880,1,0,0:0:0:0:
320,192,49880,1,0,0:0:0:0:
448,192,49880,1,0,0:0:0:0:
192,192,49880,1,0,0:0:0:0:
64,192,50030,1,0,0:0:0:0:
320,192,50180,1,0,0:0:0:0:
192,192,50180,1,0,0:0:0:0:
448,192,50180,1,0,0:0:0:0:
320,192,50330,1,0,0:0:0:0:
448,192,50330,1,0,0:0:0:0:
192,192,50480,1,0,0:0:0:0:
64,192,50480,1,0,0:0:0:0:
320,192,50480,1,0,0:0:0:0:
192,192,50630,1,0,0:0:0:0:
64,192,50780,1,0,0:0:0:0:
448,192,50780,1,0,0:0:0:0:
448,192,50930,1,0,0:0:0:0:
320,192,50930,1,0,0:0:0:0:
192,192,50930,1,0,0:0:0:0:
64,192,51080,1,0,0:0:0:0:
320,192,51080,1,0,0:0:0:0:
192,192,51080,1,0,0:0:0:0:
64,192,51230,1,0,0:0:0:0:
448,192,51380,1,0,0:0:0:0:
320,192,51380,1,0,0:0:0:0:
192,192,51380,1,0,0:0:0:0:
320,192,51530,1,0,0:0:0:0:
64,192,51530,1,0,0:0:0:0:
192,192,51530,1,0,0:0:0:0:
448,192,51680,1,0,0:0:0:0:
320,192,51680,1,0,0:0:0:0:
192,192,51680,1,0,0:0:0:0:
64,192,51680,1,0,0:0:0:0:
448,192,51830,1,0,0:0:0:0:
64,192,51830,1,0,0:0:0:0:
192,192,51830,1,0,0:0:0:0:
192,192,51980,1,0,0:0:0:0:
320,192,51980,1,0,0:0:0:0:
320,192,52130,1,0,0:0:0:0:
64,192,52130,1,0,0:0:0:0:
448,192,52130,1,0,0:0:0:0:
192,192,52280,1,0,0:0:0:0:
64,192,52280,1,0,0:0:0:0:
448,192,52280,1,0,0:0:0:0:
320,192,52430,1,0,0:0:0:0:
192,192,52430,1,0,0:0:0:0:
64,192,52430,1,0,0:0:0:0:
448,192,52580,1,0,0:0:0:0:
320,192,52580,1,0,0:0:0:0:
192,192,52580,1,0,0:0:0:0:
64,192,52730,1,0,0:0:0:0:
320,192,52730,1,0,0:0:0:0:
448,192,52730,1,0,0:0:0:0:
192,192,52880,1,0,0:0:0:0:
64,192,52880,1,0,0:0:0:0:
448,192,52880,1,0,0:0:0:0:
192,192,53030,1,0,0:0:0:0:
320,192,53180,1,0,0:0:0:0:
448,192,53180,1,0,0:0:0:0:
64,192,53330,1,0,0:0:0:0:
320,192,53330,1,0,0:0:0:0:
448,192,53330,1,0,0:0:0:0:
192,192,53480,1,0,0:0:0:0:
64,192,53480,1,0,0:0:0:0:
448,192,53480,1,0,0:0:0:0:
320,192,53630,1,0,0:0:0:0:
192,192,53630,1,0,0:0:0:0:
64,192,53630,1,0,0:0:0:0:
320,192,53780,1,0,0:0:0:0:
448,192,53780,1,0,0:0:0:0:
192,192,53930,1,0,0:0:0:0:
64,192,53930,1,0,0:0:0:0:
448,192,53930,1,0,0:0:0:0:
64,192,54080,1,0,0:0:0:0:
192,192,54080,1,0,0:0:0:0:
320,192,54080,1,0,0:0:0:0:
448,192,54080,1,0,0:0:0:0:
320,192,54230,1,0,0:0:0:0:
192,192,54230,1,0,0:0:0:0:
64,192,54230,1,0,0:0:0:0:
320,192,54380,1,0,0:0:0:0:
448,192,54380,1,0,0:0:0:0:
448,192,54530,1,0,0:0:0:0:
64,192,54680,1,0,0:0:0:0:
192,192,54680,1,0,0:0:0:0:
320,192,54680,1,0,0:0:0:0:
448,192,54830,1,0,0:0:0:0:
320,192,54830,1,0,0:0:0:0:
192,192,54830,1,0,0:0:0:0:
64,192,54980,1,0,0:0:0:0:
192,192,54980,1,0,0:0:0:0:
64,192,55130,1,0,0:0:0:0:
320,192,55130,1,0,0:0:0:0:
448,192,55130,1,0,0:0:0:0:
64,192,55280,1,0,0:0:0:0:
192,192,55280,1,0,0:0:0:0:
320,192,55280,1,0,0:0:0:0:
448,192,55280,1,0,0:0:0:0:
192,192,55430,1,0,0:0:0:0:
320,192,55580,1,0,0:0:0:0:
448,192,55580,1,0,0:0:0:0:
192,192,55730,1,0,0:0:0:0:
64,192,55730,1,0,0:0:0:0:
448,192,55730,1,0,0:0:0:0:
64,192,55880,1,0,0:0:0:0:
192,192,55880,1,0,0:0:0:0:
320,192,55880,1,0,0:0:0:0:
448,192,55880,1,0,0:0:0:0:
320,192,56030,1,0,0:0:0:0:
64,192,56030,1,0,0:0:0:0:
192,192,56030,1,0,0:0:0:0:
448,192,56180,1,0,0:0:0:0:
320,192,56180,1,0,0:0:0:0:
192,192,56180,1,0,0:0:0:0:
64,192,56330,1,0,0:0:0:0:
448,192,56330,1,0,0:0:0:0:
320,192,56330,1,0,0:0:0:0:
192,192,56480,1,0,0:0:0:0:
64,192,56480,1,0,0:0:0:0:
448,192,56480,1,0,0:0:0:0:
192,192,56630,1,0,0:0:0:0:
320,192,56780,1,0,0:0:0:0:
448,192,56780,1,0,0:0:0:0:
64,192,56780,1,0,0:0:0:0:
320,192,56930,1,0,0:0:0:0:
192,192,57080,1,0,0:0:0:0:
320,192,57080,1,0,0:0:0:0:
64,192,57230,1,0,0:0:0:0:
448,192,57380,1,0,0:0:0:0:
320,192,57380,1,0,0:0:0:0:
320,192,57530,1,0,0:0:0:0:
192,192,57530,1,0,0:0:0:0:
448,192,57530,1,0,0:0:0:0:
64,192,57680,1,0,0:0:0:0:
192,192,57680,1,0,0:0:0:0:
320,192,57680,1,0,0:0:0:0:
192,192,57830,1,0,0:0:0:0:
64,192,57980,1,0,0:0:0:0:
320,192,57980,1,0,0:0:0:0:
448,192,57980,1,0,0:0:0:0:
320,192,58130,1,0,0:0:0:0:
64,192,58280,1,0,0:0:0:0:
192,192,58280,1,0,0:0:0:0:
448,192,58280,1,0,0:0:0:0:
448,192,58430,1,0,0:0:0:0:
64,192,58580,1,0,0:0:0:0:
192,192,58580,1,0,0:0:0:0:
320,192,58580,1,0,0:0:0:0:
64,192,58730,1,0,0:0:0:0:
448,192,58880,128,0,59180:0:0:0:0:
64,192,58880,128,0,59180:0:0:0:0:
320,192,59180,128,0,59480:0:0:0:0:
192,192,59180,128,0,59480:0:0:0:0:
448,192,59480,1,0,0:0:0:0:
64,192,59480,1,0,0:0:0:0:
448,192,59630,1,0,0:0:0:0:
320,192,59780,1,0,0:0:0:0:
192,192,59780,1,0,0:0:0:0:
64,192,59780,1,0,0:0:0:0:
448,192,59930,1,0,0:0:0:0:
192,192,59930,1,0,0:0:0:0:
448,192,60080,1,0,0:0:0:0:
192,192,60080,1,0,0:0:0:0:
64,192,60080,1,0,0:0:0:0:
320,192,60080,1,0,0:0:0:0:
320,192,60230,1,0,0:0:0:0:
320,192,60380,1,0,0:0:0:0:
192,192,60380,1,0,0:0:0:0:
64,192,60380,1,0,0:0:0:0:
192,192,60530,1,0,0:0:0:0:
64,192,60530,1,0,0:0:0:0:
320,192,60680,1,0,0:0:0:0:
448,192,60680,1,0,0:0:0:0:
192,192,60680,1,0,0:0:0:0:
64,192,60680,1,0,0:0:0:0:
448,192,60830,1,0,0:0:0:0:
320,192,60980,1,0,0:0:0:0:
192,192,60980,1,0,0:0:0:0:
64,192,60980,1,0,0:0:0:0:
192,192,61130,1,0,0:0:0:0:
448,192,61130,1,0,0:0:0:0:
320,192,61280,1,0,0:0:0:0:
192,192,61280,1,0,0:0:0:0:
64,192,61280,1,0,0:0:0:0:
448,192,61280,1,0,0:0:0:0:
320,192,61430,1,0,0:0:0:0:
448,192,61580,1,0,0:0:0:0:
192,192,61580,1,0,0:0:0:0:
64,192,61580,1,0,0:0:0:0:
192,192,61730,1,0,0:0:0:0:
64,192,61880,1,0,0:0:0:0:
448,192,61880,1,0,0:0:0:0:
320,192,61880,1,0,0:0:0:0:
192,192,61880,1,0,0:0:0:0:
64,192,62030,1,0,0:0:0:0:
448,192,62180,1,0,0:0:0:0:
192,192,62180,1,0,0:0:0:0:
320,192,62180,1,0,0:0:0:0:
64,192,62330,1,0,0:0:0:0:
448,192,62330,1,0,0:0:0:0:
320,192,62480,1,0,0:0:0:0:
192,192,62480,1,0,0:0:0:0:
64,192,62480,1,0,0:0:0:0:
448,192,62480,1,0,0:0:0:0:
192,192,62630,1,0,0:0:0:0:
320,192,62780,1,0,0:0:0:0:
192,192,62780,1,0,0:0:0:0:
448,192,62780,1,0,0:0:0:0:
320,192,62930,1,0,0:0:0:0:
448,192,62930,1,0,0:0:0:0:
448,192,63080,1,0,0:0:0:0:
320,192,63080,1,0,0:0:0:0:
192,192,63080,1,0,0:0:0:0:
64,192,63080,1,0,0:0:0:0:
192,192,63230,1,0,0:0:0:0:
448,192,63380,1,0,0:0:0:0:
320,192,63380,1,0,0:0:0:0:
64,192,63380,1,0,0:0:0:0:
192,192,63530,1,0,0:0:0:0:
448,192,63530,1,0,0:0:0:0:
448,192,63680,1,0,0:0:0:0:
320,192,63680,1,0,0:0:0:0:
192,192,63680,1,0,0:0:0:0:
64,192,63680,1,0,0:0:0:0:
320,192,63830,1,0,0:0:0:0:
448,192,63980,1,0,0:0:0:0:
192,192,63980,1,0,0:0:0:0:
64,192,63980,1,0,0:0:0:0:
192,192,64130,1,0,0:0:0:0:
448,192,64280,1,0,0:0:0:0:
320,192,64280,1,0,0:0:0:0:
64,192,64280,1,0,0:0:0:0:
192,192,64280,1,0,0:0:0:0:
320,192,64430,1,0,0:0:0:0:
448,192,64580,1,0,0:0:0:0:
192,192,64580,1,0,0:0:0:0:
64,192,64580,1,0,0:0:0:0:
64,192,64730,1,0,0:0:0:0:
320,192,64730,1,0,0:0:0:0:
64,192,64880,1,0,0:0:0:0:
192,192,64880,1,0,0:0:0:0:
320,192,64880,1,0,0:0:0:0:
448,192,64880,1,0,0:0:0:0:
320,192,65030,1,0,0:0:0:0:
448,192,65180,1,0,0:0:0:0:
192,192,65180,1,0,0:0:0:0:
64,192,65180,1,0,0:0:0:0:
64,192,65330,1,0,0:0:0:0:
192,192,65330,1,0,0:0:0:0:
448,192,65480,1,0,0:0:0:0:
320,192,65480,1,0,0:0:0:0:
64,192,65480,1,0,0:0:0:0:
192,192,65480,1,0,0:0:0:0:
320,192,65630,1,0,0:0:0:0:
448,192,65780,1,0,0:0:0:0:
192,192,65780,1,0,0:0:0:0:
64,192,65780,1,0,0:0:0:0:
320,192,65930,1,0,0:0:0:0:
64,192,65930,1,0,0:0:0:0:
448,192,66080,1,0,0:0:0:0:
320,192,66080,1,0,0:0:0:0:
64,192,66080,1,0,0:0:0:0:
192,192,66080,1,0,0:0:0:0:
448,192,66230,1,0,0:0:0:0:
192,192,66230,1,0,0:0:0:0:
320,192,66380,1,0,0:0:0:0:
64,192,66380,1,0,0:0:0:0:
448,192,66380,1,0,0:0:0:0:
64,192,66530,1,0,0:0:0:0:
320,192,66530,1,0,0:0:0:0:
448,192,66680,1,0,0:0:0:0:
320,192,66680,1,0,0:0:0:0:
192,192,66680,1,0,0:0:0:0:
64,192,66680,1,0,0:0:0:0:
448,192,66830,1,0,0:0:0:0:
192,192,66830,1,0,0:0:0:0:
192,192,66980,1,0,0:0:0:0:
64,192,66980,1,0,0:0:0:0:
320,192,66980,1,0,0:0:0:0:
448,192,67130,1,0,0:0:0:0:
64,192,67130,1,0,0:0:0:0:
448,192,67280,1,0,0:0:0:0:
64,192,67280,1,0,0:0:0:0:
192,192,67280,1,0,0:0:0:0:
320,192,67280,1,0,0:0:0:0:
192,192,67430,1,0,0:0:0:0:
320,192,67430,1,0,0:0:0:0:
448,192,67580,1,0,0:0:0:0:
192,192,67580,1,0,0:0:0:0:
64,192,67580,1,0,0:0:0:0:
448,192,67730,1,0,0:0:0:0:
320,192,67730,1,0,0:0:0:0:
192,192,67880,1,0,0:0:0:0:
64,192,67880,1,0,0:0:0:0:
192,192,68030,1,0,0:0:0:0:
64,192,68030,1,0,0:0:0:0:
192,192,68180,1,0,0:0:0:0:
64,192,68180,1,0,0:0:0:0:
192,192,68330,1,0,0:0:0:0:
64,192,68330,1,0,0:0:0:0:
448,192,68480,1,0,0:0:0:0:
320,192,68480,1,0,0:0:0:0:
448,192,68630,1,0,0:0:0:0:
320,192,68630,1,0,0:0:0:0:
448,192,68780,1,0,0:0:0:0:
320,192,68780,1,0,0:0:0:0:
448,192,68930,1,0,0:0:0:0:
320,192,68930,1,0,0:0:0:0:
64,192,69080,1,0,0:0:0:0:
448,192,69080,1,0,0:0:0:0:
192,192,69080,1,0,0:0:0:0:
320,192,69080,1,0,0:0:0:0:
64,192,69230,1,0,0:0:0:0:
192,192,69380,1,0,0:0:0:0:
320,192,69380,1,0,0:0:0:0:
448,192,69380,1,0,0:0:0:0:
64,192,69530,1,0,0:0:0:0:
320,192,69530,1,0,0:0:0:0:
64,192,69680,1,0,0:0:0:0:
320,192,69680,1,0,0:0:0:0:
448,192,69680,1,0,0:0:0:0:
192,192,69680,1,0,0:0:0:0:
192,192,69830,1,0,0:0:0:0:
192,192,69980,1,0,0:0:0:0:
320,192,69980,1,0,0:0:0:0:
448,192,69980,1,0,0:0:0:0:
320,192,70130,1,0,0:0:0:0:
448,192,70130,1,0,0:0:0:0:
192,192,70280,1,0,0:0:0:0:
64,192,70280,1,0,0:0:0:0:
320,192,70280,1,0,0:0:0:0:
448,192,70280,1,0,0:0:0:0:
64,192,70430,1,0,0:0:0:0:
192,192,70580,1,0,0:0:0:0:
320,192,70580,1,0,0:0:0:0:
448,192,70580,1,0,0:0:0:0:
320,192,70730,1,0,0:0:0:0:
64,192,70730,1,0,0:0:0:0:
192,192,70880,1,0,0:0:0:0:
320,192,70880,1,0,0:0:0:0:
448,192,70880,1,0,0:0:0:0:
64,192,70880,1,0,0:0:0:0:
192,192,71030,1,0,0:0:0:0:
64,192,71180,1,0,0:0:0:0:
320,192,71180,1,0,0:0:0:0:
448,192,71180,1,0,0:0:0:0:
320,192,71330,1,0,0:0:0:0:
448,192,71480,1,0,0:0:0:0:
64,192,71480,1,0,0:0:0:0:
192,192,71480,1,0,0:0:0:0:
320,192,71480,1,0,0:0:0:0:
448,192,71630,1,0,0:0:0:0:
64,192,71780,1,0,0:0:0:0:
320,192,71780,1,0,0:0:0:0:
192,192,71780,1,0,0:0:0:0:
448,192,71930,1,0,0:0:0:0:
64,192,71930,1,0,0:0:0:0:
192,192,72080,1,0,0:0:0:0:
320,192,72080,1,0,0:0:0:0:
448,192,72080,1,0,0:0:0:0:
64,192,72080,1,0,0:0:0:0:
320,192,72230,1,0,0:0:0:0:
192,192,72380,1,0,0:0:0:0:
320,192,72380,1,0,0:0:0:0:
64,192,72380,1,0,0:0:0:0:
192,192,72530,1,0,0:0:0:0:
64,192,72530,1,0,0:0:0:0:
64,192,72680,1,0,0:0:0:0:
192,192,72680,1,0,0:0:0:0:
320,192,72680,1,0,0:0:0:0:
448,192,72680,1,0,0:0:0:0:
320,192,72830,1,0,0:0:0:0:
64,192,72980,1,0,0:0:0:0:
192,192,72980,1,0,0:0:0:0:
448,192,72980,1,0,0:0:0:0:
320,192,73130,1,0,0:0:0:0:
64,192,73130,1,0,0:0:0:0:
64,192,73280,1,0,0:0:0:0:
192,192,73280,1,0,0:0:0:0:
320,192,73280,1,0,0:0:0:0:
448,192,73280,1,0,0:0:0:0:
192,192,73430,1,0,0:0:0:0:
64,192,73580,1,0,0:0:0:0:
320,192,73580,1,0,0:0:0:0:
448,192,73580,1,0,0:0:0:0:
320,192,73730,1,0,0:0:0:0:
64,192,73880,1,0,0:0:0:0:
192,192,73880,1,0,0:0:0:0:
448,192,73880,1,0,0:0:0:0:
320,192,73880,1,0,0:0:0:0:
192,192,74030,1,0,0:0:0:0:
64,192,74180,1,0,0:0:0:0:
320,192,74180,1,0,0:0:0:0:
448,192,74180,1,0,0:0:0:0:
448,192,74330,1,0,0:0:0:0:
192,192,74330,1,0,0:0:0:0:
448,192,74480,1,0,0:0:0:0:
320,192,74480,1,0,0:0:0:0:
192,192,74480,1,0,0:0:0:0:
64,192,74480,1,0,0:0:0:0:
192,192,74630,1,0,0:0:0:0:
64,192,74780,1,0,0:0:0:0:
320,192,74780,1,0,0:0:0:0:
448,192,74780,1,0,0:0:0:0:
448,192,74930,1,0,0:0:0:0:
320,192,74930,1,0,0:0:0:0:
64,192,75080,1,0,0:0:0:0:
192,192,75080,1,0,0:0:0:0:
448,192,75080,1,0,0:0:0:0:
320,192,75080,1,0,0:0:0:0:
192,192,75230,1,0,0:0:0:0:
64,192,75380,1,0,0:0:0:0:
320,192,75380,1,0,0:0:0:0:
448,192,75380,1,0,0:0:0:0:
192,192,75530,1,0,0:0:0:0:
448,192,75530,1,0,0:0:0:0:
64,192,75680,1,0,0:0:0:0:
192,192,75680,1,0,0:0:0:0:
448,192,75680,1,0,0:0:0:0:
320,192,75680,1,0,0:0:0:0:
64,192,75830,1,0,0:0:0:0:
320,192,75830,1,0,0:0:0:0:
192,192,75980,1,0,0:0:0:0:
448,192,75980,1,0,0:0:0:0:
64,192,75980,1,0,0:0:0:0:
448,192,76130,1,0,0:0:0:0:
192,192,76130,1,0,0:0:0:0:
64,192,76280,1,0,0:0:0:0:
192,192,76280,1,0,0:0:0:0:
320,192,76280,1,0,0:0:0:0:
448,192,76280,1,0,0:0:0:0:
64,192,76430,1,0,0:0:0:0:
320,192,76430,1,0,0:0:0:0:
320,192,76580,1,0,0:0:0:0:
448,192,76580,1,0,0:0:0:0:
192,192,76580,1,0,0:0:0:0:
64,192,76730,1,0,0:0:0:0:
448,192,76730,1,0,0:0:0:0:
64,192,76880,1,0,0:0:0:0:
448,192,76880,1,0,0:0:0:0:
320,192,76880,1,0,0:0:0:0:
192,192,76880,1,0,0:0:0:0:
320,192,77030,1,0,0:0:0:0:
192,192,77030,1,0,0:0:0:0:
64,192,77180,1,0,0:0:0:0:
320,192,77180,1,0,0:0:0:0:
448,192,77180,1,0,0:0:0:0:
64,192,77330,1,0,0:0:0:0:
320,192,77480,1,0,0:0:0:0:
192,192,77480,1,0,0:0:0:0:
448,192,77630,1,0,0:0:0:0:
64,192,77630,1,0,0:0:0:0:
320,192,77780,1,0,0:0:0:0:
192,192,77780,1,0,0:0:0:0:
448,192,77930,1,0,0:0:0:0:
64,192,77930,1,0,0:0:0:0:
320,192,78080,128,0,78380:0:0:0:0:
192,192,78080,128,0,78380:0:0:0:0:
64,192,78380,128,0,78680:0:0:0:0:
448,192,78380,128,0,78680:0:0:0:0:
192,192,78680,1,0,0:0:0:0:
320,192,78680,1,0,0:0:0:0:
448,192,78730,1,0,0:0:0:0:
64,192,78780,1,0,0:0:0:0:
192,192,78830,1,0,0:0:0:0:
320,192,78880,1,0,0:0:0:0:
448,192,78930,1,0,0:0:0:0:
320,192,78980,1,0,0:0:0:0:
192,192,79030,1,0,0:0:0:0:
64,192,79080,1,0,0:0:0:0:
448,192,79130,1,0,0:0:0:0:
320,192,79130,1,0,0:0:0:0:
192,192,79180,1,0,0:0:0:0:
64,192,79230,1,0,0:0:0:0:
320,192,79280,1,0,0:0:0:0:
448,192,79330,1,0,0:0:0:0:
192,192,79380,1,0,0:0:0:0:
64,192,79430,1,0,0:0:0:0:
448,192,79480,1,0,0:0:0:0:
320,192,79530,1,0,0:0:0:0:
192,192,79580,1,0,0:0:0:0:
64,192,79580,1,0,0:0:0:0:
448,192,79630,1,0,0:0:0:0:
320,192,79680,1,0,0:0:0:0:
192,192,79730,1,0,0:0:0:0:
448,192,79780,1,0,0:0:0:0:
64,192,79830,1,0,0:0:0:0:
192,192,79880,1,0,0:0:0:0:
320,192,79880,1,0,0:0:0:0:
448,192,79930,1,0,0:0:0:0:
64,192,79980,1,0,0:0:0:0:
192,192,80030,1,0,0:0:0:0:
320,192,80080,1,0,0:0:0:0:
448,192,80130,1,0,0:0:0:0:
64,192,80180,1,0,0:0:0:0:
192,192,80230,1,0,0:0:0:0:
320,192,80280,1,0,0:0:0:0:
448,192,80330,1,0,0:0:0:0:
320,192,80380,1,0,0:0:0:0:
192,192,80430,1,0,0:0:0:0:
64,192,80480,1,0,0:0:0:0:
448,192,80480,1,0,0:0:0:0:
320,192,80530,1,0,0:0:0:0:
192,192,80580,1,0,0:0:0:0:
64,192,80630,1,0,0:0:0:0:
192,192,80680,1,0,0:0:0:0:
320,192,80730,1,0,0:0:0:0:
448,192,80780,1,0,0:0:0:0:
64,192,80830,1,0,0:0:0:0:
192,192,80880,1,0,0:0:0:0:
320,192,80930,1,0,0:0:0:0:
448,192,80980,1,0,0:0:0:0:
320,192,81030,1,0,0:0:0:0:
64,192,81080,1,0,0:0:0:0:
192,192,81080,1,0,0:0:0:0:
448,192,81130,1,0,0:0:0:0:
320,192,81180,1,0,0:0:0:0:
192,192,81230,1,0,0:0:0:0:
64,192,81280,1,0,0:0:0:0:
192,192,81330,1,0,0:0:0:0:
320,192,81380,1,0,0:0:0:0:
448,192,81430,1,0,0:0:0:0:
64,192,81480,1,0,0:0:0:0:
192,192,81530,1,0,0:0:0:0:
448,192,81530,1,0,0:0:0:0:
320,192,81580,1,0,0:0:0:0:
192,192,81630,1,0,0:0:0:0:
64,192,81680,1,0,0:0:0:0:
320,192,81730,1,0,0:0:0:0:
448,192,81780,1,0,0:0:0:0:
64,192,81830,1,0,0:0:0:0:
192,192,81880,1,0,0:0:0:0:
320,192,81930,1,0,0:0:0:0:
448,192,81980,1,0,0:0:0:0:
64,192,81980,1,0,0:0:0:0:
192,192,82030,1,0,0:0:0:0:
320,192,82080,1,0,0:0:0:0:
448,192,82130,1,0,0:0:0:0:
192,192,82180,1,0,0:0:0:0:
320,192,82230,1,0,0:0:0:0:
448,192,82280,1,0,0:0:0:0:
64,192,82280,1,0,0:0:0:0:
64,192,82430,1,0,0:0:0:0:
192,192,82580,1,0,0:0:0:0:
320,192,82580,1,0,0:0:0:0:
320,192,82730,1,0,0:0:0:0:
448,192,82730,1,0,0:0:0:0:
64,192,82880,1,0,0:0:0:0:
192,192,82880,1,0,0:0:0:0:
448,192,82880,1,0,0:0:0:0:
192,192,83030,1,0,0:0:0:0:
64,192,83180,1,0,0:0:0:0:
320,192,83180,1,0,0:0:0:0:
64,192,83330,1,0,0:0:0:0:
192,192,83480,1,0,0:0:0:0:
320,192,83480,1,0,0:0:0:0:
448,192,83530,1,0,0:0:0:0:
64,192,83580,1,0,0:0:0:0:
192,192,83630,1,0,0:0:0:0:
320,192,83680,1,0,0:0:0:0:
448,192,83730,1,0,0:0:0:0:
320,192,83780,1,0,0:0:0:0:
192,192,83830,1,0,0:0:0:0:
64,192,83880,1,0,0:0:0:0:
448,192,83930,1,0,0:0:0:0:
320,192,83930,1,0,0:0:0:0:
192,192,83980,1,0,0:0:0:0:
64,192,84030,1,0,0:0:0:0:
320,192,84080,1,0,0:0:0:0:
448,192,84130,1,0,0:0:0:0:
192,192,84180,1,0,0:0:0:0:
64,192,84230,1,0,0:0:0:0:
448,192,84280,1,0,0:0:0:0:
320,192,84330,1,0,0:0:0:0:
192,192,84380,1,0,0:0:0:0:
64,192,84380,1,0,0:0:0:0:
448,192,84430,1,0,0:0:0:0:
320,192,84480,1,0,0:0:0:0:
192,192,84530,1,0,0:0:0:0:
448,192,84580,1,0,0:0:0:0:
64,192,84630,1,0,0:0:0:0:
192,192,84680,1,0,0:0:0:0:
320,192,84680,1,0,0:0:0:0:
448,192,84730,1,0,0:0:0:0:
64,192,84780,1,0,0:0:0:0:
192,192,84830,1,0,0:0:0:0:
320,192,84880,1,0,0:0:0:0:
448,192,84930,1,0,0:0:0:0:
64,192,84980,1,0,0:0:0:0:
192,192,85030,1,0,0:0:0:0:
320,192,85080,1,0,0:0:0:0:
448,192,85130,1,0,0:0:0:0:
320,192,85180,1,0,0:0:0:0:
192,192,85230,1,0,0:0:0:0:
64,192,85280,1,0,0:0:0:0:
448,192,85280,1,0,0:0:0:0:
320,192,85330,1,0,0:0:0:0:
192,192,85380,1,0,0:0:0:0:
64,192,85430,1,0,0:0:0:0:
192,192,85480,1,0,0:0:0:0:
320,192,85530,1,0,0:0:0:0:
448,192,85580,1,0,0:0:0:0:
64,192,85630,1,0,0:0:0:0:
192,192,85680,1,0,0:0:0:0:
320,192,85730,1,0,0:0:0:0:
448,192,85780,1,0,0:0:0:0:
320,192,85830,1,0,0:0:0:0:
64,192,85880,1,0,0:0:0:0:
192,192,85880,1,0,0:0:0:0:
448,192,85930,1,0,0:0:0:0:
320,192,85980,1,0,0:0:0:0:
192,192,86030,1,0,0:0:0:0:
64,192,86080,1,0,0:0:0:0:
192,192,86130,1,0,0:0:0:0:
320,192,86180,1,0,0:0:0:0:
448,192,86230,1,0,0:0:0:0:
64,192,86280,1,0,0:0:0:0:
192,192,86330,1,0,0:0:0:0:
448,192,86330,1,0,0:0:0:0:
320,192,86380,1,0,0:0:0:0:
192,192,86430,1,0,0:0:0:0:
64,192,86480,1,0,0:0:0:0:
320,192,86530,1,0,0:0:0:0:
448,192,86580,1,0,0:0:0:0:
64,192,86630,1,0,0:0:0:0:
192,192,86680,1,0,0:0:0:0:
320,192,86730,1,0,0:0:0:0:
448,192,86780,1,0,0:0:0:0:
64,192,86780,1,0,0:0:0:0:
192,192,86830,1,0,0:0:0:0:
320,192,86880,1,0,0:0:0:0:
448,192,86930,1,0,0:0:0:0:
192,192,86980,1,0,0:0:0:0:
64,192,87030,1,0,0:0:0:0:
448,192,87080,1,0,0:0:0:0:
320,192,87080,1,0,0:0:0:0:
320,192,87230,1,0,0:0:0:0:
448,192,87380,1,0,0:0:0:0:
64,192,87380,1,0,0:0:0:0:
192,192,87430,1,0,0:0:0:0:
320,192,87480,1,0,0:0:0:0:
448,192,87530,1,0,0:0:0:0:
192,192,87580,1,0,0:0:0:0:
64,192,87630,1,0,0:0:0:0:
448,192,87680,1,0,0:0:0:0:
320,192,87730,1,0,0:0:0:0:
192,192,87780,1,0,0:0:0:0:
64,192,87830,1,0,0:0:0:0:
320,192,87880,1,0,0:0:0:0:
192,192,87930,1,0,0:0:0:0:
64,192,87980,1,0,0:0:0:0:
448,192,87980,1,0,0:0:0:0:
448,192,88130,1,0,0:0:0:0:
192,192,88280,1,0,0:0:0:0:
320,192,88280,1,0,0:0:0:0:
448,192,88330,1,0,0:0:0:0:
64,192,88380,1,0,0:0:0:0:
192,192,88430,1,0,0:0:0:0:
320,192,88480,1,0,0:0:0:0:
448,192,88530,1,0,0:0:0:0:
320,192,88580,1,0,0:0:0:0:
192,192,88630,1,0,0:0:0:0:
64,192,88680,1,0,0:0:0:0:
448,192,88730,1,0,0:0:0:0:
320,192,88730,1,0,0:0:0:0:
192,192,88780,1,0,0:0:0:0:
64,192,88830,1,0,0:0:0:0:
320,192,88880,1,0,0:0:0:0:
448,192,88930,1,0,0:0:0:0:
192,192,88980,1,0,0:0:0:0:
64,192,89030,1,0,0:0:0:0:
448,192,89080,1,0,0:0:0:0:
320,192,89130,1,0,0:0:0:0:
192,192,89180,1,0,0:0:0:0:
64,192,89180,1,0,0:0:0:0:
448,192,89230,1,0,0:0:0:0:
320,192,89280,1,0,0:0:0:0:
192,192,89330,1,0,0:0:0:0:
448,192,89380,1,0,0:0:0:0:
64,192,89430,1,0,0:0:0:0:
192,192,89480,1,0,0:0:0:0:
320,192,89480,1,0,0:0:0:0:
448,192,89530,1,0,0:0:0:0:
64,192,89580,1,0,0:0:0:0:
192,192,89630,1,0,0:0:0:0:
320,192,89680,1,0,0:0:0:0:
448,192,89730,1,0,0:0:0:0:
64,192,89780,1,0,0:0:0:0:
192,192,89830,1,0,0:0:0:0:
320,192,89880,1,0,0:0:0:0:
448,192,89930,1,0,0:0:0:0:
320,192,89980,1,0,0:0:0:0:
192,192,90030,1,0,0:0:0:0:
64,192,90080,1,0,0:0:0:0:
448,192,90080,1,0,0:0:0:0:
320,192,90130,1,0,0:0:0:0:
192,192,90180,1,0,0:0:0:0:
64,192,90230,1,0,0:0:0:0:
192,192,90280,1,0,0:0:0:0:
320,192,90330,1,0,0:0:0:0:
448,192,90380,1,0,0:0:0:0:
64,192,90430,1,0,0:0:0:0:
192,192,90480,1,0,0:0:0:0:
320,192,90530,1,0,0:0:0:0:
448,192,90580,1,0,0:0:0:0:
320,192,90630,1,0,0:0:0:0:
64,192,90680,1,0,0:0:0:0:
192,192,90680,1,0,0:0:0:0:
448,192,90730,1,0,0:0:0:0:
320,192,90780,1,0,0:0:0:0:
192,192,90830,1,0,0:0:0:0:
64,192,90880,1,0,0:0:0:0:
192,192,90930,1,0,0:0:0:0:
320,192,90980,1,0,0:0:0:0:
448,192,91030,1,0,0:0:0:0:
64,192,91080,1,0,0:0:0:0:
192,192,91130,1,0,0:0:0:0:
448,192,91130,1,0,0:0:0:0:
320,192,91180,1,0,0:0:0:0:
192,192,91230,1,0,0:0:0:0:
64,192,91280,1,0,0:0:0:0:
320,192,91330,1,0,0:0:0:0:
448,192,91380,1,0,0:0:0:0:
64,192,91430,1,0,0:0:0:0:
192,192,91480,1,0,0:0:0:0:
320,192,91530,1,0,0:0:0:0:
448,192,91580,1,0,0:0:0:0:
64,192,91580,1,0,0:0:0:0:
192,192,91630,1,0,0:0:0:0:
320,192,91680,1,0,0:0:0:0:
448,192,91730,1,0,0:0:0:0:
192,192,91780,1,0,0:0:0:0:
320,192,91830,1,0,0:0:0:0:
448,192,91880,1,0,0:0:0:0:
64,192,91880,1,0,0:0:0:0:
192,192,91880,1,0,0:0:0:0:
64,192,92030,1,0,0:0:0:0:
192,192,92180,1,0,0:0:0:0:
448,192,92180,1,0,0:0:0:0:
192,192,92330,1,0,0:0:0:0:
320,192,92330,1,0,0:0:0:0:
64,192,92480,1,0,0:0:0:0:
320,192,92480,1,0,0:0:0:0:
448,192,92480,1,0,0:0:0:0:
64,192,92630,1,0,0:0:0:0:
192,192,92780,1,0,0:0:0:0:
448,192,92780,1,0,0:0:0:0:
448,192,92930,1,0,0:0:0:0:
192,192,93080,1,0,0:0:0:0:
320,192,93080,1,0,0:0:0:0:
448,192,93130,1,0,0:0:0:0:
64,192,93180,1,0,0:0:0:0:
192,192,93230,1,0,0:0:0:0:
320,192,93280,1,0,0:0:0:0:
448,192,93330,1,0,0:0:0:0:
320,192,93380,1,0,0:0:0:0:
192,192,93430,1,0,0:0:0:0:
64,192,93480,1,0,0:0:0:0:
448,192,93530,1,0,0:0:0:0:
320,192,93530,1,0,0:0:0:0:
192,192,93580,1,0,0:0:0:0:
64,192,93630,1,0,0:0:0:0:
320,192,93680,1,0,0:0:0:0:
448,192,93730,1,0,0:0:0:0:
192,192,93780,1,0,0:0:0:0:
64,192,93830,1,0,0:0:0:0:
448,192,93880,1,0,0:0:0:0:
320,192,93930,1,0,0:0:0:0:
192,192,93980,1,0,0:0:0:0:
64,192,93980,1,0,0:0:0:0:
448,192,94030,1,0,0:0:0:0:
320,192,94080,1,0,0:0:0:0:
192,192,94130,1,0,0:0:0:0:
448,192,94180,1,0,0:0:0:0:
64,192,94230,1,0,0:0:0:0:
192,192,94280,1,0,0:0:0:0:
320,192,94280,1,0,0:0:0:0:
448,192,94330,1,0,0:0:0:0:
64,192,94380,1,0,0:0:0:0:
192,192,94430,1,0,0:0:0:0:
320,192,94480,1,0,0:0:0:0:
448,192,94530,1,0,0:0:0:0:
64,192,94580,1,0,0:0:0:0:
192,192,94630,1,0,0:0:0:0:
320,192,94680,1,0,0:0:0:0:
448,192,94730,1,0,0:0:0:0:
320,192,94780,1,0,0:0:0:0:
192,192,94830,1,0,0:0:0:0:
64,192,94880,1,0,0:0:0:0:
448,192,94880,1,0,0:0:0:0:
320,192,94930,1,0,0:0:0:0:
192,192,94980,1,0,0:0:0:0:
64,192,95030,1,0,0:0:0:0:
192,192,95080,1,0,0:0:0:0:
320,192,95130,1,0,0:0:0:0:
448,192,95180,1,0,0:0:0:0:
64,192,95230,1,0,0:0:0:0:
192,192,95280,1,0,0:0:0:0:
320,192,95330,1,0,0:0:0:0:
448,192,95380,1,0,0:0:0:0:
320,192,95430,1,0,0:0:0:0:
64,192,95480,1,0,0:0:0:0:
192,192,95480,1,0,0:0:0:0:
448,192,95530,1,0,0:0:0:0:
320,192,95580,1,0,0:0:0:0:
192,192,95630,1,0,0:0:0:0:
64,192,95680,1,0,0:0:0:0:
192,192,95730,1,0,0:0:0:0:
320,192,95780,1,0,0:0:0:0:
448,192,95830,1,0,0:0:0:0:
64,192,95880,1,0,0:0:0:0:
192,192,95930,1,0,0:0:0:0:
448,192,95930,1,0,0:0:0:0:
320,192,95980,1,0,0:0:0:0:
192,192,96030,1,0,0:0:0:0:
64,192,96080,1,0,0:0:0:0:
320,192,96130,1,0,0:0:0:0:
448,192,96180,1,0,0:0:0:0:
64,192,96230,1,0,0:0:0:0:
192,192,96280,1,0,0:0:0:0:
320,192,96330,1,0,0:0:0:0:
448,192,96380,1,0,0:0:0:0:
64,192,96380,1,0,0:0:0:0:
192,192,96430,1,0,0:0:0:0:
320,192,96480,1,0,0:0:0:0:
448,192,96530,1,0,0:0:0:0:
192,192,96580,1,0,0:0:0:0:
64,192,96630,1,0,0:0:0:0:
448,192,96680,1,0,0:0:0:0:
320,192,96680,1,0,0:0:0:0:
320,192,96830,1,0,0:0:0:0:
448,192,96980,1,0,0:0:0:0:
64,192,96980,1,0,0:0:0:0:
192,192,97030,1,0,0:0:0:0:
320,192,97080,1,0,0:0:0:0:
448,192,97130,1,0,0:0:0:0:
192,192,97180,1,0,0:0:0:0:
64,192,97230,1,0,0:0:0:0:
448,192,97280,1,0,0:0:0:0:
320,192,97330,1,0,0:0:0:0:
192,192,97380,1,0,0:0:0:0:
64,192,97430,1,0,0:0:0:0:
320,192,97480,1,0,0:0:0:0:
192,192,97530,1,0,0:0:0:0:
448,192,97580,128,0,97880:0:0:0:0:
64,192,97580,128,0,97880:0:0:0:0:
320,192,97880,1,0,0:0:0:0:
192,192,97880,1,0,0:0:0:0:
320,192,98030,1,0,0:0:0:0:
448,192,98180,1,0,0:0:0:0:
192,192,98180,1,0,0:0:0:0:
64,192,98180,1,0,0:0:0:0:
64,192,98330,1,0,0:0:0:0:
192,192,98330,1,0,0:0:0:0:
448,192,98480,1,0,0:0:0:0:
192,192,98480,1,0,0:0:0:0:
64,192,98480,1,0,0:0:0:0:
320,192,98480,1,0,0:0:0:0:
320,192,98630,1,0,0:0:0:0:
320,192,98780,1,0,0:0:0:0:
192,192,98780,1,0,0:0:0:0:
64,192,98780,1,0,0:0:0:0:
192,192,98930,1,0,0:0:0:0:
64,192,98930,1,0,0:0:0:0:
320,192,99080,1,0,0:0:0:0:
448,192,99080,1,0,0:0:0:0:
192,192,99080,1,0,0:0:0:0:
64,192,99080,1,0,0:0:0:0:
448,192,99230,1,0,0:0:0:0:
320,192,99380,1,0,0:0:0:0:
192,192,99380,1,0,0:0:0:0:
64,192,99380,1,0,0:0:0:0:
192,192,99530,1,0,0:0:0:0:
448,192,99530,1,0,0:0:0:0:
320,192,99680,1,0,0:0:0:0:
192,192,99680,1,0,0:0:0:0:
64,192,99680,1,0,0:0:0:0:
448,192,99680,1,0,0:0:0:0:
320,192,99830,1,0,0:0:0:0:
448,192,99980,1,0,0:0:0:0:
192,192,99980,1,0,0:0:0:0:
64,192,99980,1,0,0:0:0:0:
192,192,100130,1,0,0:0:0:0:
64,192,100280,1,0,0:0:0:0:
448,192,100280,1,0,0:0:0:0:
320,192,100280,1,0,0:0:0:0:
192,192,100280,1,0,0:0:0:0:
64,192,100430,1,0,0:0:0:0:
448,192,100580,1,0,0:0:0:0:
192,192,100580,1,0,0:0:0:0:
320,192,100580,1,0,0:0:0:0:
64,192,100730,1,0,0:0:0:0:
448,192,100730,1,0,0:0:0:0:
320,192,100880,1,0,0:0:0:0:
192,192,100880,1,0,0:0:0:0:
64,192,100880,1,0,0:0:0:0:
448,192,100880,1,0,0:0:0:0:
192,192,101030,1,0,0:0:0:0:
320,192,101180,1,0,0:0:0:0:
192,192,101180,1,0,0:0:0:0:
448,192,101180,1,0,0:0:0:0:
320,192,101330,1,0,0:0:0:0:
448,192,101330,1,0,0:0:0:0:
448,192,101480,1,0,0:0:0:0:
320,192,101480,1,0,0:0:0:0:
192,192,101480,1,0,0:0:0:0:
64,192,101480,1,0,0:0:0:0:
192,192,101630,1,0,0:0:0:0:
448,192,101780,1,0,0:0:0:0:
320,192,101780,1,0,0:0:0:0:
64,192,101780,1,0,0:0:0:0:
192,192,101930,1,0,0:0:0:0:
448,192,101930,1,0,0:0:0:0:
448,192,102080,1,0,0:0:0:0:
320,192,102080,1,0,0:0:0:0:
192,192,102080,1,0,0:0:0:0:
64,192,102080,1,0,0:0:0:0:
320,192,102230,1,0,0:0:0:0:
448,192,102380,1,0,0:0:0:0:
192,192,102380,1,0,0:0:0:0:
64,192,102380,1,0,0:0:0:0:
192,192,102530,1,0,0:0:0:0:
448,192,102680,1,0,0:0:0:0:
320,192,102680,1,0,0:0:0:0:
64,192,102680,1,0,0:0:0:0:
192,192,102680,128,0,102717:0:0:0:0:
320,192,102830,128,0,102867:0:0:0:0:
192,192,102980,1,0,0:0:0:0:
64,192,102980,1,0,0:0:0:0:
448,192,102980,128,0,103017:0:0:0:0:
64,192,103130,1,0,0:0:0:0:
320,192,103130,128,0,103167:0:0:0:0:
192,192,103280,1,0,0:0:0:0:
320,192,103280,1,0,0:0:0:0:
448,192,103280,1,0,0:0:0:0:
64,192,103280,128,0,103317:0:0:0:0:
320,192,103430,128,0,103467:0:0:0:0:
448,192,103580,1,0,0:0:0:0:
64,192,103580,1,0,0:0:0:0:
192,192,103580,128,0,103617:0:0:0:0:
192,192,103730,1,0,0:0:0:0:
64,192,103730,128,0,103767:0:0:0:0:
320,192,103880,1,0,0:0:0:0:
64,192,103880,1,0,0:0:0:0:
192,192,103880,1,0,0:0:0:0:
448,192,103880,128,0,103917:0:0:0:0:
320,192,104030,128,0,104067:0:0:0:0:
448,192,104180,1,0,0:0:0:0:
64,192,104180,1,0,0:0:0:0:
192,192,104180,128,0,104217:0:0:0:0:
320,192,104330,1,0,0:0:0:0:
64,192,104330,128,0,104367:0:0:0:0:
320,192,104480,1,0,0:0:0:0:
64,192,104480,1,0,0:0:0:0:
192,192,104480,1,0,0:0:0:0:
448,192,104480,128,0,104517:0:0:0:0:
448,192,104630,1,0,0:0:0:0:
192,192,104630,128,0,104667:0:0:0:0:
64,192,104780,1,0,0:0:0:0:
448,192,104780,1,0,0:0:0:0:
320,192,104780,128,0,104817:0:0:0:0:
320,192,104930,1,0,0:0:0:0:
64,192,104930,128,0,104967:0:0:0:0:
448,192,105080,1,0,0:0:0:0:
320,192,105080,1,0,0:0:0:0:
64,192,105080,1,0,0:0:0:0:
192,192,105080,128,0,105117:0:0:0:0:
192,192,105230,1,0,0:0:0:0:
448,192,105230,128,0,105267:0:0:0:0:
192,192,105380,1,0,0:0:0:0:
64,192,105380,1,0,0:0:0:0:
320,192,105380,128,0,105417:0:0:0:0:
448,192,105530,1,0,0:0:0:0:
64,192,105530,128,0,105567:0:0:0:0:
64,192,105680,1,0,0:0:0:0:
192,192,105680,1,0,0:0:0:0:
320,192,105680,1,0,0:0:0:0:
448,192,105680,128,0,105717:0:0:0:0:
192,192,105830,1,0,0:0:0:0:
320,192,105830,128,0,105867:0:0:0:0:
448,192,105980,1,0,0:0:0:0:
64,192,105980,1,0,0:0:0:0:
192,192,105980,128,0,106017:0:0:0:0:
448,192,106130,128,0,106167:0:0:0:0:
192,192,106280,1,0,0:0:0:0:
320,192,106280,1,0,0:0:0:0:
448,192,106280,1,0,0:0:0:0:
64,192,106280,128,0,106317:0:0:0:0:
192,192,106430,128,0,106467:0:0:0:0:
448,192,106580,128,0,106617:0:0:0:0:
320,192,106730,128,0,106767:0:0:0:0:
448,192,106880,1,0,0:0:0:0:
64,192,106880,128,0,106917:0:0:0:0:
64,192,107030,128,0,107067:0:0:0:0:
320,192,107180,128,0,107217:0:0:0:0:
320,192,107330,128,0,107367:0:0:0:0:
64,192,107480,1,0,0:0:0:0:
448,192,107480,1,0,0:0:0:0:
192,192,107480,1,0,0:0:0:0:
320,192,107480,1,0,0:0:0:0:
64,192,107630,1,0,0:0:0:0:
192,192,107630,1,0,0:0:0:0:
192,192,107780,1,0,0:0:0:0:
320,192,107780,1,0,0:0:0:0:
448,192,107780,1,0,0:0:0:0:
64,192,107930,1,0,0:0:0:0:
320,192,107930,1,0,0:0:0:0:
448,192,107930,1,0,0:0:0:0:
64,192,108080,1,0,0:0:0:0:
448,192,108080,1,0,0:0:0:0:
192,192,108080,1,0,0:0:0:0:
192,192,108230,1,0,0:0:0:0:
64,192,108230,1,0,0:0:0:0:
320,192,108230,1,0,0:0:0:0:
192,192,108380,1,0,0:0:0:0:
320,192,108380,1,0,0:0:0:0:
448,192,108380,1,0,0:0:0:0:
320,192,108530,1,0,0:0:0:0:
448,192,108530,1,0,0:0:0:0:
64,192,108530,1,0,0:0:0:0:
192,192,108680,1,0,0:0:0:0:
64,192,108680,1,0,0:0:0:0:
448,192,108680,1,0,0:0:0:0:
64,192,108830,1,0,0:0:0:0:
192,192,108980,1,0,0:0:0:0:
320,192,108980,1,0,0:0:0:0:
448,192,108980,1,0,0:0:0:0:
320,192,109130,1,0,0:0:0:0:
64,192,109130,1,0,0:0:0:0:
448,192,109130,1,0,0:0:0:0:
192,192,109280,1,0,0:0:0:0:
448,192,109280,1,0,0:0:0:0:
64,192,109280,1,0,0:0:0:0:
192,192,109430,1,0,0:0:0:0:
64,192,109580,1,0,0:0:0:0:
320,192,109580,1,0,0:0:0:0:
448,192,109580,1,0,0:0:0:0:
448,192,109730,1,0,0:0:0:0:
192,192,109730,1,0,0:0:0:0:
64,192,109730,1,0,0:0:0:0:
64,192,109880,1,0,0:0:0:0:
192,192,109880,1,0,0:0:0:0:
320,192,109880,1,0,0:0:0:0:
448,192,110030,1,0,0:0:0:0:
320,192,110030,1,0,0:0:0:0:
192,192,110030,1,0,0:0:0:0:
448,192,110180,1,0,0:0:0:0:
64,192,110180,1,0,0:0:0:0:
320,192,110180,1,0,0:0:0:0:
448,192,110330,1,0,0:0:0:0:
64,192,110330,1,0,0:0:0:0:
192,192,110330,1,0,0:0:0:0:
192,192,110480,1,0,0:0:0:0:
320,192,110480,1,0,0:0:0:0:
64,192,110480,1,0,0:0:0:0:
320,192,110630,1,0,0:0:0:0:
448,192,110630,1,0,0:0:0:0:
192,192,110630,1,0,0:0:0:0:
192,192,110780,1,0,0:0:0:0:
320,192,110780,1,0,0:0:0:0:
64,192,110780,1,0,0:0:0:0:
192,192,110930,1,0,0:0:0:0:
64,192,110930,1,0,0:0:0:0:
448,192,110930,1,0,0:0:0:0:
64,192,111080,1,0,0:0:0:0:
320,192,111080,1,0,0:0:0:0:
448,192,111080,1,0,0:0:0:0:
320,192,111230,1,0,0:0:0:0:
192,192,111230,1,0,0:0:0:0:
448,192,111230,1,0,0:0:0:0:
64,192,111380,1,0,0:0:0:0:
320,192,111380,1,0,0:0:0:0:
448,192,111380,1,0,0:0:0:0:
192,192,111530,1,0,0:0:0:0:
64,192,111530,1,0,0:0:0:0:
448,192,111530,1,0,0:0:0:0:
64,192,111680,1,0,0:0:0:0:
192,192,111680,1,0,0:0:0:0:
320,192,111680,1,0,0:0:0:0:
192,192,111830,1,0,0:0:0:0:
64,192,111980,1,0,0:0:0:0:
320,192,111980,1,0,0:0:0:0:
448,192,111980,1,0,0:0:0:0:
448,192,112130,1,0,0:0:0:0:
192,192,112130,1,0,0:0:0:0:
64,192,112130,1,0,0:0:0:0:
64,192,112280,1,0,0:0:0:0:
192,192,112280,1,0,0:0:0:0:
320,192,112280,1,0,0:0:0:0:
192,192,112430,1,0,0:0:0:0:
64,192,112430,1,0,0:0:0:0:
448,192,112430,1,0,0:0:0:0:
64,192,112580,1,0,0:0:0:0:
320,192,112580,1,0,0:0:0:0:
448,192,112580,1,0,0:0:0:0:
448,192,112730,1,0,0:0:0:0:
192,192,112730,1,0,0:0:0:0:
320,192,112730,1,0,0:0:0:0:
448,192,112880,1,0,0:0:0:0:
320,192,112880,1,0,0:0:0:0:
64,192,112880,1,0,0:0:0:0:
64,192,113030,1,0,0:0:0:0:
192,192,113180,1,0,0:0:0:0:
320,192,113180,1,0,0:0:0:0:
448,192,113180,1,0,0:0:0:0:
448,192,113330,1,0,0:0:0:0:
320,192,113330,1,0,0:0:0:0:
64,192,113330,1,0,0:0:0:0:
192,192,113480,1,0,0:0:0:0:
448,192,113480,1,0,0:0:0:0:
320,192,113480,1,0,0:0:0:0:
192,192,113630,1,0,0:0:0:0:
64,192,113780,1,0,0:0:0:0:
320,192,113780,1,0,0:0:0:0:
448,192,113780,1,0,0:0:0:0:
192,192,113930,1,0,0:0:0:0:
448,192,113930,1,0,0:0:0:0:
320,192,113930,1,0,0:0:0:0:
64,192,114080,1,0,0:0:0:0:
192,192,114080,1,0,0:0:0:0:
448,192,114080,1,0,0:0:0:0:
64,192,114230,1,0,0:0:0:0:
320,192,114230,1,0,0:0:0:0:
192,192,114230,1,0,0:0:0:0:
192,192,114380,1,0,0:0:0:0:
448,192,114380,1,0,0:0:0:0:
64,192,114380,1,0,0:0:0:0:
448,192,114530,1,0,0:0:0:0:
192,192,114530,1,0,0:0:0:0:
320,192,114530,1,0,0:0:0:0:
64,192,114680,1,0,0:0:0:0:
320,192,114680,1,0,0:0:0:0:
448,192,114680,1,0,0:0:0:0:
64,192,114830,1,0,0:0:0:0:
320,192,114830,1,0,0:0:0:0:
320,192,114980,1,0,0:0:0:0:
448,192,114980,1,0,0:0:0:0:
192,192,114980,1,0,0:0:0:0:
64,192,115130,1,0,0:0:0:0:
448,192,115130,1,0,0:0:0:0:
192,192,115130,1,0,0:0:0:0:
448,192,115280,1,0,0:0:0:0:
320,192,115280,1,0,0:0:0:0:
192,192,115280,1,0,0:0:0:0:
320,192,115430,1,0,0:0:0:0:
192,192,115430,1,0,0:0:0:0:
64,192,115430,1,0,0:0:0:0:
64,192,115580,1,0,0:0:0:0:
320,192,115580,1,0,0:0:0:0:
448,192,115580,1,0,0:0:0:0:
64,192,115730,1,0,0:0:0:0:
192,192,115730,1,0,0:0:0:0:
320,192,115880,1,0,0:0:0:0:
448,192,115880,1,0,0:0:0:0:
192,192,115880,1,0,0:0:0:0:
320,192,116030,1,0,0:0:0:0:
448,192,116030,1,0,0:0:0:0:
64,192,116030,1,0,0:0:0:0:
192,192,116180,1,0,0:0:0:0:
448,192,116180,1,0,0:0:0:0:
64,192,116180,1,0,0:0:0:0:
320,192,116330,1,0,0:0:0:0:
192,192,116330,1,0,0:0:0:0:
64,192,116330,1,0,0:0:0:0:
192,192,116480,1,0,0:0:0:0:
320,192,116480,1,0,0:0:0:0:
448,192,116480,1,0,0:0:0:0:
64,192,116630,1,0,0:0:0:0:
448,192,116630,1,0,0:0:0:0:
64,192,116780,1,0,0:0:0:0:
192,192,116780,1,0,0:0:0:0:
320,192,116780,1,0,0:0:0:0:
192,192,116930,1,0,0:0:0:0:
448,192,116930,1,0,0:0:0:0:
448,192,117080,1,0,0:0:0:0:
64,192,117080,1,0,0:0:0:0:
192,192,117080,1,0,0:0:0:0:
448,192,117230,1,0,0:0:0:0:
320,192,117230,1,0,0:0:0:0:
64,192,117230,1,0,0:0:0:0:
320,192,117380,1,0,0:0:0:0:
192,192,117380,1,0,0:0:0:0:
448,192,117380,1,0,0:0:0:0:
448,192,117530,1,0,0:0:0:0:
192,192,117530,1,0,0:0:0:0:
64,192,117530,1,0,0:0:0:0:
192,192,117680,1,0,0:0:0:0:
64,192,117680,1,0,0:0:0:0:
320,192,117680,1,0,0:0:0:0:
320,192,117830,1,0,0:0:0:0:
448,192,117830,1,0,0:0:0:0:
320,192,117980,1,0,0:0:0:0:
192,192,117980,1,0,0:0:0:0:
64,192,117980,1,0,0:0:0:0:
192,192,118130,1,0,0:0:0:0:
64,192,118130,1,0,0:0:0:0:
448,192,118130,1,0,0:0:0:0:
320,192,118280,1,0,0:0:0:0:
448,192,118280,1,0,0:0:0:0:
64,192,118280,1,0,0:0:0:0:
448,192,118430,1,0,0:0:0:0:
192,192,118430,1,0,0:0:0:0:
320,192,118430,1,0,0:0:0:0:
320,192,118580,1,0,0:0:0:0:
192,192,118580,1,0,0:0:0:0:
64,192,118580,1,0,0:0:0:0:
192,192,118730,1,0,0:0:0:0:
448,192,118730,1,0,0:0:0:0:
320,192,118730,1,0,0:0:0:0:
320,192,118880,1,0,0:0:0:0:
64,192,118880,1,0,0:0:0:0:
448,192,118880,1,0,0:0:0:0:
320,192,119030,1,0,0:0:0:0:
192,192,119030,1,0,0:0:0:0:
448,192,119180,1,0,0:0:0:0:
192,192,119180,1,0,0:0:0:0:
64,192,119180,1,0,0:0:0:0:
192,192,119330,1,0,0:0:0:0:
320,192,119330,1,0,0:0:0:0:
64,192,119480,1,0,0:0:0:0:
448,192,119480,1,0,0:0:0:0:
320,192,119480,1,0,0:0:0:0:
64,192,119630,1,0,0:0:0:0:
448,192,119780,1,0,0:0:0:0:
192,192,119780,1,0,0:0:0:0:
320,192,119780,1,0,0:0:0:0:
64,192,119930,1,0,0:0:0:0:
448,192,119930,1,0,0:0:0:0:
320,192,119930,1,0,0:0:0:0:
192,192,120080,1,0,0:0:0:0:
64,192,120080,1,0,0:0:0:0:
448,192,120080,1,0,0:0:0:0:
192,192,120230,1,0,0:0:0:0:
320,192,120230,1,0,0:0:0:0:
64,192,120230,1,0,0:0:0:0:
320,192,120380,1,0,0:0:0:0:
192,192,120380,1,0,0:0:0:0:
448,192,120380,1,0,0:0:0:0:
64,192,120530,1,0,0:0:0:0:
448,192,120530,1,0,0:0:0:0:
320,192,120680,1,0,0:0:0:0:
192,192,120680,1,0,0:0:0:0:
64,192,120680,1,0,0:0:0:0:
192,192,120830,1,0,0:0:0:0:
64,192,120830,1,0,0:0:0:0:
448,192,120830,1,0,0:0:0:0:
448,192,120980,1,0,0:0:0:0:
320,192,120980,1,0,0:0:0:0:
64,192,120980,1,0,0:0:0:0:
192,192,121130,1,0,0:0:0:0:
448,192,121130,1,0,0:0:0:0:
320,192,121130,1,0,0:0:0:0:
320,192,121280,1,0,0:0:0:0:
192,192,121280,1,0,0:0:0:0:
64,192,121280,1,0,0:0:0:0:
320,192,121430,1,0,0:0:0:0:
448,192,121580,1,0,0:0:0:0:
192,192,121580,1,0,0:0:0:0:
64,192,121580,1,0,0:0:0:0:
192,192,121730,1,0,0:0:0:0:
320,192,121730,1,0,0:0:0:0:
448,192,121880,1,0,0:0:0:0:
320,192,121880,1,0,0:0:0:0:
64,192,121880,1,0,0:0:0:0:
320,192,122030,1,0,0:0:0:0:
448,192,122180,1,0,0:0:0:0:
192,192,122180,1,0,0:0:0:0:
64,192,122180,1,0,0:0:0:0:
64,192,122330,1,0,0:0:0:0:
320,192,122330,1,0,0:0:0:0:
448,192,122330,1,0,0:0:0:0:
192,192,122480,1,0,0:0:0:0:
320,192,122480,1,0,0:0:0:0:
448,192,122480,1,0,0:0:0:0:
320,192,122630,1,0,0:0:0:0:
448,192,122780,1,0,0:0:0:0:
192,192,122780,1,0,0:0:0:0:
64,192,122780,1,0,0:0:0:0:
64,192,122930,1,0,0:0:0:0:
192,192,122930,1,0,0:0:0:0:
320,192,122930,1,0,0:0:0:0:
448,192,123080,1,0,0:0:0:0:
320,192,123080,1,0,0:0:0:0:
192,192,123080,1,0,0:0:0:0:
320,192,123230,1,0,0:0:0:0:
448,192,123380,1,0,0:0:0:0:
192,192,123380,1,0,0:0:0:0:
64,192,123380,1,0,0:0:0:0:
320,192,123530,1,0,0:0:0:0:
64,192,123530,1,0,0:0:0:0:
448,192,123680,1,0,0:0:0:0:
320,192,123680,1,0,0:0:0:0:
192,192,123680,1,0,0:0:0:0:
448,192,123830,1,0,0:0:0:0:
192,192,123830,1,0,0:0:0:0:
320,192,123980,1,0,0:0:0:0:
64,192,123980,1,0,0:0:0:0:
448,192,123980,1,0,0:0:0:0:
64,192,124130,1,0,0:0:0:0:
320,192,124130,1,0,0:0:0:0:
448,192,124280,1,0,0:0:0:0:
192,192,124280,1,0,0:0:0:0:
64,192,124280,1,0,0:0:0:0:
448,192,124430,1,0,0:0:0:0:
320,192,124430,1,0,0:0:0:0:
64,192,124430,1,0,0:0:0:0:
192,192,124580,1,0,0:0:0:0:
448,192,124580,1,0,0:0:0:0:
320,192,124580,1,0,0:0:0:0:
448,192,124730,1,0,0:0:0:0:
64,192,124730,1,0,0:0:0:0:
320,192,124730,1,0,0:0:0:0:
448,192,124880,1,0,0:0:0:0:
64,192,124880,1,0,0:0:0:0:
192,192,124880,1,0,0:0:0:0:
192,192,125030,1,0,0:0:0:0:
448,192,125180,1,0,0:0:0:0:
320,192,125180,1,0,0:0:0:0:
64,192,125180,1,0,0:0:0:0:
320,192,125330,1,0,0:0:0:0:
192,192,125480,1,0,0:0:0:0:
448,192,125480,1,0,0:0:0:0:
64,192,125480,1,0,0:0:0:0:
448,192,125630,1,0,0:0:0:0:
192,192,125780,1,0,0:0:0:0:
320,192,125780,1,0,0:0:0:0:
64,192,125780,1,0,0:0:0:0:
64,192,125930,1,0,0:0:0:0:
320,192,125930,1,0,0:0:0:0:
448,192,126080,128,0,126380:0:0:0:0:
64,192,126080,128,0,126380:0:0:0:0:
320,192,126380,128,0,126680:0:0:0:0:
192,192,126380,128,0,126680:0:0:0:0:
448,192,126680,1,0,0:0:0:0:
64,192,126680,1,0,0:0:0:0:
448,192,126830,1,0,0:0:0:0:
320,192,126980,1,0,0:0:0:0:
192,192,126980,1,0,0:0:0:0:
64,192,126980,1,0,0:0:0:0:
448,192,127130,1,0,0:0:0:0:
192,192,127130,1,0,0:0:0:0:
448,192,127280,1,0,0:0:0:0:
192,192,127280,1,0,0:0:0:0:
64,192,127280,1,0,0:0:0:0:
320,192,127280,1,0,0:0:0:0:
320,192,127430,1,0,0:0:0:0:
320,192,127580,1,0,0:0:0:0:
192,192,127580,1,0,0:0:0:0:
64,192,127580,1,0,0:0:0:0:
192,192,127730,1,0,0:0:0:0:
64,192,127730,1,0,0:0:0:0:
320,192,127880,1,0,0:0:0:0:
448,192,127880,1,0,0:0:0:0:
192,192,127880,1,0,0:0:0:0:
64,192,127880,1,0,0:0:0:0:
448,192,128030,1,0,0:0:0:0:
320,192,128180,1,0,0:0:0:0:
192,192,128180,1,0,0:0:0:0:
64,192,128180,1,0,0:0:0:0:
192,192,128330,1,0,0:0:0:0:
448,192,128330,1,0,0:0:0:0:
320,192,128480,1,0,0:0:0:0:
192,192,128480,1,0,0:0:0:0:
64,192,128480,1,0,0:0:0:0:
448,192,128480,1,0,0:0:0:0:
320,192,128630,1,0,0:0:0:0:
448,192,128780,1,0,0:0:0:0:
192,192,128780,1,0,0:0:0:0:
64,192,128780,1,0,0:0:0:0:
192,192,128930,1,0,0:0:0:0:
64,192,129080,1,0,0:0:0:0:
448,192,129080,1,0,0:0:0:0:
320,192,129080,1,0,0:0:0:0:
192,192,129080,1,0,0:0:0:0:
64,192,129230,1,0,0:0:0:0:
448,192,129380,1,0,0:0:0:0:
192,192,129380,1,0,0:0:0:0:
320,192,129380,1,0,0:0:0:0:
64,192,129530,1,0,0:0:0:0:
448,192,129530,1,0,0:0:0:0:
320,192,129680,1,0,0:0:0:0:
192,192,129680,1,0,0:0:0:0:
64,192,129680,1,0,0:0:0:0:
448,192,129680,1,0,0:0:0:0:
192,192,129830,1,0,0:0:0:0:
320,192,129980,1,0,0:0:0:0:
192,192,129980,1,0,0:0:0:0:
448,192,129980,1,0,0:0:0:0:
320,192,130130,1,0,0:0:0:0:
448,192,130130,1,0,0:0:0:0:
448,192,130280,1,0,0:0:0:0:
320,192,130280,1,0,0:0:0:0:
192,192,130280,1,0,0:0:0:0:
64,192,130280,1,0,0:0:0:0:
192,192,130430,1,0,0:0:0:0:
448,192,130580,1,0,0:0:0:0:
320,192,130580,1,0,0:0:0:0:
64,192,130580,1,0,0:0:0:0:
192,192,130730,1,0,0:0:0:0:
448,192,130730,1,0,0:0:0:0:
448,192,130880,1,0,0:0:0:0:
320,192,130880,1,0,0:0:0:0:
192,192,130880,1,0,0:0:0:0:
64,192,130880,1,0,0:0:0:0:
320,192,131030,1,0,0:0:0:0:
448,192,131180,1,0,0:0:0:0:
192,192,131180,1,0,0:0:0:0:
64,192,131180,1,0,0:0:0:0:
192,192,131330,1,0,0:0:0:0:
448,192,131480,1,0,0:0:0:0:
320,192,131480,1,0,0:0:0:0:
64,192,131480,1,0,0:0:0:0:
192,192,131480,1,0,0:0:0:0:
320,192,131630,1,0,0:0:0:0:
448,192,131780,1,0,0:0:0:0:
192,192,131780,1,0,0:0:0:0:
64,192,131780,1,0,0:0:0:0:
64,192,131930,1,0,0:0:0:0:
320,192,131930,1,0,0:0:0:0:
64,192,132080,1,0,0:0:0:0:
192,192,132080,1,0,0:0:0:0:
320,192,132080,1,0,0:0:0:0:
448,192,132080,1,0,0:0:0:0:
320,192,132230,1,0,0:0:0:0:
448,192,132380,1,0,0:0:0:0:
192,192,132380,1,0,0:0:0:0:
64,192,132380,1,0,0:0:0:0:
64,192,132530,1,0,0:0:0:0:
192,192,132530,1,0,0:0:0:0:
448,192,132680,1,0,0:0:0:0:
320,192,132680,1,0,0:0:0:0:
64,192,132680,1,0,0:0:0:0:
192,192,132680,1,0,0:0:0:0:
320,192,132830,1,0,0:0:0:0:
448,192,132980,1,0,0:0:0:0:
192,192,132980,1,0,0:0:0:0:
64,192,132980,1,0,0:0:0:0:
320,192,133130,1,0,0:0:0:0:
64,192,133130,1,0,0:0:0:0:
448,192,133280,1,0,0:0:0:0:
320,192,133280,1,0,0:0:0:0:
64,192,133280,1,0,0:0:0:0:
192,192,133280,1,0,0:0:0:0:
448,192,133430,1,0,0:0:0:0:
192,192,133430,1,0,0:0:0:0:
320,192,133580,1,0,0:0:0:0:
64,192,133580,1,0,0:0:0:0:
448,192,133580,1,0,0:0:0:0:
64,192,133730,1,0,0:0:0:0:
320,192,133730,1,0,0:0:0:0:
448,192,133880,1,0,0:0:0:0:
320,192,133880,1,0,0:0:0:0:
192,192,133880,1,0,0:0:0:0:
64,192,133880,1,0,0:0:0:0:
448,192,134030,1,0,0:0:0:0:
192,192,134030,1,0,0:0:0:0:
192,192,134180,1,0,0:0:0:0:
64,192,134180,1,0,0:0:0:0:
320,192,134180,1,0,0:0:0:0:
448,192,134330,1,0,0:0:0:0:
64,192,134330,1,0,0:0:0:0:
448,192,134480,1,0,0:0:0:0:
64,192,134480,1,0,0:0:0:0:
192,192,134480,1,0,0:0:0:0:
320,192,134480,1,0,0:0:0:0:
192,192,134630,1,0,0:0:0:0:
320,192,134630,1,0,0:0:0:0:
448,192,134780,1,0,0:0:0:0:
192,192,134780,1,0,0:0:0:0:
64,192,134780,1,0,0:0:0:0:
448,192,134930,1,0,0:0:0:0:
320,192,134930,1,0,0:0:0:0:
192,192,135080,1,0,0:0:0:0:
64,192,135080,1,0,0:0:0:0:
192,192,135230,1,0,0:0:0:0:
64,192,135230,1,0,0:0:0:0:
192,192,135380,1,0,0:0:0:0:
64,192,135380,1,0,0:0:0:0:
192,192,135530,1,0,0:0:0:0:
64,192,135530,1,0,0:0:0:0:
448,192,135680,1,0,0:0:0:0:
320,192,135680,1,0,0:0:0:0:
448,192,135830,1,0,0:0:0:0:
320,192,135830,1,0,0:0:0:0:
448,192,135980,1,0,0:0:0:0:
320,192,135980,1,0,0:0:0:0:
448,192,136130,1,0,0:0:0:0:
320,192,136130,1,0,0:0:0:0:
64,192,136280,1,0,0:0:0:0:
448,192,136280,1,0,0:0:0:0:
192,192,136280,1,0,0:0:0:0:
320,192,136280,1,0,0:0:0:0:
64,192,136430,1,0,0:0:0:0:
192,192,136580,1,0,0:0:0:0:
320,192,136580,1,0,0:0:0:0:
448,192,136580,1,0,0:0:0:0:
64,192,136730,1,0,0:0:0:0:
320,192,136730,1,0,0:0:0:0:
64,192,136880,1,0,0:0:0:0:
320,192,136880,1,0,0:0:0:0:
448,192,136880,1,0,0:0:0:0:
192,192,136880,1,0,0:0:0:0:
192,192,137030,1,0,0:0:0:0:
192,192,137180,1,0,0:0:0:0:
320,192,137180,1,0,0:0:0:0:
448,192,137180,1,0,0:0:0:0:
320,192,137330,1,0,0:0:0:0:
448,192,137330,1,0,0:0:0:0:
192,192,137480,1,0,0:0:0:0:
64,192,137480,1,0,0:0:0:0:
320,192,137480,1,0,0:0:0:0:
448,192,137480,1,0,0:0:0:0:
64,192,137630,1,0,0:0:0:0:
192,192,137780,1,0,0:0:0:0:
320,192,137780,1,0,0:0:0:0:
448,192,137780,1,0,0:0:0:0:
320,192,137930,1,0,0:0:0:0:
64,192,137930,1,0,0:0:0:0:
192,192,138080,1,0,0:0:0:0:
320,192,138080,1,0,0:0:0:0:
448,192,138080,1,0,0:0:0:0:
64,192,138080,1,0,0:0:0:0:
192,192,138230,1,0,0:0:0:0:
64,192,138380,1,0,0:0:0:0:
320,192,138380,1,0,0:0:0:0:
448,192,138380,1,0,0:0:0:0:
320,192,138530,1,0,0:0:0:0:
448,192,138680,1,0,0:0:0:0:
64,192,138680,1,0,0:0:0:0:
192,192,138680,1,0,0:0:0:0:
320,192,138680,1,0,0:0:0:0:
448,192,138830,1,0,0:0:0:0:
64,192,138980,1,0,0:0:0:0:
320,192,138980,1,0,0:0:0:0:
192,192,138980,1,0,0:0:0:0:
448,192,139130,1,0,0:0:0:0:
64,192,139130,1,0,0:0:0:0:
192,192,139280,1,0,0:0:0:0:
320,192,139280,1,0,0:0:0:0:
448,192,139280,1,0,0:0:0:0:
64,192,139280,1,0,0:0:0:0:
320,192,139430,1,0,0:0:0:0:
192,192,139580,1,0,0:0:0:0:
320,192,139580,1,0,0:0:0:0:
64,192,139580,1,0,0:0:0:0:
192,192,139730,1,0,0:0:0:0:
64,192,139730,1,0,0:0:0:0:
64,192,139880,1,0,0:0:0:0:
192,192,139880,1,0,0:0:0:0:
320,192,139880,1,0,0:0:0:0:
448,192,139880,1,0,0:0:0:0:
320,192,140030,1,0,0:0:0:0:
64,192,140180,1,0,0:0:0:0:
192,192,140180,1,0,0:0:0:0:
448,192,140180,1,0,0:0:0:0:
320,192,140330,1,0,0:0:0:0:
64,192,140330,1,0,0:0:0:0:
64,192,140480,1,0,0:0:0:0:
192,192,140480,1,0,0:0:0:0:
320,192,140480,1,0,0:0:0:0:
448,192,140480,1,0,0:0:0:0:
192,192,140630,1,0,0:0:0:0:
64,192,140780,1,0,0:0:0:0:
320,192,140780,1,0,0:0:0:0:
448,192,140780,1,0,0:0:0:0:
320,192,140930,1,0,0:0:0:0:
64,192,141080,1,0,0:0:0:0:
192,192,141080,1,0,0:0:0:0:
448,192,141080,1,0,0:0:0:0:
320,192,141080,1,0,0:0:0:0:
192,192,141230,1,0,0:0:0:0:
64,192,141380,1,0,0:0:0:0:
320,192,141380,1,0,0:0:0:0:
448,192,141380,1,0,0:0:0:0:
448,192,141530,1,0,0:0:0:0:
192,192,141530,1,0,0:0:0:0:
448,192,141680,1,0,0:0:0:0:
320,192,141680,1,0,0:0:0:0:
192,192,141680,1,0,0:0:0:0:
64,192,141680,1,0,0:0:0:0:
192,192,141830,1,0,0:0:0:0:
64,192,141980,1,0,0:0:0:0:
320,192,141980,1,0,0:0:0:0:
448,192,141980,1,0,0:0:0:0:
448,192,142130,1,0,0:0:0:0:
320,192,142130,1,0,0:0:0:0:
64,192,142280,1,0,0:0:0:0:
192,192,142280,1,0,0:0:0:0:
448,192,142280,1,0,0:0:0:0:
320,192,142280,1,0,0:0:0:0:
192,192,142430,1,0,0:0:0:0:
64,192,142580,1,0,0:0:0:0:
320,192,142580,1,0,0:0:0:0:
448,192,142580,1,0,0:0:0:0:
192,192,142730,1,0,0:0:0:0:
448,192,142730,1,0,0:0:0:0:
64,192,142880,1,0,0:0:0:0:
192,192,142880,1,0,0:0:0:0:
448,192,142880,1,0,0:0:0:0:
320,192,142880,1,0,0:0:0:0:
64,192,143030,1,0,0:0:0:0:
320,192,143030,1,0,0:0:0:0:
192,192,143180,1,0,0:0:0:0:
448,192,143180,1,0,0:0:0:0:
64,192,143180,1,0,0:0:0:0:
448,192,143330,1,0,0:0:0:0:
192,192,143330,1,0,0:0:0:0:
64,192,143480,1,0,0:0:0:0:
192,192,143480,1,0,0:0:0:0:
320,192,143480,1,0,0:0:0:0:
448,192,143480,1,0,0:0:0:0:
64,192,143630,1,0,0:0:0:0:
320,192,143630,1,0,0:0:0:0:
320,192,143780,1,0,0:0:0:0:
448,192,143780,1,0,0:0:0:0:
192,192,143780,1,0,0:0:0:0:
64,192,143930,1,0,0:0:0:0:
448,192,143930,1,0,0:0:0:0:
64,192,144080,1,0,0:0:0:0:
448,192,144080,1,0,0:0:0:0:
320,192,144080,1,0,0:0:0:0:
192,192,144080,1,0,0:0:0:0:
320,192,144230,1,0,0:0:0:0:
192,192,144230,1,0,0:0:0:0:
64,192,144380,1,0,0:0:0:0:
320,192,144380,1,0,0:0:0:0:
448,192,144380,1,0,0:0:0:0:
64,192,144530,1,0,0:0:0:0:
320,192,144680,1,0,0:0:0:0:
192,192,144680,1,0,0:0:0:0:
448,192,144830,1,0,0:0:0:0:
64,192,144830,1,0,0:0:0:0:
320,192,144980,1,0,0:0:0:0:
192,192,144980,1,0,0:0:0:0:
448,192,145130,1,0,0:0:0:0:
64,192,145130,1,0,0:0:0:0:
320,192,145280,128,0,145580:0:0:0:0:
192,192,145280,128,0,145580:0:0:0:0:
64,192,145580,128,0,145880:0:0:0:0:
448,192,145580,128,0,145880:0:0:0:0:
192,192,145880,1,0,0:0:0:0:
320,192,145880,1,0,0:0:0:0:
448,192,145930,1,0,0:0:0:0:
64,192,145980,1,0,0:0:0:0:
192,192,146030,1,0,0:0:0:0:
320,192,146080,1,0,0:0:0:0:
448,192,146130,1,0,0:0:0:0:
320,192,146180,1,0,0:0:0:0:
192,192,146230,1,0,0:0:0:0:
64,192,146280,1,0,0:0:0:0:
448,192,146330,1,0,0:0:0:0:
320,192,146330,1,0,0:0:0:0:
192,192,146380,1,0,0:0:0:0:
64,192,146430,1,0,0:0:0:0:
320,192,146480,1,0,0:0:0:0:
448,192,146530,1,0,0:0:0:0:
192,192,146580,1,0,0:0:0:0:
64,192,146630,1,0,0:0:0:0:
448,192,146680,1,0,0:0:0:0:
320,192,146730,1,0,0:0:0:0:
192,192,146780,1,0,0:0:0:0:
64,192,146780,1,0,0:0:0:0:
448,192,146830,1,0,0:0:0:0:
320,192,146880,1,0,0:0:0:0:
192,192,146930,1,0,0:0:0:0:
448,192,146980,1,0,0:0:0:0:
64,192,147030,1,0,0:0:0:0:
192,192,147080,1,0,0:0:0:0:
320,192,147080,1,0,0:0:0:0:
448,192,147130,1,0,0:0:0:0:
64,192,147180,1,0,0:0:0:0:
192,192,147230,1,0,0:0:0:0:
320,192,147280,1,0,0:0:0:0:
448,192,147330,1,0,0:0:0:0:
64,192,147380,1,0,0:0:0:0:
192,192,147430,1,0,0:0:0:0:
320,192,147480,1,0,0:0:0:0:
448,192,147530,1,0,0:0:0:0:
320,192,147580,1,0,0:0:0:0:
192,192,147630,1,0,0:0:0:0:
64,192,147680,1,0,0:0:0:0:
448,192,147680,1,0,0:0:0:0:
320,192,147730,1,0,0:0:0:0:
192,192,147780,1,0,0:0:0:0:
64,192,147830,1,0,0:0:0:0:
192,192,147880,1,0,0:0:0:0:
320,192,147930,1,0,0:0:0:0:
448,192,147980,1,0,0:0:0:0:
64,192,148030,1,0,0:0:0:0:
192,192,148080,1,0,0:0:0:0:
320,192,148130,1,0,0:0:0:0:
448,192,148180,1,0,0:0:0:0:
320,192,148230,1,0,0:0:0:0:
64,192,148280,1,0,0:0:0:0:
192,192,148280,1,0,0:0:0:0:
448,192,148330,1,0,0:0:0:0:
320,192,148380,1,0,0:0:0:0:
192,192,148430,1,0,0:0:0:0:
64,192,148480,1,0,0:0:0:0:
192,192,148530,1,0,0:0:0:0:
320,192,148580,1,0,0:0:0:0:
448,192,148630,1,0,0:0:0:0:
64,192,148680,1,0,0:0:0:0:
192,192,148730,1,0,0:0:0:0:
448,192,148730,1,0,0:0:0:0:
320,192,148780,1,0,0:0:0:0:
192,192,148830,1,0,0:0:0:0:
64,192,148880,1,0,0:0:0:0:
320,192,148930,1,0,0:0:0:0:
448,192,148980,1,0,0:0:0:0:
64,192,149030,1,0,0:0:0:0:
192,192,149080,1,0,0:0:0:0:
320,192,149130,1,0,0:0:0:0:
448,192,149180,1,0,0:0:0:0:
64,192,149180,1,0,0:0:0:0:
192,192,149230,1,0,0:0:0:0:
320,192,149280,1,0,0:0:0:0:
448,192,149330,1,0,0:0:0:0:
192,192,149380,1,0,0:0:0:0:
320,192,149430,1,0,0:0:0:0:
448,192,149480,1,0,0:0:0:0:
64,192,149480,1,0,0:0:0:0:
64,192,149630,1,0,0:0:0:0:
192,192,149780,1,0,0:0:0:0:
320,192,149780,1,0,0:0:0:0:
320,192,149930,1,0,0:0:0:0:
448,192,149930,1,0,0:0:0:0:
64,192,150080,1,0,0:0:0:0:
192,192,150080,1,0,0:0:0:0:
448,192,150080,1,0,0:0:0:0:
192,192,150230,1,0,0:0:0:0:
64,192,150380,1,0,0:0:0:0:
320,192,150380,1,0,0:0:0:0:
64,192,150530,1,0,0:0:0:0:
192,192,150680,1,0,0:0:0:0:
320,192,150680,1,0,0:0:0:0:
448,192,150730,1,0,0:0:0:0:
64,192,150780,1,0,0:0:0:0:
192,192,150830,1,0,0:0:0:0:
320,192,150880,1,0,0:0:0:0:
448,192,150930,1,0,0:0:0:0:
320,192,150980,1,0,0:0:0:0:
192,192,151030,1,0,0:0:0:0:
64,192,151080,1,0,0:0:0:0:
448,192,151130,1,0,0:0:0:0:
320,192,151130,1,0,0:0:0:0:
192,192,151180,1,0,0:0:0:0:
64,192,151230,1,0,0:0:0:0:
320,192,151280,1,0,0:0:0:0:
448,192,151330,1,0,0:0:0:0:
192,192,151380,1,0,0:0:0:0:
64,192,151430,1,0,0:0:0:0:
448,192,151480,1,0,0:0:0:0:
320,192,151530,1,0,0:0:0:0:
192,192,151580,1,0,0:0:0:0:
64,192,151580,1,0,0:0:0:0:
448,192,151630,1,0,0:0:0:0:
320,192,151680,1,0,0:0:0:0:
192,192,151730,1,0,0:0:0:0:
448,192,151780,1,0,0:0:0:0:
64,192,151830,1,0,0:0:0:0:
192,192,151880,1,0,0:0:0:0:
320,192,151880,1,0,0:0:0:0:
448,192,151930,1,0,0:0:0:0:
64,192,151980,1,0,0:0:0:0:
192,192,152030,1,0,0:0:0:0:
320,192,152080,1,0,0:0:0:0:
448,192,152130,1,0,0:0:0:0:
64,192,152180,1,0,0:0:0:0:
192,192,152230,1,0,0:0:0:0:
320,192,152280,1,0,0:0:0:0:
448,192,152330,1,0,0:0:0:0:
320,192,152380,1,0,0:0:0:0:
192,192,152430,1,0,0:0:0:0:
64,192,152480,1,0,0:0:0:0:
448,192,152480,1,0,0:0:0:0:
320,192,152530,1,0,0:0:0:0:
192,192,152580,1,0,0:0:0:0:
64,192,152630,1,0,0:0:0:0:
192,192,152680,1,0,0:0:0:0:
320,192,152730,1,0,0:0:0:0:
448,192,152780,1,0,0:0:0:0:
64,192,152830,1,0,0:0:0:0:
192,192,152880,1,0,0:0:0:0:
320,192,152930,1,0,0:0:0:0:
448,192,152980,1,0,0:0:0:0:
320,192,153030,1,0,0:0:0:0:
64,192,153080,1,0,0:0:0:0:
192,192,153080,1,0,0:0:0:0:
448,192,153130,1,0,0:0:0:0:
320,192,153180,1,0,0:0:0:0:
192,192,153230,1,0,0:0:0:0:
64,192,153280,1,0,0:0:0:0:
192,192,153330,1,0,0:0:0:0:
320,192,153380,1,0,0:0:0:0:
448,192,153430,1,0,0:0:0:0:
64,192,153480,1,0,0:0:0:0:
192,192,153530,1,0,0:0:0:0:
448,192,153530,1,0,0:0:0:0:
320,192,153580,1,0,0:0:0:0:
192,192,153630,1,0,0:0:0:0:
64,192,153680,1,0,0:0:0:0:
320,192,153730,1,0,0:0:0:0:
448,192,153780,1,0,0:0:0:0:
64,192,153830,1,0,0:0:0:0:
192,192,153880,1,0,0:0:0:0:
320,192,153930,1,0,0:0:0:0:
448,192,153980,1,0,0:0:0:0:
64,192,153980,1,0,0:0:0:0:
192,192,154030,1,0,0:0:0:0:
320,192,154080,1,0,0:0:0:0:
448,192,154130,1,0,0:0:0:0:
192,192,154180,1,0,0:0:0:0:
64,192,154230,1,0,0:0:0:0:
448,192,154280,1,0,0:0:0:0:
320,192,154280,1,0,0:0:0:0:
320,192,154430,1,0,0:0:0:0:
448,192,154430,1,0,0:0:0:0:
320,192,154580,1,0,0:0:0:0:
448,192,154580,1,0,0:0:0:0:
320,192,154730,1,0,0:0:0:0:
448,192,154730,1,0,0:0:0:0:
192,192,154880,1,0,0:0:0:0:
448,192,154880,1,0,0:0:0:0:
64,192,154880,1,0,0:0:0:0:
192,192,155030,1,0,0:0:0:0:
64,192,155180,1,0,0:0:0:0:
320,192,155180,1,0,0:0:0:0:
448,192,155180,1,0,0:0:0:0:
64,192,155330,1,0,0:0:0:0:
192,192,155480,1,0,0:0:0:0:
320,192,155480,1,0,0:0:0:0:
448,192,155530,1,0,0:0:0:0:
64,192,155580,1,0,0:0:0:0:
192,192,155630,1,0,0:0:0:0:
320,192,155680,1,0,0:0:0:0:
448,192,155730,1,0,0:0:0:0:
320,192,155780,1,0,0:0:0:0:
192,192,155830,1,0,0:0:0:0:
64,192,155880,1,0,0:0:0:0:
448,192,155930,1,0,0:0:0:0:
320,192,155980,1,0,0:0:0:0:
192,192,156030,1,0,0:0:0:0:
64,192,156080,1,0,0:0:0:0:
320,192,156130,1,0,0:0:0:0:
448,192,156180,1,0,0:0:0:0:
192,192,156230,1,0,0:0:0:0:
64,192,156280,1,0,0:0:0:0:
320,192,156330,1,0,0:0:0:0:
192,192,156380,1,0,0:0:0:0:
448,192,156430,1,0,0:0:0:0:
320,192,156480,1,0,0:0:0:0:
192,192,156530,1,0,0:0:0:0:
448,192,156580,1,0,0:0:0:0:
64,192,156630,1,0,0:0:0:0:
192,192,156680,1,0,0:0:0:0:
320,192,156730,1,0,0:0:0:0:
448,192,156780,1,0,0:0:0:0:
64,192,156830,1,0,0:0:0:0:
192,192,156880,1,0,0:0:0:0:
320,192,156930,1,0,0:0:0:0:
192,192,156980,1,0,0:0:0:0:
64,192,157030,1,0,0:0:0:0:
320,192,157080,1,0,0:0:0:0:
448,192,157130,1,0,0:0:0:0:
320,192,157180,1,0,0:0:0:0:
192,192,157230,1,0,0:0:0:0:
64,192,157280,1,0,0:0:0:0:
320,192,157330,1,0,0:0:0:0:
448,192,157380,1,0,0:0:0:0:
64,192,157430,1,0,0:0:0:0:
192,192,157480,1,0,0:0:0:0:
320,192,157530,1,0,0:0:0:0:
448,192,157580,1,0,0:0:0:0:
64,192,157630,1,0,0:0:0:0:
192,192,157680,1,0,0:0:0:0:
320,192,157730,1,0,0:0:0:0:
448,192,157780,1,0,0:0:0:0:
320,192,157830,1,0,0:0:0:0:
64,192,157880,1,0,0:0:0:0:
192,192,157930,1,0,0:0:0:0:
320,192,157980,1,0,0:0:0:0:
448,192,158030,1,0,0:0:0:0:
64,192,158080,1,0,0:0:0:0:
192,192,158130,1,0,0:0:0:0:
320,192,158180,1,0,0:0:0:0:
448,192,158230,1,0,0:0:0:0:
64,192,158280,1,0,0:0:0:0:
192,192,158330,1,0,0:0:0:0:
320,192,158380,1,0,0:0:0:0:
192,192,158430,1,0,0:0:0:0:
64,192,158480,1,0,0:0:0:0:
448,192,158530,1,0,0:0:0:0:
320,192,158580,1,0,0:0:0:0:
64,192,158630,1,0,0:0:0:0:
192,192,158680,1,0,0:0:0:0:
320,192,158730,1,0,0:0:0:0:
64,192,158780,1,0,0:0:0:0:
192,192,158830,1,0,0:0:0:0:
320,192,158880,1,0,0:0:0:0:
448,192,158930,1,0,0:0:0:0:
192,192,158980,1,0,0:0:0:0:
320,192,159030,1,0,0:0:0:0:
448,192,159080,1,0,0:0:0:0:
192,192,159080,1,0,0:0:0:0:
64,192,159080,128,0,159117:0:0:0:0:
64,192,159230,128,0,159267:0:0:0:0:
192,192,159380,128,0,159417:0:0:0:0:
192,192,159530,128,0,159567:0:0:0:0:
320,192,159680,1,0,0:0:0:0:
448,192,159680,128,0,159717:0:0:0:0:
448,192,159830,128,0,159867:0:0:0:0:
320,192,159980,128,0,160017:0:0:0:0:
320,192,160130,128,0,160167:0:0:0:0:
64,192,160280,1,0,0:0:0:0:
320,192,160280,1,0,0:0:0:0:
192,192,160330,1,0,0:0:0:0:
448,192,160380,1,0,0:0:0:0:
320,192,160430,1,0,0:0:0:0:
192,192,160480,1,0,0:0:0:0:
64,192,160530,1,0,0:0:0:0:
320,192,160580,1,0,0:0:0:0:
192,192,160630,1,0,0:0:0:0:
64,192,160680,1,0,0:0:0:0:
448,192,160730,1,0,0:0:0:0:
320,192,160780,1,0,0:0:0:0:
192,192,160830,1,0,0:0:0:0:
64,192,160880,1,0,0:0:0:0:
320,192,160930,1,0,0:0:0:0:
448,192,160980,1,0,0:0:0:0:
192,192,161030,1,0,0:0:0:0:
64,192,161080,1,0,0:0:0:0:
320,192,161130,1,0,0:0:0:0:
192,192,161180,1,0,0:0:0:0:
448,192,161230,1,0,0:0:0:0:
320,192,161280,1,0,0:0:0:0:
192,192,161330,1,0,0:0:0:0:
448,192,161380,1,0,0:0:0:0:
64,192,161430,1,0,0:0:0:0:
192,192,161480,1,0,0:0:0:0:
320,192,161530,1,0,0:0:0:0:
448,192,161580,1,0,0:0:0:0:
64,192,161630,1,0,0:0:0:0:
192,192,161680,1,0,0:0:0:0:
320,192,161730,1,0,0:0:0:0:
192,192,161780,1,0,0:0:0:0:
64,192,161830,1,0,0:0:0:0:
320,192,161880,1,0,0:0:0:0:
448,192,161930,1,0,0:0:0:0:
320,192,161980,1,0,0:0:0:0:
192,192,162030,1,0,0:0:0:0:
64,192,162080,1,0,0:0:0:0:
320,192,162130,1,0,0:0:0:0:
448,192,162180,1,0,0:0:0:0:
64,192,162230,1,0,0:0:0:0:
192,192,162280,1,0,0:0:0:0:
320,192,162330,1,0,0:0:0:0:
448,192,162380,1,0,0:0:0:0:
64,192,162430,1,0,0:0:0:0:
192,192,162480,1,0,0:0:0:0:
320,192,162530,1,0,0:0:0:0:
448,192,162580,1,0,0:0:0:0:
320,192,162630,1,0,0:0:0:0:
64,192,162680,1,0,0:0:0:0:
192,192,162730,1,0,0:0:0:0:
320,192,162780,1,0,0:0:0:0:
448,192,162830,1,0,0:0:0:0:
64,192,162880,1,0,0:0:0:0:
192,192,162930,1,0,0:0:0:0:
320,192,162980,1,0,0:0:0:0:
448,192,163030,1,0,0:0:0:0:
64,192,163080,1,0,0:0:0:0:
192,192,163130,1,0,0:0:0:0:
320,192,163180,1,0,0:0:0:0:
192,192,163230,1,0,0:0:0:0:
64,192,163280,1,0,0:0:0:0:
448,192,163330,1,0,0:0:0:0:
320,192,163380,1,0,0:0:0:0:
64,192,163430,1,0,0:0:0:0:
192,192,163480,1,0,0:0:0:0:
320,192,163530,1,0,0:0:0:0:
64,192,163580,1,0,0:0:0:0:
192,192,163630,1,0,0:0:0:0:
320,192,163680,1,0,0:0:0:0:
448,192,163730,1,0,0:0:0:0:
192,192,163780,1,0,0:0:0:0:
320,192,163830,1,0,0:0:0:0:
64,192,163880,128,0,165080:0:0:0:0:
448,192,163880,128,0,164030:0:0:0:0:
320,192,164030,128,0,164180:0:0:0:0:
192,192,164180,128,0,164330:0:0:0:0:
448,192,164330,128,0,164480:0:0:0:0:
320,192,164480,128,0,164780:0:0:0:0:
448,192,164780,128,0,165080:0:0:0:0:
192,192,165080,1,0,0:0:0:0:
320,192,165080,1,0,0:0:0:0:
320,192,165230,1,0,0:0:0:0:
64,192,165380,1,0,0:0:0:0:
192,192,165380,1,0,0:0:0:0:
192,192,165530,1,0,0:0:0:0:
64,192,165680,1,0,0:0:0:0:
320,192,165680,1,0,0:0:0:0:
448,192,165680,1,0,0:0:0:0:
448,192,165830,1,0,0:0:0:0:
64,192,165980,1,0,0:0:0:0:
192,192,165980,1,0,0:0:0:0:
64,192,166130,1,0,0:0:0:0:
192,192,166280,1,0,0:0:0:0:
320,192,166280,1,0,0:0:0:0:
448,192,166280,1,0,0:0:0:0:
320,192,166430,1,0,0:0:0:0:
192,192,166580,1,0,0:0:0:0:
64,192,166580,1,0,0:0:0:0:
192,192,166730,1,0,0:0:0:0:
320,192,166880,1,0,0:0:0:0:
448,192,166880,1,0,0:0:0:0:
64,192,166880,1,0,0:0:0:0:
320,192,167030,1,0,0:0:0:0:
192,192,167180,1,0,0:0:0:0:
64,192,167180,1,0,0:0:0:0:
448,192,167180,1,0,0:0:0:0:
192,192,167330,1,0,0:0:0:0:
320,192,167480,1,0,0:0:0:0:
448,192,167480,1,0,0:0:0:0:
64,192,167480,1,0,0:0:0:0:
64,192,167630,1,0,0:0:0:0:
192,192,167780,1,0,0:0:0:0:
448,192,167780,1,0,0:0:0:0:
448,192,167930,1,0,0:0:0:0:
64,192,168080,1,0,0:0:0:0:
192,192,168080,1,0,0:0:0:0:
320,192,168080,1,0,0:0:0:0:
192,192,168230,1,0,0:0:0:0:
320,192,168380,1,0,0:0:0:0:
448,192,168380,1,0,0:0:0:0:
320,192,168530,1,0,0:0:0:0:
64,192,168680,1,0,0:0:0:0:
192,192,168680,1,0,0:0:0:0:
448,192,168680,1,0,0:0:0:0:
64,192,168830,1,0,0:0:0:0:
320,192,168980,1,0,0:0:0:0:
192,192,168980,1,0,0:0:0:0:
320,192,169130,1,0,0:0:0:0:
192,192,169280,1,0,0:0:0:0:
64,192,169280,1,0,0:0:0:0:
448,192,169280,1,0,0:0:0:0:
192,192,169430,1,0,0:0:0:0:
320,192,169580,1,0,0:0:0:0:
448,192,169580,1,0,0:0:0:0:
64,192,169580,1,0,0:0:0:0:
448,192,169730,1,0,0:0:0:0:
192,192,169880,1,0,0:0:0:0:
320,192,169880,1,0,0:0:0:0:
64,192,169880,1,0,0:0:0:0:
192,192,170030,1,0,0:0:0:0:
320,192,170180,1,0,0:0:0:0:
448,192,170180,1,0,0:0:0:0:
320,192,170330,1,0,0:0:0:0:
64,192,170480,1,0,0:0:0:0:
192,192,170480,1,0,0:0:0:0:
448,192,170480,1,0,0:0:0:0:
64,192,170630,1,0,0:0:0:0:
320,192,170780,1,0,0:0:0:0:
448,192,170780,1,0,0:0:0:0:
448,192,170930,1,0,0:0:0:0:
64,192,171080,1,0,0:0:0:0:
192,192,171080,1,0,0:0:0:0:
320,192,171080,1,0,0:0:0:0:
192,192,171230,1,0,0:0:0:0:
448,192,171380,1,0,0:0:0:0:
320,192,171380,1,0,0:0:0:0:
320,192,171530,1,0,0:0:0:0:
448,192,171680,1,0,0:0:0:0:
64,192,171680,1,0,0:0:0:0:
192,192,171680,1,0,0:0:0:0:
192,192,171830,1,0,0:0:0:0:
64,192,171980,1,0,0:0:0:0:
448,192,171980,1,0,0:0:0:0:
320,192,171980,1,0,0:0:0:0:
320,192,172130,1,0,0:0:0:0:
448,192,172280,1,0,0:0:0:0:
64,192,172280,1,0,0:0:0:0:
192,192,172280,1,0,0:0:0:0:
448,192,172430,1,0,0:0:0:0:
64,192,172580,1,0,0:0:0:0:
320,192,172580,1,0,0:0:0:0:
64,192,172730,1,0,0:0:0:0:
192,192,172880,1,0,0:0:0:0:
320,192,172880,1,0,0:0:0:0:
448,192,172880,1,0,0:0:0:0:
320,192,173030,1,0,0:0:0:0:
64,192,173180,1,0,0:0:0:0:
192,192,173180,1,0,0:0:0:0:
192,192,173330,1,0,0:0:0:0:
320,192,173480,1,0,0:0:0:0:
448,192,173480,1,0,0:0:0:0:
320,192,173630,1,0,0:0:0:0:
320,192,173780,1,0,0:0:0:0:
320,192,173930,1,0,0:0:0:0:
448,192,174080,128,0,174380:0:0:0:0:
64,192,174080,128,0,174380:0:0:0:0:
320,192,174380,128,0,174680:0:0:0:0:
192,192,174380,128,0,174680:0:0:0:0:
448,192,174680,1,0,0:0:0:0:
64,192,174680,1,0,0:0:0:0:
448,192,174830,1,0,0:0:0:0:
320,192,174980,1,0,0:0:0:0:
192,192,174980,1,0,0:0:0:0:
64,192,174980,1,0,0:0:0:0:
448,192,175130,1,0,0:0:0:0:
192,192,175130,1,0,0:0:0:0:
448,192,175280,1,0,0:0:0:0:
192,192,175280,1,0,0:0:0:0:
64,192,175280,1,0,0:0:0:0:
320,192,175280,1,0,0:0:0:0:
320,192,175430,1,0,0:0:0:0:
320,192,175580,1,0,0:0:0:0:
192,192,175580,1,0,0:0:0:0:
64,192,175580,1,0,0:0:0:0:
192,192,175730,1,0,0:0:0:0:
64,192,175730,1,0,0:0:0:0:
320,192,175880,1,0,0:0:0:0:
448,192,175880,1,0,0:0:0:0:
192,192,175880,1,0,0:0:0:0:
64,192,175880,1,0,0:0:0:0:
448,192,176030,1,0,0:0:0:0:
320,192,176180,1,0,0:0:0:0:
192,192,176180,1,0,0:0:0:0:
64,192,176180,1,0,0:0:0:0:
192,192,176330,1,0,0:0:0:0:
448,192,176330,1,0,0:0:0:0:
320,192,176480,1,0,0:0:0:0:
192,192,176480,1,0,0:0:0:0:
64,192,176480,1,0,0:0:0:0:
448,192,176480,1,0,0:0:0:0:
320,192,176630,1,0,0:0:0:0:
448,192,176780,1,0,0:0:0:0:
192,192,176780,1,0,0:0:0:0:
64,192,176780,1,0,0:0:0:0:
192,192,176930,1,0,0:0:0:0:
64,192,177080,1,0,0:0:0:0:
448,192,177080,1,0,0:0:0:0:
320,192,177080,1,0,0:0:0:0:
192,192,177080,1,0,0:0:0:0:
64,192,177230,1,0,0:0:0:0:
448,192,177380,1,0,0:0:0:0:
192,192,177380,1,0,0:0:0:0:
320,192,177380,1,0,0:0:0:0:
64,192,177530,1,0,0:0:0:0:
448,192,177530,1,0,0:0:0:0:
320,192,177680,1,0,0:0:0:0:
192,192,177680,1,0,0:0:0:0:
64,192,177680,1,0,0:0:0:0:
448,192,177680,1,0,0:0:0:0:
192,192,177830,1,0,0:0:0:0:
320,192,177980,1,0,0:0:0:0:
192,192,177980,1,0,0:0:0:0:
448,192,177980,1,0,0:0:0:0:
320,192,178130,1,0,0:0:0:0:
448,192,178130,1,0,0:0:0:0:
448,192,178280,1,0,0:0:0:0:
320,192,178280,1,0,0:0:0:0:
192,192,178280,1,0,0:0:0:0:
64,192,178280,1,0,0:0:0:0:
192,192,178430,1,0,0:0:0:0:
448,192,178580,1,0,0:0:0:0:
320,192,178580,1,0,0:0:0:0:
64,192,178580,1,0,0:0:0:0:
192,192,178730,1,0,0:0:0:0:
448,192,178730,1,0,0:0:0:0:
448,192,178880,1,0,0:0:0:0:
320,192,178880,1,0,0:0:0:0:
192,192,178880,1,0,0:0:0:0:
64,192,178880,1,0,0:0:0:0:
320,192,179030,1,0,0:0:0:0:
448,192,179180,1,0,0:0:0:0:
192,192,179180,1,0,0:0:0:0:
64,192,179180,1,0,0:0:0:0:
192,192,179330,1,0,0:0:0:0:
448,192,179480,1,0,0:0:0:0:
320,192,179480,1,0,0:0:0:0:
64,192,179480,1,0,0:0:0:0:
192,192,179480,1,0,0:0:0:0:
320,192,179630,1,0,0:0:0:0:
448,192,179780,1,0,0:0:0:0:
192,192,179780,1,0,0:0:0:0:
64,192,179780,1,0,0:0:0:0:
64,192,179930,1,0,0:0:0:0:
320,192,179930,1,0,0:0:0:0:
64,192,180080,1,0,0:0:0:0:
192,192,180080,1,0,0:0:0:0:
320,192,180080,1,0,0:0:0:0:
448,192,180080,1,0,0:0:0:0:
320,192,180230,1,0,0:0:0:0:
448,192,180380,1,0,0:0:0:0:
192,192,180380,1,0,0:0:0:0:
64,192,180380,1,0,0:0:0:0:
64,192,180530,1,0,0:0:0:0:
192,192,180530,1,0,0:0:0:0:
448,192,180680,1,0,0:0:0:0:
320,192,180680,1,0,0:0:0:0:
64,192,180680,1,0,0:0:0:0:
192,192,180680,1,0,0:0:0:0:
320,192,180830,1,0,0:0:0:0:
448,192,180980,1,0,0:0:0:0:
192,192,180980,1,0,0:0:0:0:
64,192,180980,1,0,0:0:0:0:
320,192,181130,1,0,0:0:0:0:
64,192,181130,1,0,0:0:0:0:
448,192,181280,1,0,0:0:0:0:
320,192,181280,1,0,0:0:0:0:
64,192,181280,1,0,0:0:0:0:
192,192,181280,1,0,0:0:0:0:
448,192,181430,1,0,0:0:0:0:
192,192,181430,1,0,0:0:0:0:
320,192,181580,1,0,0:0:0:0:
64,192,181580,1,0,0:0:0:0:
448,192,181580,1,0,0:0:0:0:
64,192,181730,1,0,0:0:0:0:
320,192,181730,1,0,0:0:0:0:
448,192,181880,1,0,0:0:0:0:
320,192,181880,1,0,0:0:0:0:
192,192,181880,1,0,0:0:0:0:
64,192,181880,1,0,0:0:0:0:
448,192,182030,1,0,0:0:0:0:
192,192,182030,1,0,0:0:0:0:
192,192,182180,1,0,0:0:0:0:
64,192,182180,1,0,0:0:0:0:
320,192,182180,1,0,0:0:0:0:
448,192,182330,1,0,0:0:0:0:
64,192,182330,1,0,0:0:0:0:
448,192,182480,1,0,0:0:0:0:
64,192,182480,1,0,0:0:0:0:
192,192,182480,1,0,0:0:0:0:
320,192,182480,1,0,0:0:0:0:
192,192,182630,1,0,0:0:0:0:
320,192,182630,1,0,0:0:0:0:
448,192,182780,1,0,0:0:0:0:
192,192,182780,1,0,0:0:0:0:
64,192,182780,1,0,0:0:0:0:
448,192,182930,1,0,0:0:0:0:
320,192,182930,1,0,0:0:0:0:
192,192,183080,1,0,0:0:0:0:
64,192,183080,1,0,0:0:0:0:
192,192,183230,1,0,0:0:0:0:
64,192,183230,1,0,0:0:0:0:
192,192,183380,1,0,0:0:0:0:
64,192,183380,1,0,0:0:0:0:
192,192,183530,1,0,0:0:0:0:
64,192,183530,1,0,0:0:0:0:
448,192,183680,1,0,0:0:0:0:
320,192,183680,1,0,0:0:0:0:
448,192,183830,1,0,0:0:0:0:
320,192,183830,1,0,0:0:0:0:
448,192,183980,1,0,0:0:0:0:
320,192,183980,1,0,0:0:0:0:
448,192,184130,1,0,0:0:0:0:
320,192,184130,1,0,0:0:0:0:
64,192,184280,1,0,0:0:0:0:
448,192,184280,1,0,0:0:0:0:
192,192,184280,1,0,0:0:0:0:
320,192,184280,1,0,0:0:0:0:
64,192,184430,1,0,0:0:0:0:
192,192,184580,1,0,0:0:0:0:
320,192,184580,1,0,0:0:0:0:
448,192,184580,1,0,0:0:0:0:
64,192,184730,1,0,0:0:0:0:
320,192,184730,1,0,0:0:0:0:
64,192,184880,1,0,0:0:0:0:
320,192,184880,1,0,0:0:0:0:
448,192,184880,1,0,0:0:0:0:
192,192,184880,1,0,0:0:0:0:
192,192,185030,1,0,0:0:0:0:
192,192,185180,1,0,0:0:0:0:
320,192,185180,1,0,0:0:0:0:
448,192,185180,1,0,0:0:0:0:
320,192,185330,1,0,0:0:0:0:
448,192,185330,1,0,0:0:0:0:
192,192,185480,1,0,0:0:0:0:
64,192,185480,1,0,0:0:0:0:
320,192,185480,1,0,0:0:0:0:
448,192,185480,1,0,0:0:0:0:
64,192,185630,1,0,0:0:0:0:
192,192,185780,1,0,0:0:0:0:
320,192,185780,1,0,0:0:0:0:
448,192,185780,1,0,0:0:0:0:
320,192,185930,1,0,0:0:0:0:
64,192,185930,1,0,0:0:0:0:
192,192,186080,1,0,0:0:0:0:
320,192,186080,1,0,0:0:0:0:
448,192,186080,1,0,0:0:0:0:
64,192,186080,1,0,0:0:0:0:
192,192,186230,1,0,0:0:0:0:
64,192,186380,1,0,0:0:0:0:
320,192,186380,1,0,0:0:0:0:
448,192,186380,1,0,0:0:0:0:
320,192,186530,1,0,0:0:0:0:
448,192,186680,1,0,0:0:0:0:
64,192,186680,1,0,0:0:0:0:
192,192,186680,1,0,0:0:0:0:
320,192,186680,1,0,0:0:0:0:
448,192,186830,1,0,0:0:0:0:
64,192,186980,1,0,0:0:0:0:
320,192,186980,1,0,0:0:0:0:
192,192,186980,1,0,0:0:0:0:
448,192,187130,1,0,0:0:0:0:
64,192,187130,1,0,0:0:0:0:
192,192,187280,1,0,0:0:0:0:
320,192,187280,1,0,0:0:0:0:
448,192,187280,1,0,0:0:0:0:
64,192,187280,1,0,0:0:0:0:
320,192,187430,1,0,0:0:0:0:
192,192,187580,1,0,0:0:0:0:
320,192,187580,1,0,0:0:0:0:
64,192,187580,1,0,0:0:0:0:
192,192,187730,1,0,0:0:0:0:
64,192,187730,1,0,0:0:0:0:
64,192,187880,1,0,0:0:0:0:
192,192,187880,1,0,0:0:0:0:
320,192,187880,1,0,0:0:0:0:
448,192,187880,1,0,0:0:0:0:
320,192,188030,1,0,0:0:0:0:
64,192,188180,1,0,0:0:0:0:
192,192,188180,1,0,0:0:0:0:
448,192,188180,1,0,0:0:0:0:
320,192,188330,1,0,0:0:0:0:
64,192,188330,1,0,0:0:0:0:
64,192,188480,1,0,0:0:0:0:
192,192,188480,1,0,0:0:0:0:
320,192,188480,1,0,0:0:0:0:
448,192,188480,1,0,0:0:0:0:
192,192,188630,1,0,0:0:0:0:
64,192,188780,1,0,0:0:0:0:
320,192,188780,1,0,0:0:0:0:
448,192,188780,1,0,0:0:0:0:
320,192,188930,1,0,0:0:0:0:
64,192,189080,1,0,0:0:0:0:
192,192,189080,1,0,0:0:0:0:
448,192,189080,1,0,0:0:0:0:
320,192,189080,1,0,0:0:0:0:
192,192,189230,1,0,0:0:0:0:
64,192,189380,1,0,0:0:0:0:
320,192,189380,1,0,0:0:0:0:
448,192,189380,1,0,0:0:0:0:
448,192,189530,1,0,0:0:0:0:
192,192,189530,1,0,0:0:0:0:
448,192,189680,1,0,0:0:0:0:
320,192,189680,1,0,0:0:0:0:
192,192,189680,1,0,0:0:0:0:
64,192,189680,1,0,0:0:0:0:
192,192,189830,1,0,0:0:0:0:
64,192,189980,1,0,0:0:0:0:
320,192,189980,1,0,0:0:0:0:
448,192,189980,1,0,0:0:0:0:
448,192,190130,1,0,0:0:0:0:
320,192,190130,1,0,0:0:0:0:
64,192,190280,1,0,0:0:0:0:
192,192,190280,1,0,0:0:0:0:
448,192,190280,1,0,0:0:0:0:
320,192,190280,1,0,0:0:0:0:
192,192,190430,1,0,0:0:0:0:
64,192,190580,1,0,0:0:0:0:
320,192,190580,1,0,0:0:0:0:
448,192,190580,1,0,0:0:0:0:
192,192,190730,1,0,0:0:0:0:
448,192,190730,1,0,0:0:0:0:
64,192,190880,1,0,0:0:0:0:
192,192,190880,1,0,0:0:0:0:
448,192,190880,1,0,0:0:0:0:
320,192,190880,1,0,0:0:0:0:
64,192,191030,1,0,0:0:0:0:
320,192,191030,1,0,0:0:0:0:
192,192,191180,1,0,0:0:0:0:
448,192,191180,1,0,0:0:0:0:
64,192,191180,1,0,0:0:0:0:
448,192,191330,1,0,0:0:0:0:
192,192,191330,1,0,0:0:0:0:
64,192,191480,1,0,0:0:0:0:
192,192,191480,1,0,0:0:0:0:
320,192,191480,1,0,0:0:0:0:
448,192,191480,1,0,0:0:0:0:
64,192,191630,1,0,0:0:0:0:
320,192,191630,1,0,0:0:0:0:
320,192,191780,1,0,0:0:0:0:
448,192,191780,1,0,0:0:0:0:
192,192,191780,1,0,0:0:0:0:
64,192,191930,1,0,0:0:0:0:
448,192,191930,1,0,0:0:0:0:
64,192,192080,1,0,0:0:0:0:
448,192,192080,1,0,0:0:0:0:
320,192,192080,1,0,0:0:0:0:
192,192,192080,1,0,0:0:0:0:
320,192,192230,1,0,0:0:0:0:
192,192,192230,1,0,0:0:0:0:
64,192,192380,1,0,0:0:0:0:
320,192,192380,1,0,0:0:0:0:
448,192,192380,1,0,0:0:0:0:
64,192,192530,1,0,0:0:0:0:
320,192,192680,1,0,0:0:0:0:
192,192,192680,1,0,0:0:0:0:
448,192,192830,1,0,0:0:0:0:
64,192,192830,1,0,0:0:0:0:
320,192,192980,1,0,0:0:0:0:
192,192,192980,1,0,0:0:0:0:
448,192,193130,1,0,0:0:0:0:
64,192,193130,1,0,0:0:0:0:
320,192,193280,128,0,193580:0:0:0:0:
192,192,193280,128,0,193580:0:0:0:0:
64,192,193580,128,0,193880:0:0:0:0:
448,192,193580,128,0,193880:0:0:0:0:
192,192,193880,1,0,0:0:0:0:
320,192,193880,1,0,0:0:0:0:
448,192,193930,1,0,0:0:0:0:
64,192,193980,1,0,0:0:0:0:
192,192,194030,1,0,0:0:0:0:
320,192,194080,1,0,0:0:0:0:
448,192,194130,1,0,0:0:0:0:
320,192,194180,1,0,0:0:0:0:
192,192,194230,1,0,0:0:0:0:
64,192,194280,1,0,0:0:0:0:
448,192,194330,1,0,0:0:0:0:
320,192,194330,1,0,0:0:0:0:
192,192,194380,1,0,0:0:0:0:
64,192,194430,1,0,0:0:0:0:
320,192,194480,1,0,0:0:0:0:
448,192,194530,1,0,0:0:0:0:
192,192,194580,1,0,0:0:0:0:
64,192,194630,1,0,0:0:0:0:
448,192,194680,1,0,0:0:0:0:
320,192,194730,1,0,0:0:0:0:
192,192,194780,1,0,0:0:0:0:
64,192,194780,1,0,0:0:0:0:
448,192,194830,1,0,0:0:0:0:
320,192,194880,1,0,0:0:0:0:
192,192,194930,1,0,0:0:0:0:
448,192,194980,1,0,0:0:0:0:
64,192,195030,1,0,0:0:0:0:
192,192,195080,1,0,0:0:0:0:
320,192,195080,1,0,0:0:0:0:
448,192,195130,1,0,0:0:0:0:
64,192,195180,1,0,0:0:0:0:
192,192,195230,1,0,0:0:0:0:
320,192,195280,1,0,0:0:0:0:
448,192,195330,1,0,0:0:0:0:
64,192,195380,1,0,0:0:0:0:
192,192,195430,1,0,0:0:0:0:
320,192,195480,1,0,0:0:0:0:
448,192,195530,1,0,0:0:0:0:
320,192,195580,1,0,0:0:0:0:
192,192,195630,1,0,0:0:0:0:
64,192,195680,1,0,0:0:0:0:
448,192,195680,1,0,0:0:0:0:
320,192,195730,1,0,0:0:0:0:
192,192,195780,1,0,0:0:0:0:
64,192,195830,1,0,0:0:0:0:
192,192,195880,1,0,0:0:0:0:
320,192,195930,1,0,0:0:0:0:
448,192,195980,1,0,0:0:0:0:
64,192,196030,1,0,0:0:0:0:
192,192,196080,1,0,0:0:0:0:
320,192,196130,1,0,0:0:0:0:
448,192,196180,1,0,0:0:0:0:
320,192,196230,1,0,0:0:0:0:
64,192,196280,1,0,0:0:0:0:
192,192,196280,1,0,0:0:0:0:
448,192,196330,1,0,0:0:0:0:
320,192,196380,1,0,0:0:0:0:
192,192,196430,1,0,0:0:0:0:
64,192,196480,1,0,0:0:0:0:
192,192,196530,1,0,0:0:0:0:
320,192,196580,1,0,0:0:0:0:
448,192,196630,1,0,0:0:0:0:
64,192,196680,1,0,0:0:0:0:
192,192,196730,1,0,0:0:0:0:
448,192,196730,1,0,0:0:0:0:
320,192,196780,1,0,0:0:0:0:
192,192,196830,1,0,0:0:0:0:
64,192,196880,1,0,0:0:0:0:
320,192,196930,1,0,0:0:0:0:
448,192,196980,1,0,0:0:0:0:
64,192,197030,1,0,0:0:0:0:
192,192,197080,1,0,0:0:0:0:
320,192,197130,1,0,0:0:0:0:
448,192,197180,1,0,0:0:0:0:
64,192,197180,1,0,0:0:0:0:
192,192,197230,1,0,0:0:0:0:
320,192,197280,1,0,0:0:0:0:
448,192,197330,1,0,0:0:0:0:
192,192,197380,1,0,0:0:0:0:
64,192,197430,1,0,0:0:0:0:
192,192,197480,1,0,0:0:0:0:
448,192,197480,128,0,197780:0:0:0:0:
192,192,197630,1,0,0:0:0:0:
320,192,197780,128,0,197930:0:0:0:0:
64,192,197780,1,0,0:0:0:0:
448,192,197930,128,0,198230:0:0:0:0:
64,192,197930,1,0,0:0:0:0:
192,192,198080,1,0,0:0:0:0:
64,192,198230,128,0,198680:0:0:0:0:
192,192,198230,1,0,0:0:0:0:
320,192,198380,1,0,0:0:0:0:
320,192,198530,1,0,0:0:0:0:
192,192,198680,1,0,0:0:0:0:
320,192,198680,1,0,0:0:0:0:
448,192,198730,1,0,0:0:0:0:
64,192,198780,1,0,0:0:0:0:
192,192,198830,1,0,0:0:0:0:
320,192,198880,1,0,0:0:0:0:
448,192,198930,1,0,0:0:0:0:
320,192,198980,1,0,0:0:0:0:
192,192,199030,1,0,0:0:0:0:
64,192,199080,1,0,0:0:0:0:
448,192,199130,1,0,0:0:0:0:
320,192,199130,1,0,0:0:0:0:
192,192,199180,1,0,0:0:0:0:
64,192,199230,1,0,0:0:0:0:
320,192,199280,1,0,0:0:0:0:
448,192,199330,1,0,0:0:0:0:
192,192,199380,1,0,0:0:0:0:
64,192,199430,1,0,0:0:0:0:
448,192,199480,1,0,0:0:0:0:
320,192,199530,1,0,0:0:0:0:
192,192,199580,1,0,0:0:0:0:
64,192,199580,1,0,0:0:0:0:
448,192,199630,1,0,0:0:0:0:
320,192,199680,1,0,0:0:0:0:
192,192,199730,1,0,0:0:0:0:
448,192,199780,1,0,0:0:0:0:
64,192,199830,1,0,0:0:0:0:
192,192,199880,1,0,0:0:0:0:
320,192,199880,1,0,0:0:0:0:
448,192,199930,1,0,0:0:0:0:
64,192,199980,1,0,0:0:0:0:
192,192,200030,1,0,0:0:0:0:
320,192,200080,1,0,0:0:0:0:
448,192,200130,1,0,0:0:0:0:
64,192,200180,1,0,0:0:0:0:
192,192,200230,1,0,0:0:0:0:
320,192,200280,1,0,0:0:0:0:
448,192,200330,1,0,0:0:0:0:
320,192,200380,1,0,0:0:0:0:
192,192,200430,1,0,0:0:0:0:
64,192,200480,1,0,0:0:0:0:
448,192,200480,1,0,0:0:0:0:
320,192,200530,1,0,0:0:0:0:
192,192,200580,1,0,0:0:0:0:
64,192,200630,1,0,0:0:0:0:
192,192,200680,1,0,0:0:0:0:
320,192,200730,1,0,0:0:0:0:
448,192,200780,1,0,0:0:0:0:
64,192,200830,1,0,0:0:0:0:
192,192,200880,1,0,0:0:0:0:
320,192,200930,1,0,0:0:0:0:
448,192,200980,1,0,0:0:0:0:
320,192,201030,1,0,0:0:0:0:
64,192,201080,1,0,0:0:0:0:
192,192,201080,1,0,0:0:0:0:
448,192,201130,1,0,0:0:0:0:
320,192,201180,1,0,0:0:0:0:
192,192,201230,1,0,0:0:0:0:
64,192,201280,1,0,0:0:0:0:
192,192,201330,1,0,0:0:0:0:
320,192,201380,1,0,0:0:0:0:
448,192,201430,1,0,0:0:0:0:
64,192,201480,1,0,0:0:0:0:
192,192,201530,1,0,0:0:0:0:
448,192,201530,1,0,0:0:0:0:
320,192,201580,1,0,0:0:0:0:
192,192,201630,1,0,0:0:0:0:
64,192,201680,1,0,0:0:0:0:
320,192,201730,1,0,0:0:0:0:
448,192,201780,1,0,0:0:0:0:
64,192,201830,1,0,0:0:0:0:
192,192,201880,1,0,0:0:0:0:
320,192,201930,1,0,0:0:0:0:
448,192,201980,1,0,0:0:0:0:
64,192,201980,1,0,0:0:0:0:
192,192,202030,1,0,0:0:0:0:
320,192,202080,1,0,0:0:0:0:
448,192,202130,1,0,0:0:0:0:
192,192,202180,1,0,0:0:0:0:
64,192,202230,1,0,0:0:0:0:
448,192,202280,1,0,0:0:0:0:
320,192,202280,1,0,0:0:0:0:
320,192,202430,1,0,0:0:0:0:
448,192,202430,1,0,0:0:0:0:
448,192,202580,1,0,0:0:0:0:
64,192,202580,1,0,0:0:0:0:
192,192,202630,1,0,0:0:0:0:
320,192,202680,1,0,0:0:0:0:
448,192,202730,1,0,0:0:0:0:
192,192,202780,1,0,0:0:0:0:
64,192,202830,1,0,0:0:0:0:
320,192,202880,1,0,0:0:0:0:
448,192,202930,1,0,0:0:0:0:
192,192,202980,1,0,0:0:0:0:
64,192,203030,1,0,0:0:0:0:
320,192,203080,1,0,0:0:0:0:
448,192,203130,1,0,0:0:0:0:
192,192,203180,1,0,0:0:0:0:
64,192,203180,1,0,0:0:0:0:
64,192,203330,1,0,0:0:0:0:
320,192,203480,1,0,0:0:0:0:
192,192,203480,1,0,0:0:0:0:
64,192,203530,1,0,0:0:0:0:
448,192,203580,1,0,0:0:0:0:
320,192,203630,1,0,0:0:0:0:
192,192,203680,1,0,0:0:0:0:
64,192,203730,1,0,0:0:0:0:
192,192,203780,1,0,0:0:0:0:
320,192,203830,1,0,0:0:0:0:
448,192,203880,1,0,0:0:0:0:
64,192,203930,1,0,0:0:0:0:
192,192,203930,1,0,0:0:0:0:
320,192,203980,1,0,0:0:0:0:
448,192,204030,1,0,0:0:0:0:
192,192,204080,1,0,0:0:0:0:
64,192,204130,1,0,0:0:0:0:
320,192,204180,1,0,0:0:0:0:
448,192,204230,1,0,0:0:0:0:
64,192,204280,1,0,0:0:0:0:
192,192,204330,1,0,0:0:0:0:
320,192,204380,1,0,0:0:0:0:
448,192,204380,1,0,0:0:0:0:
64,192,204430,1,0,0:0:0:0:
192,192,204480,1,0,0:0:0:0:
320,192,204530,1,0,0:0:0:0:
64,192,204580,1,0,0:0:0:0:
448,192,204630,1,0,0:0:0:0:
320,192,204680,1,0,0:0:0:0:
192,192,204680,1,0,0:0:0:0:
64,192,204730,1,0,0:0:0:0:
448,192,204780,1,0,0:0:0:0:
320,192,204830,1,0,0:0:0:0:
192,192,204880,1,0,0:0:0:0:
64,192,204930,1,0,0:0:0:0:
448,192,204980,1,0,0:0:0:0:
320,192,205030,1,0,0:0:0:0:
192,192,205080,1,0,0:0:0:0:
64,192,205130,1,0,0:0:0:0:
192,192,205180,1,0,0:0:0:0:
320,192,205230,1,0,0:0:0:0:
448,192,205280,1,0,0:0:0:0:
64,192,205280,1,0,0:0:0:0:
192,192,205330,1,0,0:0:0:0:
320,192,205380,1,0,0:0:0:0:
448,192,205430,1,0,0:0:0:0:
320,192,205480,1,0,0:0:0:0:
192,192,205530,1,0,0:0:0:0:
64,192,205580,1,0,0:0:0:0:
448,192,205630,1,0,0:0:0:0:
320,192,205680,1,0,0:0:0:0:
192,192,205730,1,0,0:0:0:0:
64,192,205780,1,0,0:0:0:0:
192,192,205830,1,0,0:0:0:0:
448,192,205880,1,0,0:0:0:0:
320,192,205880,1,0,0:0:0:0:
64,192,205930,1,0,0:0:0:0:
192,192,205980,1,0,0:0:0:0:
320,192,206030,1,0,0:0:0:0:
448,192,206080,1,0,0:0:0:0:
320,192,206130,1,0,0:0:0:0:
192,192,206180,1,0,0:0:0:0:
64,192,206230,1,0,0:0:0:0:
448,192,206280,1,0,0:0:0:0:
320,192,206330,1,0,0:0:0:0:
64,192,206330,1,0,0:0:0:0:
192,192,206380,1,0,0:0:0:0:
320,192,206430,1,0,0:0:0:0:
448,192,206480,1,0,0:0:0:0:
192,192,206530,1,0,0:0:0:0:
64,192,206580,1,0,0:0:0:0:
448,192,206630,1,0,0:0:0:0:
320,192,206680,1,0,0:0:0:0:
192,192,206730,1,0,0:0:0:0:
64,192,206780,1,0,0:0:0:0:
448,192,206780,1,0,0:0:0:0:
320,192,206830,1,0,0:0:0:0:
192,192,206880,1,0,0:0:0:0:
64,192,206930,1,0,0:0:0:0:
320,192,206980,1,0,0:0:0:0:
448,192,207030,1,0,0:0:0:0:
64,192,207080,128,0,207380:0:0:0:0:
320,192,207080,1,0,0:0:0:0:
320,192,207230,1,0,0:0:0:0:
448,192,207380,1,0,0:0:0:0:
192,192,207380,128,0,207530:0:0:0:0:
64,192,207530,128,0,207830:0:0:0:0:
448,192,207530,1,0,0:0:0:0:
320,192,207680,1,0,0:0:0:0:
448,192,207830,128,0,208280:0:0:0:0:
320,192,207830,1,0,0:0:0:0:
192,192,207980,1,0,0:0:0:0:
192,192,208130,1,0,0:0:0:0:
320,192,208280,1,0,0:0:0:0:
192,192,208280,1,0,0:0:0:0:
64,192,208330,1,0,0:0:0:0:
448,192,208380,1,0,0:0:0:0:
320,192,208430,1,0,0:0:0:0:
192,192,208480,1,0,0:0:0:0:
64,192,208530,1,0,0:0:0:0:
192,192,208580,1,0,0:0:0:0:
320,192,208630,1,0,0:0:0:0:
448,192,208680,1,0,0:0:0:0:
64,192,208730,1,0,0:0:0:0:
192,192,208730,1,0,0:0:0:0:
320,192,208780,1,0,0:0:0:0:
448,192,208830,1,0,0:0:0:0:
192,192,208880,1,0,0:0:0:0:
64,192,208930,1,0,0:0:0:0:
320,192,208980,1,0,0:0:0:0:
448,192,209030,1,0,0:0:0:0:
64,192,209080,1,0,0:0:0:0:
192,192,209130,1,0,0:0:0:0:
320,192,209180,1,0,0:0:0:0:
448,192,209180,1,0,0:0:0:0:
64,192,209230,1,0,0:0:0:0:
192,192,209280,1,0,0:0:0:0:
320,192,209330,1,0,0:0:0:0:
64,192,209380,1,0,0:0:0:0:
448,192,209430,1,0,0:0:0:0:
320,192,209480,1,0,0:0:0:0:
192,192,209480,1,0,0:0:0:0:
64,192,209530,1,0,0:0:0:0:
448,192,209580,1,0,0:0:0:0:
320,192,209630,1,0,0:0:0:0:
192,192,209680,1,0,0:0:0:0:
64,192,209730,1,0,0:0:0:0:
448,192,209780,1,0,0:0:0:0:
320,192,209830,1,0,0:0:0:0:
192,192,209880,1,0,0:0:0:0:
64,192,209930,1,0,0:0:0:0:
192,192,209980,1,0,0:0:0:0:
320,192,210030,1,0,0:0:0:0:
448,192,210080,1,0,0:0:0:0:
64,192,210080,1,0,0:0:0:0:
192,192,210130,1,0,0:0:0:0:
320,192,210180,1,0,0:0:0:0:
448,192,210230,1,0,0:0:0:0:
320,192,210280,1,0,0:0:0:0:
192,192,210330,1,0,0:0:0:0:
64,192,210380,1,0,0:0:0:0:
448,192,210430,1,0,0:0:0:0:
320,192,210480,1,0,0:0:0:0:
192,192,210530,1,0,0:0:0:0:
64,192,210580,1,0,0:0:0:0:
192,192,210630,1,0,0:0:0:0:
448,192,210680,1,0,0:0:0:0:
320,192,210680,1,0,0:0:0:0:
64,192,210730,1,0,0:0:0:0:
192,192,210780,1,0,0:0:0:0:
320,192,210830,1,0,0:0:0:0:
448,192,210880,1,0,0:0:0:0:
320,192,210930,1,0,0:0:0:0:
192,192,210980,1,0,0:0:0:0:
64,192,211030,1,0,0:0:0:0:
448,192,211080,1,0,0:0:0:0:
320,192,211130,1,0,0:0:0:0:
64,192,211130,1,0,0:0:0:0:
192,192,211180,1,0,0:0:0:0:
320,192,211230,1,0,0:0:0:0:
448,192,211280,1,0,0:0:0:0:
192,192,211330,1,0,0:0:0:0:
64,192,211380,1,0,0:0:0:0:
448,192,211430,1,0,0:0:0:0:
320,192,211480,1,0,0:0:0:0:
192,192,211530,1,0,0:0:0:0:
64,192,211580,1,0,0:0:0:0:
448,192,211580,1,0,0:0:0:0:
320,192,211630,1,0,0:0:0:0:
192,192,211680,1,0,0:0:0:0:
64,192,211730,1,0,0:0:0:0:
320,192,211780,1,0,0:0:0:0:
448,192,211830,1,0,0:0:0:0:
64,192,211880,1,0,0:0:0:0:
192,192,211880,1,0,0:0:0:0:
192,192,212030,1,0,0:0:0:0:
64,192,212030,1,0,0:0:0:0:
448,192,212180,1,0,0:0:0:0:
64,192,212180,1,0,0:0:0:0:
320,192,212230,1,0,0:0:0:0:
192,192,212280,1,0,0:0:0:0:
64,192,212330,1,0,0:0:0:0:
320,192,212380,1,0,0:0:0:0:
448,192,212430,1,0,0:0:0:0:
192,192,212480,1,0,0:0:0:0:
64,192,212530,1,0,0:0:0:0:
320,192,212580,1,0,0:0:0:0:
448,192,212630,1,0,0:0:0:0:
192,192,212680,1,0,0:0:0:0:
64,192,212730,1,0,0:0:0:0:
448,192,212780,1,0,0:0:0:0:
320,192,212780,1,0,0:0:0:0:
448,192,212930,1,0,0:0:0:0:
64,192,213080,1,0,0:0:0:0:
448,192,213080,1,0,0:0:0:0:
192,192,213080,128,0,214280:0:0:0:0:
320,192,213080,128,0,213480:0:0:0:0:
448,192,213480,128,0,213880:0:0:0:0:
64,192,213880,128,0,214280:0:0:0:0:
448,192,214280,128,0,215480:0:0:0:0:
320,192,214280,128,0,214430:0:0:0:0:
320,192,214580,128,0,214730:0:0:0:0:
192,192,214880,128,0,215030:0:0:0:0:
192,192,215180,128,0,215330:0:0:0:0:
64,192,215480,128,0,215880:0:0:0:0:
320,192,215480,128,0,215880:0:0:0:0:
192,192,215880,128,0,216280:0:0:0:0:
448,192,215880,128,0,216280:0:0:0:0:
320,192,216280,128,0,216680:0:0:0:0:
64,192,216280,128,0,216680:0:0:0:0:
