osu file format v14

[General]
AudioFilename: audio140.mp3
AudioLeadIn: 0
PreviewTime: -1
Countdown: 0
SampleSet: Normal
StackLeniency: 0.7
Mode: 3
LetterboxInBreaks: 0
SpecialStyle: 0
WidescreenStoryboard: 0

[Editor]
Bookmarks: 77454
DistanceSpacing: 1.3
BeatDivisor: 3
GridSize: 4
TimelineZoom: 0.9

[Metadata]
Title:Coco Jambo
TitleUnicode:Coco Jambo
Artist:Mr. President
ArtistUnicode:Mr. President
Creator:LordTimeWaste
Version:Coco Jambo [1,4x Rate]
Source:
Tags:
BeatmapID:1737303
BeatmapSetID:823841

[Difficulty]
HPDrainRate:8
CircleSize:4
OverallDifficulty:8
ApproachRate:5
SliderMultiplier:1.4
SliderTickRate:1

[Events]
//Background and Video events
0,0,"pBPcDpeDb8HfN6a6nMTcmR.jpg",0,0
//Break Periods
//Storyboard Layer 0 (Background)
//Storyboard Layer 1 (Fail)
//Storyboard Layer 2 (Pass)
//Storyboard Layer 3 (Foreground)
//Storyboard Sound Samples

[TimingPoints]
1383,428.571428571429,4,1,0,20,1,0

[HitObjects]
320,192,1383,5,0,0:0:0:0:
64,192,1383,1,0,0:0:0:0:
320,192,1490,1,0,0:0:0:0:
192,192,1597,1,0,0:0:0:0:
448,192,1597,1,0,0:0:0:0:
192,192,1704,1,0,0:0:0:0:
64,192,1811,1,0,0:0:0:0:
448,192,1811,1,0,0:0:0:0:
320,192,1811,1,0,0:0:0:0:
64,192,1919,1,0,0:0:0:0:
448,192,2026,1,0,0:0:0:0:
192,192,2026,1,0,0:0:0:0:
448,192,2133,1,0,0:0:0:0:
320,192,2240,1,0,0:0:0:0:
192,192,2240,1,0,0:0:0:0:
320,192,2347,1,0,0:0:0:0:
64,192,2454,1,0,0:0:0:0:
448,192,2454,1,0,0:0:0:0:
64,192,2561,1,0,0:0:0:0:
192,192,2669,1,0,0:0:0:0:
448,192,2669,1,0,0:0:0:0:
320,192,2669,1,0,0:0:0:0:
192,192,2776,1,0,0:0:0:0:
448,192,2883,1,0,0:0:0:0:
64,192,2883,1,0,0:0:0:0:
448,192,2990,1,0,0:0:0:0:
192,192,3097,1,0,0:0:0:0:
320,192,3097,1,0,0:0:0:0:
192,192,3204,1,0,0:0:0:0:
320,192,3311,1,0,0:0:0:0:
64,192,3311,1,0,0:0:0:0:
320,192,3419,1,0,0:0:0:0:
192,192,3526,1,0,0:0:0:0:
448,192,3526,1,0,0:0:0:0:
64,192,3526,1,0,0:0:0:0:
448,192,3633,1,0,0:0:0:0:
64,192,3740,1,0,0:0:0:0:
320,192,3740,1,0,0:0:0:0:
64,192,3847,1,0,0:0:0:0:
192,192,3954,1,0,0:0:0:0:
448,192,3954,1,0,0:0:0:0:
448,192,4061,1,0,0:0:0:0:
320,192,4169,1,0,0:0:0:0:
64,192,4169,1,0,0:0:0:0:
320,192,4276,1,0,0:0:0:0:
64,192,4383,1,0,0:0:0:0:
448,192,4383,1,0,0:0:0:0:
192,192,4383,1,0,0:0:0:0:
64,192,4490,1,0,0:0:0:0:
192,192,4597,1,0,0:0:0:0:
320,192,4597,1,0,0:0:0:0:
192,192,4704,1,0,0:0:0:0:
448,192,4811,1,0,0:0:0:0:
64,192,4811,1,0,0:0:0:0:
320,192,4847,1,0,0:0:0:0:
192,192,4883,1,0,0:0:0:0:
64,192,4919,1,0,0:0:0:0:
192,192,4954,1,0,0:0:0:0:
320,192,4990,1,0,0:0:0:0:
448,192,5026,1,0,0:0:0:0:
192,192,5061,1,0,0:0:0:0:
64,192,5097,1,0,0:0:0:0:
448,192,5133,1,0,0:0:0:0:
320,192,5133,1,0,0:0:0:0:
192,192,5169,1,0,0:0:0:0:
64,192,5204,1,0,0:0:0:0:
320,192,5240,1,0,0:0:0:0:
448,192,5276,1,0,0:0:0:0:
192,192,5311,1,0,0:0:0:0:
64,192,5347,1,0,0:0:0:0:
448,192,5383,1,0,0:0:0:0:
320,192,5419,1,0,0:0:0:0:
192,192,5454,1,0,0:0:0:0:
64,192,5454,1,0,0:0:0:0:
448,192,5490,1,0,0:0:0:0:
320,192,5526,1,0,0:0:0:0:
192,192,5561,1,0,0:0:0:0:
448,192,5597,1,0,0:0:0:0:
64,192,5633,1,0,0:0:0:0:
192,192,5669,1,0,0:0:0:0:
320,192,5669,1,0,0:0:0:0:
448,192,5704,1,0,0:0:0:0:
64,192,5740,1,0,0:0:0:0:
192,192,5776,1,0,0:0:0:0:
320,192,5811,1,0,0:0:0:0:
448,192,5847,1,0,0:0:0:0:
64,192,5883,1,0,0:0:0:0:
192,192,5919,1,0,0:0:0:0:
320,192,5954,1,0,0:0:0:0:
448,192,5990,1,0,0:0:0:0:
320,192,6026,1,0,0:0:0:0:
192,192,6061,1,0,0:0:0:0:
64,192,6097,1,0,0:0:0:0:
448,192,6097,1,0,0:0:0:0:
320,192,6133,1,0,0:0:0:0:
192,192,6169,1,0,0:0:0:0:
64,192,6204,1,0,0:0:0:0:
192,192,6240,1,0,0:0:0:0:
320,192,6276,1,0,0:0:0:0:
448,192,6311,1,0,0:0:0:0:
64,192,6347,1,0,0:0:0:0:
192,192,6383,1,0,0:0:0:0:
320,192,6419,1,0,0:0:0:0:
448,192,6454,1,0,0:0:0:0:
320,192,6490,1,0,0:0:0:0:
64,192,6526,1,0,0:0:0:0:
192,192,6526,1,0,0:0:0:0:
448,192,6561,1,0,0:0:0:0:
320,192,6597,1,0,0:0:0:0:
192,192,6633,1,0,0:0:0:0:
64,192,6669,1,0,0:0:0:0:
192,192,6704,1,0,0:0:0:0:
320,192,6740,1,0,0:0:0:0:
448,192,6776,1,0,0:0:0:0:
64,192,6811,1,0,0:0:0:0:
192,192,6847,1,0,0:0:0:0:
448,192,6847,1,0,0:0:0:0:
320,192,6883,1,0,0:0:0:0:
192,192,6919,1,0,0:0:0:0:
64,192,6954,1,0,0:0:0:0:
320,192,6990,1,0,0:0:0:0:
448,192,7026,1,0,0:0:0:0:
64,192,7061,1,0,0:0:0:0:
192,192,7097,1,0,0:0:0:0:
320,192,7133,1,0,0:0:0:0:
448,192,7169,1,0,0:0:0:0:
64,192,7169,1,0,0:0:0:0:
192,192,7204,1,0,0:0:0:0:
320,192,7240,1,0,0:0:0:0:
448,192,7276,1,0,0:0:0:0:
192,192,7311,1,0,0:0:0:0:
320,192,7347,1,0,0:0:0:0:
448,192,7383,1,0,0:0:0:0:
64,192,7383,1,0,0:0:0:0:
64,192,7490,1,0,0:0:0:0:
192,192,7597,1,0,0:0:0:0:
448,192,7597,1,0,0:0:0:0:
448,192,7704,1,0,0:0:0:0:
64,192,7811,1,0,0:0:0:0:
320,192,7811,1,0,0:0:0:0:
192,192,7811,1,0,0:0:0:0:
192,192,7919,1,0,0:0:0:0:
320,192,8026,1,0,0:0:0:0:
448,192,8026,1,0,0:0:0:0:
320,192,8133,1,0,0:0:0:0:
64,192,8240,1,0,0:0:0:0:
192,192,8240,1,0,0:0:0:0:
320,192,8240,1,0,0:0:0:0:
448,192,8240,1,0,0:0:0:0:
192,192,8347,1,0,0:0:0:0:
64,192,8454,1,0,0:0:0:0:
320,192,8454,1,0,0:0:0:0:
448,192,8454,1,0,0:0:0:0:
448,192,8561,1,0,0:0:0:0:
192,192,8561,1,0,0:0:0:0:
64,192,8669,1,0,0:0:0:0:
192,192,8669,1,0,0:0:0:0:
320,192,8669,1,0,0:0:0:0:
448,192,8669,1,0,0:0:0:0:
320,192,8776,1,0,0:0:0:0:
192,192,8883,1,0,0:0:0:0:
448,192,8883,1,0,0:0:0:0:
64,192,8883,1,0,0:0:0:0:
64,192,8990,1,0,0:0:0:0:
192,192,9097,1,0,0:0:0:0:
320,192,9097,1,0,0:0:0:0:
448,192,9097,1,0,0:0:0:0:
64,192,9097,1,0,0:0:0:0:
320,192,9204,1,0,0:0:0:0:
192,192,9311,1,0,0:0:0:0:
64,192,9311,1,0,0:0:0:0:
448,192,9311,1,0,0:0:0:0:
64,192,9419,1,0,0:0:0:0:
192,192,9419,1,0,0:0:0:0:
64,192,9526,1,0,0:0:0:0:
192,192,9526,1,0,0:0:0:0:
320,192,9526,1,0,0:0:0:0:
448,192,9526,1,0,0:0:0:0:
320,192,9633,1,0,0:0:0:0:
448,192,9740,1,0,0:0:0:0:
192,192,9740,1,0,0:0:0:0:
64,192,9740,1,0,0:0:0:0:
448,192,9847,1,0,0:0:0:0:
448,192,9954,1,0,0:0:0:0:
320,192,9954,1,0,0:0:0:0:
192,192,9954,1,0,0:0:0:0:
64,192,9954,1,0,0:0:0:0:
320,192,10061,1,0,0:0:0:0:
448,192,10169,1,0,0:0:0:0:
192,192,10169,1,0,0:0:0:0:
64,192,10169,1,0,0:0:0:0:
64,192,10276,1,0,0:0:0:0:
320,192,10276,1,0,0:0:0:0:
448,192,10383,1,0,0:0:0:0:
320,192,10383,1,0,0:0:0:0:
192,192,10383,1,0,0:0:0:0:
64,192,10383,1,0,0:0:0:0:
192,192,10490,1,0,0:0:0:0:
320,192,10597,1,0,0:0:0:0:
64,192,10597,1,0,0:0:0:0:
448,192,10597,1,0,0:0:0:0:
448,192,10704,1,0,0:0:0:0:
320,192,10811,1,0,0:0:0:0:
192,192,10811,1,0,0:0:0:0:
64,192,10811,1,0,0:0:0:0:
448,192,10811,1,0,0:0:0:0:
192,192,10919,1,0,0:0:0:0:
320,192,11026,1,0,0:0:0:0:
448,192,11026,1,0,0:0:0:0:
64,192,11026,1,0,0:0:0:0:
448,192,11133,1,0,0:0:0:0:
320,192,11133,1,0,0:0:0:0:
448,192,11240,1,0,0:0:0:0:
320,192,11240,1,0,0:0:0:0:
192,192,11240,1,0,0:0:0:0:
64,192,11240,1,0,0:0:0:0:
192,192,11347,1,0,0:0:0:0:
64,192,11454,1,0,0:0:0:0:
320,192,11454,1,0,0:0:0:0:
448,192,11454,1,0,0:0:0:0:
64,192,11561,1,0,0:0:0:0:
448,192,11669,1,0,0:0:0:0:
192,192,11669,1,0,0:0:0:0:
320,192,11704,1,0,0:0:0:0:
64,192,11740,1,0,0:0:0:0:
192,192,11776,1,0,0:0:0:0:
320,192,11811,1,0,0:0:0:0:
448,192,11847,1,0,0:0:0:0:
320,192,11883,1,0,0:0:0:0:
192,192,11919,1,0,0:0:0:0:
64,192,11954,1,0,0:0:0:0:
448,192,11990,1,0,0:0:0:0:
320,192,11990,1,0,0:0:0:0:
192,192,12026,1,0,0:0:0:0:
64,192,12061,1,0,0:0:0:0:
320,192,12097,1,0,0:0:0:0:
448,192,12133,1,0,0:0:0:0:
192,192,12169,1,0,0:0:0:0:
64,192,12204,1,0,0:0:0:0:
448,192,12240,1,0,0:0:0:0:
320,192,12276,1,0,0:0:0:0:
192,192,12311,1,0,0:0:0:0:
64,192,12311,1,0,0:0:0:0:
448,192,12347,1,0,0:0:0:0:
320,192,12383,1,0,0:0:0:0:
192,192,12419,1,0,0:0:0:0:
448,192,12454,1,0,0:0:0:0:
64,192,12490,1,0,0:0:0:0:
192,192,12526,1,0,0:0:0:0:
320,192,12526,1,0,0:0:0:0:
448,192,12561,1,0,0:0:0:0:
64,192,12597,1,0,0:0:0:0:
192,192,12633,1,0,0:0:0:0:
320,192,12669,1,0,0:0:0:0:
448,192,12704,1,0,0:0:0:0:
64,192,12740,1,0,0:0:0:0:
192,192,12776,1,0,0:0:0:0:
320,192,12811,1,0,0:0:0:0:
448,192,12847,1,0,0:0:0:0:
320,192,12883,1,0,0:0:0:0:
192,192,12919,1,0,0:0:0:0:
64,192,12954,1,0,0:0:0:0:
448,192,12954,1,0,0:0:0:0:
320,192,12990,1,0,0:0:0:0:
192,192,13026,1,0,0:0:0:0:
64,192,13061,1,0,0:0:0:0:
192,192,13097,1,0,0:0:0:0:
320,192,13133,1,0,0:0:0:0:
448,192,13169,1,0,0:0:0:0:
64,192,13204,1,0,0:0:0:0:
192,192,13240,1,0,0:0:0:0:
320,192,13276,1,0,0:0:0:0:
448,192,13311,1,0,0:0:0:0:
320,192,13347,1,0,0:0:0:0:
64,192,13383,1,0,0:0:0:0:
192,192,13383,1,0,0:0:0:0:
448,192,13419,1,0,0:0:0:0:
320,192,13454,1,0,0:0:0:0:
192,192,13490,1,0,0:0:0:0:
64,192,13526,1,0,0:0:0:0:
192,192,13561,1,0,0:0:0:0:
320,192,13597,1,0,0:0:0:0:
448,192,13633,1,0,0:0:0:0:
64,192,13669,1,0,0:0:0:0:
192,192,13704,1,0,0:0:0:0:
448,192,13704,1,0,0:0:0:0:
320,192,13740,1,0,0:0:0:0:
192,192,13776,1,0,0:0:0:0:
64,192,13811,1,0,0:0:0:0:
320,192,13847,1,0,0:0:0:0:
448,192,13883,1,0,0:0:0:0:
64,192,13919,1,0,0:0:0:0:
192,192,13954,1,0,0:0:0:0:
320,192,13990,1,0,0:0:0:0:
448,192,14026,1,0,0:0:0:0:
64,192,14026,1,0,0:0:0:0:
192,192,14061,1,0,0:0:0:0:
320,192,14097,1,0,0:0:0:0:
448,192,14133,1,0,0:0:0:0:
192,192,14169,1,0,0:0:0:0:
320,192,14204,1,0,0:0:0:0:
448,192,14240,1,0,0:0:0:0:
64,192,14240,1,0,0:0:0:0:
192,192,14347,1,0,0:0:0:0:
320,192,14347,1,0,0:0:0:0:
64,192,14454,1,0,0:0:0:0:
448,192,14454,1,0,0:0:0:0:
192,192,14561,1,0,0:0:0:0:
320,192,14561,1,0,0:0:0:0:
64,192,14669,128,0,14883:0:0:0:0:
448,192,14669,128,0,14883:0:0:0:0:
192,192,14883,128,0,15097:0:0:0:0:
320,192,14883,128,0,15097:0:0:0:0:
64,192,15097,1,0,0:0:0:0:
448,192,15097,1,0,0:0:0:0:
64,192,15204,1,0,0:0:0:0:
192,192,15311,1,0,0:0:0:0:
320,192,15311,1,0,0:0:0:0:
448,192,15311,1,0,0:0:0:0:
64,192,15419,1,0,0:0:0:0:
320,192,15419,1,0,0:0:0:0:
64,192,15526,1,0,0:0:0:0:
320,192,15526,1,0,0:0:0:0:
448,192,15526,1,0,0:0:0:0:
192,192,15526,1,0,0:0:0:0:
192,192,15633,1,0,0:0:0:0:
192,192,15740,1,0,0:0:0:0:
320,192,15740,1,0,0:0:0:0:
448,192,15740,1,0,0:0:0:0:
320,192,15847,1,0,0:0:0:0:
448,192,15847,1,0,0:0:0:0:
192,192,15954,1,0,0:0:0:0:
64,192,15954,1,0,0:0:0:0:
320,192,15954,1,0,0:0:0:0:
448,192,15954,1,0,0:0:0:0:
64,192,16061,1,0,0:0:0:0:
192,192,16169,1,0,0:0:0:0:
320,192,16169,1,0,0:0:0:0:
448,192,16169,1,0,0:0:0:0:
320,192,16276,1,0,0:0:0:0:
64,192,16276,1,0,0:0:0:0:
192,192,16383,1,0,0:0:0:0:
320,192,16383,1,0,0:0:0:0:
448,192,16383,1,0,0:0:0:0:
64,192,16383,1,0,0:0:0:0:
192,192,16490,1,0,0:0:0:0:
64,192,16597,1,0,0:0:0:0:
320,192,16597,1,0,0:0:0:0:
448,192,16597,1,0,0:0:0:0:
320,192,16704,1,0,0:0:0:0:
448,192,16811,1,0,0:0:0:0:
64,192,16811,1,0,0:0:0:0:
192,192,16811,1,0,0:0:0:0:
320,192,16811,1,0,0:0:0:0:
448,192,16919,1,0,0:0:0:0:
64,192,17026,1,0,0:0:0:0:
320,192,17026,1,0,0:0:0:0:
192,192,17026,1,0,0:0:0:0:
448,192,17133,1,0,0:0:0:0:
64,192,17133,1,0,0:0:0:0:
192,192,17240,1,0,0:0:0:0:
320,192,17240,1,0,0:0:0:0:
448,192,17240,1,0,0:0:0:0:
64,192,17240,1,0,0:0:0:0:
320,192,17347,1,0,0:0:0:0:
192,192,17454,1,0,0:0:0:0:
320,192,17454,1,0,0:0:0:0:
64,192,17454,1,0,0:0:0:0:
192,192,17561,1,0,0:0:0:0:
64,192,17561,1,0,0:0:0:0:
64,192,17669,1,0,0:0:0:0:
192,192,17669,1,0,0:0:0:0:
320,192,17669,1,0,0:0:0:0:
448,192,17669,1,0,0:0:0:0:
320,192,17776,1,0,0:0:0:0:
64,192,17883,1,0,0:0:0:0:
192,192,17883,1,0,0:0:0:0:
448,192,17883,1,0,0:0:0:0:
320,192,17990,1,0,0:0:0:0:
64,192,17990,1,0,0:0:0:0:
64,192,18097,1,0,0:0:0:0:
192,192,18097,1,0,0:0:0:0:
320,192,18097,1,0,0:0:0:0:
448,192,18097,1,0,0:0:0:0:
192,192,18204,1,0,0:0:0:0:
64,192,18311,1,0,0:0:0:0:
320,192,18311,1,0,0:0:0:0:
448,192,18311,1,0,0:0:0:0:
320,192,18419,1,0,0:0:0:0:
64,192,18526,1,0,0:0:0:0:
192,192,18526,1,0,0:0:0:0:
448,192,18526,1,0,0:0:0:0:
320,192,18526,1,0,0:0:0:0:
192,192,18633,1,0,0:0:0:0:
64,192,18740,1,0,0:0:0:0:
320,192,18740,1,0,0:0:0:0:
448,192,18740,1,0,0:0:0:0:
448,192,18847,1,0,0:0:0:0:
192,192,18847,1,0,0:0:0:0:
448,192,18954,1,0,0:0:0:0:
320,192,18954,1,0,0:0:0:0:
192,192,18954,1,0,0:0:0:0:
64,192,18954,1,0,0:0:0:0:
192,192,19061,1,0,0:0:0:0:
64,192,19169,1,0,0:0:0:0:
320,192,19169,1,0,0:0:0:0:
448,192,19169,1,0,0:0:0:0:
448,192,19276,1,0,0:0:0:0:
320,192,19276,1,0,0:0:0:0:
64,192,19383,1,0,0:0:0:0:
192,192,19383,1,0,0:0:0:0:
448,192,19383,1,0,0:0:0:0:
320,192,19383,1,0,0:0:0:0:
192,192,19490,1,0,0:0:0:0:
64,192,19597,1,0,0:0:0:0:
320,192,19597,1,0,0:0:0:0:
448,192,19597,1,0,0:0:0:0:
192,192,19704,1,0,0:0:0:0:
448,192,19704,1,0,0:0:0:0:
64,192,19811,1,0,0:0:0:0:
192,192,19811,1,0,0:0:0:0:
448,192,19811,1,0,0:0:0:0:
320,192,19811,1,0,0:0:0:0:
64,192,19919,1,0,0:0:0:0:
320,192,19919,1,0,0:0:0:0:
192,192,20026,1,0,0:0:0:0:
448,192,20026,1,0,0:0:0:0:
64,192,20026,1,0,0:0:0:0:
448,192,20133,1,0,0:0:0:0:
192,192,20133,1,0,0:0:0:0:
64,192,20240,1,0,0:0:0:0:
192,192,20240,1,0,0:0:0:0:
320,192,20240,1,0,0:0:0:0:
448,192,20240,1,0,0:0:0:0:
64,192,20347,1,0,0:0:0:0:
320,192,20347,1,0,0:0:0:0:
320,192,20454,1,0,0:0:0:0:
448,192,20454,1,0,0:0:0:0:
192,192,20454,1,0,0:0:0:0:
64,192,20561,1,0,0:0:0:0:
448,192,20561,1,0,0:0:0:0:
64,192,20669,1,0,0:0:0:0:
448,192,20669,1,0,0:0:0:0:
320,192,20669,1,0,0:0:0:0:
192,192,20669,1,0,0:0:0:0:
320,192,20776,1,0,0:0:0:0:
192,192,20776,1,0,0:0:0:0:
64,192,20883,1,0,0:0:0:0:
320,192,20883,1,0,0:0:0:0:
448,192,20883,1,0,0:0:0:0:
64,192,20990,1,0,0:0:0:0:
192,192,20990,1,0,0:0:0:0:
320,192,21097,1,0,0:0:0:0:
448,192,21097,1,0,0:0:0:0:
320,192,21204,1,0,0:0:0:0:
448,192,21204,1,0,0:0:0:0:
320,192,21311,1,0,0:0:0:0:
448,192,21311,1,0,0:0:0:0:
320,192,21419,1,0,0:0:0:0:
448,192,21419,1,0,0:0:0:0:
64,192,21526,1,0,0:0:0:0:
192,192,21526,1,0,0:0:0:0:
64,192,21633,1,0,0:0:0:0:
192,192,21633,1,0,0:0:0:0:
64,192,21740,1,0,0:0:0:0:
192,192,21740,1,0,0:0:0:0:
64,192,21847,1,0,0:0:0:0:
192,192,21847,1,0,0:0:0:0:
448,192,21954,1,0,0:0:0:0:
64,192,21954,1,0,0:0:0:0:
320,192,21954,1,0,0:0:0:0:
192,192,21954,1,0,0:0:0:0:
448,192,22061,1,0,0:0:0:0:
320,192,22169,1,0,0:0:0:0:
192,192,22169,1,0,0:0:0:0:
64,192,22169,1,0,0:0:0:0:
448,192,22276,1,0,0:0:0:0:
192,192,22276,1,0,0:0:0:0:
448,192,22383,1,0,0:0:0:0:
192,192,22383,1,0,0:0:0:0:
64,192,22383,1,0,0:0:0:0:
320,192,22383,1,0,0:0:0:0:
320,192,22490,1,0,0:0:0:0:
320,192,22597,1,0,0:0:0:0:
192,192,22597,1,0,0:0:0:0:
64,192,22597,1,0,0:0:0:0:
192,192,22704,1,0,0:0:0:0:
64,192,22704,1,0,0:0:0:0:
320,192,22811,1,0,0:0:0:0:
448,192,22811,1,0,0:0:0:0:
192,192,22811,1,0,0:0:0:0:
64,192,22811,1,0,0:0:0:0:
448,192,22919,1,0,0:0:0:0:
320,192,23026,1,0,0:0:0:0:
192,192,23026,1,0,0:0:0:0:
64,192,23026,1,0,0:0:0:0:
192,192,23133,1,0,0:0:0:0:
448,192,23133,1,0,0:0:0:0:
320,192,23240,1,0,0:0:0:0:
192,192,23240,1,0,0:0:0:0:
64,192,23240,1,0,0:0:0:0:
448,192,23240,1,0,0:0:0:0:
320,192,23347,1,0,0:0:0:0:
448,192,23454,1,0,0:0:0:0:
192,192,23454,1,0,0:0:0:0:
64,192,23454,1,0,0:0:0:0:
192,192,23561,1,0,0:0:0:0:
64,192,23669,1,0,0:0:0:0:
448,192,23669,1,0,0:0:0:0:
320,192,23669,1,0,0:0:0:0:
192,192,23669,1,0,0:0:0:0:
64,192,23776,1,0,0:0:0:0:
448,192,23883,1,0,0:0:0:0:
192,192,23883,1,0,0:0:0:0:
320,192,23883,1,0,0:0:0:0:
64,192,23990,1,0,0:0:0:0:
448,192,23990,1,0,0:0:0:0:
320,192,24097,1,0,0:0:0:0:
192,192,24097,1,0,0:0:0:0:
64,192,24097,1,0,0:0:0:0:
448,192,24097,1,0,0:0:0:0:
192,192,24204,1,0,0:0:0:0:
320,192,24311,1,0,0:0:0:0:
192,192,24311,1,0,0:0:0:0:
448,192,24311,1,0,0:0:0:0:
320,192,24419,1,0,0:0:0:0:
448,192,24419,1,0,0:0:0:0:
448,192,24526,1,0,0:0:0:0:
320,192,24526,1,0,0:0:0:0:
192,192,24526,1,0,0:0:0:0:
64,192,24526,1,0,0:0:0:0:
192,192,24633,1,0,0:0:0:0:
448,192,24740,1,0,0:0:0:0:
320,192,24740,1,0,0:0:0:0:
64,192,24740,1,0,0:0:0:0:
192,192,24847,1,0,0:0:0:0:
448,192,24847,1,0,0:0:0:0:
448,192,24954,1,0,0:0:0:0:
320,192,24954,1,0,0:0:0:0:
192,192,24954,1,0,0:0:0:0:
64,192,24954,1,0,0:0:0:0:
320,192,25061,1,0,0:0:0:0:
448,192,25169,1,0,0:0:0:0:
192,192,25169,1,0,0:0:0:0:
64,192,25169,1,0,0:0:0:0:
192,192,25276,1,0,0:0:0:0:
448,192,25383,1,0,0:0:0:0:
320,192,25383,1,0,0:0:0:0:
64,192,25383,1,0,0:0:0:0:
192,192,25383,1,0,0:0:0:0:
320,192,25490,1,0,0:0:0:0:
448,192,25597,1,0,0:0:0:0:
192,192,25597,1,0,0:0:0:0:
64,192,25597,1,0,0:0:0:0:
64,192,25704,1,0,0:0:0:0:
320,192,25704,1,0,0:0:0:0:
64,192,25811,1,0,0:0:0:0:
192,192,25811,1,0,0:0:0:0:
320,192,25811,1,0,0:0:0:0:
448,192,25811,1,0,0:0:0:0:
320,192,25919,1,0,0:0:0:0:
448,192,26026,1,0,0:0:0:0:
192,192,26026,1,0,0:0:0:0:
64,192,26026,1,0,0:0:0:0:
64,192,26133,1,0,0:0:0:0:
192,192,26133,1,0,0:0:0:0:
448,192,26240,1,0,0:0:0:0:
320,192,26240,1,0,0:0:0:0:
64,192,26240,1,0,0:0:0:0:
192,192,26240,1,0,0:0:0:0:
320,192,26347,1,0,0:0:0:0:
448,192,26454,1,0,0:0:0:0:
192,192,26454,1,0,0:0:0:0:
64,192,26454,1,0,0:0:0:0:
320,192,26561,1,0,0:0:0:0:
64,192,26561,1,0,0:0:0:0:
448,192,26669,1,0,0:0:0:0:
320,192,26669,1,0,0:0:0:0:
64,192,26669,1,0,0:0:0:0:
192,192,26669,1,0,0:0:0:0:
448,192,26776,1,0,0:0:0:0:
192,192,26776,1,0,0:0:0:0:
320,192,26883,1,0,0:0:0:0:
64,192,26883,1,0,0:0:0:0:
448,192,26883,1,0,0:0:0:0:
64,192,26990,1,0,0:0:0:0:
320,192,26990,1,0,0:0:0:0:
448,192,27097,1,0,0:0:0:0:
320,192,27097,1,0,0:0:0:0:
192,192,27097,1,0,0:0:0:0:
64,192,27097,1,0,0:0:0:0:
448,192,27204,1,0,0:0:0:0:
192,192,27204,1,0,0:0:0:0:
192,192,27311,1,0,0:0:0:0:
64,192,27311,1,0,0:0:0:0:
320,192,27311,1,0,0:0:0:0:
448,192,27419,1,0,0:0:0:0:
64,192,27419,1,0,0:0:0:0:
448,192,27526,1,0,0:0:0:0:
64,192,27526,1,0,0:0:0:0:
192,192,27526,1,0,0:0:0:0:
320,192,27526,1,0,0:0:0:0:
192,192,27633,1,0,0:0:0:0:
320,192,27633,1,0,0:0:0:0:
448,192,27740,1,0,0:0:0:0:
192,192,27740,1,0,0:0:0:0:
64,192,27740,1,0,0:0:0:0:
448,192,27847,1,0,0:0:0:0:
192,192,27954,1,0,0:0:0:0:
320,192,27954,1,0,0:0:0:0:
64,192,28061,1,0,0:0:0:0:
448,192,28061,1,0,0:0:0:0:
192,192,28169,1,0,0:0:0:0:
320,192,28169,1,0,0:0:0:0:
64,192,28276,1,0,0:0:0:0:
448,192,28276,1,0,0:0:0:0:
192,192,28383,128,0,28597:0:0:0:0:
320,192,28383,128,0,28597:0:0:0:0:
448,192,28597,128,0,28811:0:0:0:0:
64,192,28597,128,0,28811:0:0:0:0:
192,192,28811,1,0,0:0:0:0:
320,192,28811,1,0,0:0:0:0:
320,192,28919,1,0,0:0:0:0:
64,192,28919,1,0,0:0:0:0:
192,192,29026,1,0,0:0:0:0:
448,192,29026,1,0,0:0:0:0:
192,192,29133,1,0,0:0:0:0:
64,192,29133,1,0,0:0:0:0:
320,192,29133,1,0,0:0:0:0:
64,192,29240,1,0,0:0:0:0:
320,192,29240,1,0,0:0:0:0:
448,192,29240,1,0,0:0:0:0:
192,192,29240,1,0,0:0:0:0:
320,192,29347,1,0,0:0:0:0:
192,192,29454,1,0,0:0:0:0:
64,192,29454,1,0,0:0:0:0:
448,192,29454,1,0,0:0:0:0:
192,192,29561,1,0,0:0:0:0:
320,192,29561,1,0,0:0:0:0:
448,192,29561,1,0,0:0:0:0:
64,192,29669,1,0,0:0:0:0:
320,192,29669,1,0,0:0:0:0:
192,192,29669,1,0,0:0:0:0:
64,192,29776,1,0,0:0:0:0:
192,192,29883,1,0,0:0:0:0:
320,192,29883,1,0,0:0:0:0:
448,192,29883,1,0,0:0:0:0:
64,192,29990,1,0,0:0:0:0:
320,192,29990,1,0,0:0:0:0:
448,192,29990,1,0,0:0:0:0:
64,192,30097,1,0,0:0:0:0:
192,192,30097,1,0,0:0:0:0:
448,192,30097,1,0,0:0:0:0:
192,192,30204,1,0,0:0:0:0:
64,192,30311,1,0,0:0:0:0:
320,192,30311,1,0,0:0:0:0:
448,192,30311,1,0,0:0:0:0:
320,192,30419,1,0,0:0:0:0:
64,192,30526,1,0,0:0:0:0:
192,192,30526,1,0,0:0:0:0:
448,192,30526,1,0,0:0:0:0:
320,192,30633,1,0,0:0:0:0:
192,192,30633,1,0,0:0:0:0:
64,192,30633,1,0,0:0:0:0:
448,192,30740,1,0,0:0:0:0:
320,192,30740,1,0,0:0:0:0:
192,192,30740,1,0,0:0:0:0:
64,192,30847,1,0,0:0:0:0:
448,192,30847,1,0,0:0:0:0:
320,192,30847,1,0,0:0:0:0:
64,192,30954,1,0,0:0:0:0:
192,192,30954,1,0,0:0:0:0:
448,192,30954,1,0,0:0:0:0:
320,192,31061,1,0,0:0:0:0:
192,192,31061,1,0,0:0:0:0:
64,192,31061,1,0,0:0:0:0:
448,192,31169,1,0,0:0:0:0:
320,192,31169,1,0,0:0:0:0:
192,192,31169,1,0,0:0:0:0:
64,192,31276,1,0,0:0:0:0:
320,192,31276,1,0,0:0:0:0:
448,192,31276,1,0,0:0:0:0:
192,192,31383,1,0,0:0:0:0:
64,192,31383,1,0,0:0:0:0:
448,192,31383,1,0,0:0:0:0:
192,192,31490,1,0,0:0:0:0:
64,192,31597,1,0,0:0:0:0:
320,192,31597,1,0,0:0:0:0:
448,192,31597,1,0,0:0:0:0:
192,192,31704,1,0,0:0:0:0:
64,192,31704,1,0,0:0:0:0:
320,192,31704,1,0,0:0:0:0:
448,192,31811,1,0,0:0:0:0:
192,192,31811,1,0,0:0:0:0:
64,192,31811,1,0,0:0:0:0:
448,192,31919,1,0,0:0:0:0:
192,192,32026,1,0,0:0:0:0:
320,192,32026,1,0,0:0:0:0:
64,192,32026,1,0,0:0:0:0:
320,192,32133,1,0,0:0:0:0:
448,192,32133,1,0,0:0:0:0:
192,192,32133,1,0,0:0:0:0:
64,192,32240,1,0,0:0:0:0:
192,192,32240,1,0,0:0:0:0:
448,192,32240,1,0,0:0:0:0:
320,192,32347,1,0,0:0:0:0:
64,192,32347,1,0,0:0:0:0:
448,192,32347,1,0,0:0:0:0:
320,192,32454,1,0,0:0:0:0:
192,192,32454,1,0,0:0:0:0:
320,192,32561,1,0,0:0:0:0:
64,192,32561,1,0,0:0:0:0:
192,192,32561,1,0,0:0:0:0:
64,192,32669,1,0,0:0:0:0:
192,192,32669,1,0,0:0:0:0:
320,192,32669,1,0,0:0:0:0:
448,192,32669,1,0,0:0:0:0:
64,192,32776,1,0,0:0:0:0:
448,192,32776,1,0,0:0:0:0:
192,192,32776,1,0,0:0:0:0:
320,192,32883,1,0,0:0:0:0:
448,192,32883,1,0,0:0:0:0:
64,192,32990,1,0,0:0:0:0:
320,192,32990,1,0,0:0:0:0:
192,192,32990,1,0,0:0:0:0:
192,192,33097,1,0,0:0:0:0:
448,192,33097,1,0,0:0:0:0:
64,192,33097,1,0,0:0:0:0:
320,192,33204,1,0,0:0:0:0:
448,192,33204,1,0,0:0:0:0:
64,192,33204,1,0,0:0:0:0:
192,192,33311,1,0,0:0:0:0:
320,192,33311,1,0,0:0:0:0:
64,192,33419,1,0,0:0:0:0:
192,192,33419,1,0,0:0:0:0:
448,192,33419,1,0,0:0:0:0:
320,192,33526,1,0,0:0:0:0:
64,192,33526,1,0,0:0:0:0:
192,192,33526,1,0,0:0:0:0:
448,192,33526,1,0,0:0:0:0:
320,192,33633,1,0,0:0:0:0:
192,192,33740,1,0,0:0:0:0:
64,192,33740,1,0,0:0:0:0:
64,192,33847,1,0,0:0:0:0:
320,192,33847,1,0,0:0:0:0:
448,192,33847,1,0,0:0:0:0:
192,192,33954,1,0,0:0:0:0:
320,192,33954,1,0,0:0:0:0:
448,192,33954,1,0,0:0:0:0:
64,192,34061,1,0,0:0:0:0:
192,192,34061,1,0,0:0:0:0:
448,192,34061,1,0,0:0:0:0:
320,192,34169,1,0,0:0:0:0:
64,192,34169,1,0,0:0:0:0:
192,192,34169,1,0,0:0:0:0:
448,192,34276,1,0,0:0:0:0:
320,192,34276,1,0,0:0:0:0:
64,192,34276,1,0,0:0:0:0:
192,192,34383,1,0,0:0:0:0:
448,192,34383,1,0,0:0:0:0:
320,192,34383,1,0,0:0:0:0:
64,192,34490,1,0,0:0:0:0:
192,192,34490,1,0,0:0:0:0:
448,192,34490,1,0,0:0:0:0:
320,192,34597,1,0,0:0:0:0:
64,192,34597,1,0,0:0:0:0:
192,192,34597,1,0,0:0:0:0:
448,192,34704,1,0,0:0:0:0:
320,192,34704,1,0,0:0:0:0:
64,192,34704,1,0,0:0:0:0:
192,192,34811,1,0,0:0:0:0:
448,192,34811,1,0,0:0:0:0:
320,192,34811,1,0,0:0:0:0:
192,192,34919,1,0,0:0:0:0:
64,192,35026,1,0,0:0:0:0:
320,192,35026,1,0,0:0:0:0:
448,192,35026,1,0,0:0:0:0:
192,192,35133,1,0,0:0:0:0:
64,192,35133,1,0,0:0:0:0:
448,192,35133,1,0,0:0:0:0:
320,192,35240,1,0,0:0:0:0:
192,192,35240,1,0,0:0:0:0:
64,192,35240,1,0,0:0:0:0:
320,192,35347,1,0,0:0:0:0:
192,192,35454,1,0,0:0:0:0:
64,192,35454,1,0,0:0:0:0:
448,192,35454,1,0,0:0:0:0:
320,192,35561,1,0,0:0:0:0:
448,192,35561,1,0,0:0:0:0:
192,192,35561,1,0,0:0:0:0:
64,192,35669,1,0,0:0:0:0:
320,192,35669,1,0,0:0:0:0:
448,192,35669,1,0,0:0:0:0:
192,192,35669,1,0,0:0:0:0:
64,192,35776,1,0,0:0:0:0:
320,192,35883,1,0,0:0:0:0:
192,192,35883,1,0,0:0:0:0:
448,192,35883,1,0,0:0:0:0:
320,192,35990,1,0,0:0:0:0:
448,192,35990,1,0,0:0:0:0:
192,192,36097,1,0,0:0:0:0:
64,192,36097,1,0,0:0:0:0:
320,192,36097,1,0,0:0:0:0:
192,192,36204,1,0,0:0:0:0:
64,192,36311,1,0,0:0:0:0:
448,192,36311,1,0,0:0:0:0:
448,192,36419,1,0,0:0:0:0:
320,192,36419,1,0,0:0:0:0:
192,192,36419,1,0,0:0:0:0:
64,192,36526,1,0,0:0:0:0:
320,192,36526,1,0,0:0:0:0:
192,192,36526,1,0,0:0:0:0:
64,192,36633,1,0,0:0:0:0:
448,192,36740,1,0,0:0:0:0:
320,192,36740,1,0,0:0:0:0:
192,192,36740,1,0,0:0:0:0:
320,192,36847,1,0,0:0:0:0:
64,192,36847,1,0,0:0:0:0:
192,192,36847,1,0,0:0:0:0:
448,192,36954,1,0,0:0:0:0:
320,192,36954,1,0,0:0:0:0:
192,192,36954,1,0,0:0:0:0:
64,192,36954,1,0,0:0:0:0:
448,192,37061,1,0,0:0:0:0:
64,192,37061,1,0,0:0:0:0:
192,192,37061,1,0,0:0:0:0:
192,192,37169,1,0,0:0:0:0:
320,192,37169,1,0,0:0:0:0:
320,192,37276,1,0,0:0:0:0:
64,192,37276,1,0,0:0:0:0:
448,192,37276,1,0,0:0:0:0:
192,192,37383,1,0,0:0:0:0:
64,192,37383,1,0,0:0:0:0:
448,192,37383,1,0,0:0:0:0:
320,192,37490,1,0,0:0:0:0:
192,192,37490,1,0,0:0:0:0:
64,192,37490,1,0,0:0:0:0:
448,192,37597,1,0,0:0:0:0:
320,192,37597,1,0,0:0:0:0:
192,192,37597,1,0,0:0:0:0:
64,192,37704,1,0,0:0:0:0:
320,192,37704,1,0,0:0:0:0:
448,192,37704,1,0,0:0:0:0:
192,192,37811,1,0,0:0:0:0:
64,192,37811,1,0,0:0:0:0:
448,192,37811,1,0,0:0:0:0:
192,192,37919,1,0,0:0:0:0:
320,192,38026,1,0,0:0:0:0:
448,192,38026,1,0,0:0:0:0:
64,192,38133,1,0,0:0:0:0:
320,192,38133,1,0,0:0:0:0:
448,192,38133,1,0,0:0:0:0:
192,192,38240,1,0,0:0:0:0:
64,192,38240,1,0,0:0:0:0:
448,192,38240,1,0,0:0:0:0:
320,192,38347,1,0,0:0:0:0:
192,192,38347,1,0,0:0:0:0:
64,192,38347,1,0,0:0:0:0:
320,192,38454,1,0,0:0:0:0:
448,192,38454,1,0,0:0:0:0:
192,192,38561,1,0,0:0:0:0:
64,192,38561,1,0,0:0:0:0:
448,192,38561,1,0,0:0:0:0:
64,192,38669,1,0,0:0:0:0:
192,192,38669,1,0,0:0:0:0:
320,192,38669,1,0,0:0:0:0:
448,192,38669,1,0,0:0:0:0:
320,192,38776,1,0,0:0:0:0:
192,192,38776,1,0,0:0:0:0:
64,192,38776,1,0,0:0:0:0:
320,192,38883,1,0,0:0:0:0:
448,192,38883,1,0,0:0:0:0:
448,192,38990,1,0,0:0:0:0:
64,192,39097,1,0,0:0:0:0:
192,192,39097,1,0,0:0:0:0:
320,192,39097,1,0,0:0:0:0:
448,192,39204,1,0,0:0:0:0:
320,192,39204,1,0,0:0:0:0:
192,192,39204,1,0,0:0:0:0:
64,192,39311,1,0,0:0:0:0:
192,192,39311,1,0,0:0:0:0:
64,192,39419,1,0,0:0:0:0:
320,192,39419,1,0,0:0:0:0:
448,192,39419,1,0,0:0:0:0:
64,192,39526,1,0,0:0:0:0:
192,192,39526,1,0,0:0:0:0:
320,192,39526,1,0,0:0:0:0:
448,192,39526,1,0,0:0:0:0:
192,192,39633,1,0,0:0:0:0:
320,192,39740,1,0,0:0:0:0:
448,192,39740,1,0,0:0:0:0:
192,192,39847,1,0,0:0:0:0:
64,192,39847,1,0,0:0:0:0:
448,192,39847,1,0,0:0:0:0:
64,192,39954,1,0,0:0:0:0:
192,192,39954,1,0,0:0:0:0:
320,192,39954,1,0,0:0:0:0:
448,192,39954,1,0,0:0:0:0:
320,192,40061,1,0,0:0:0:0:
64,192,40061,1,0,0:0:0:0:
192,192,40061,1,0,0:0:0:0:
448,192,40169,1,0,0:0:0:0:
320,192,40169,1,0,0:0:0:0:
192,192,40169,1,0,0:0:0:0:
64,192,40276,1,0,0:0:0:0:
448,192,40276,1,0,0:0:0:0:
320,192,40276,1,0,0:0:0:0:
192,192,40383,1,0,0:0:0:0:
64,192,40383,1,0,0:0:0:0:
448,192,40383,1,0,0:0:0:0:
192,192,40490,1,0,0:0:0:0:
320,192,40597,1,0,0:0:0:0:
448,192,40597,1,0,0:0:0:0:
64,192,40597,1,0,0:0:0:0:
320,192,40704,1,0,0:0:0:0:
192,192,40811,1,0,0:0:0:0:
320,192,40811,1,0,0:0:0:0:
64,192,40919,1,0,0:0:0:0:
448,192,41026,1,0,0:0:0:0:
320,192,41026,1,0,0:0:0:0:
320,192,41133,1,0,0:0:0:0:
192,192,41133,1,0,0:0:0:0:
448,192,41133,1,0,0:0:0:0:
64,192,41240,1,0,0:0:0:0:
192,192,41240,1,0,0:0:0:0:
320,192,41240,1,0,0:0:0:0:
192,192,41347,1,0,0:0:0:0:
64,192,41454,1,0,0:0:0:0:
320,192,41454,1,0,0:0:0:0:
448,192,41454,1,0,0:0:0:0:
320,192,41561,1,0,0:0:0:0:
64,192,41669,1,0,0:0:0:0:
192,192,41669,1,0,0:0:0:0:
448,192,41669,1,0,0:0:0:0:
448,192,41776,1,0,0:0:0:0:
64,192,41883,1,0,0:0:0:0:
192,192,41883,1,0,0:0:0:0:
320,192,41883,1,0,0:0:0:0:
64,192,41990,1,0,0:0:0:0:
448,192,42097,128,0,42311:0:0:0:0:
64,192,42097,128,0,42311:0:0:0:0:
320,192,42311,128,0,42526:0:0:0:0:
192,192,42311,128,0,42526:0:0:0:0:
448,192,42526,1,0,0:0:0:0:
64,192,42526,1,0,0:0:0:0:
448,192,42633,1,0,0:0:0:0:
320,192,42740,1,0,0:0:0:0:
192,192,42740,1,0,0:0:0:0:
64,192,42740,1,0,0:0:0:0:
448,192,42847,1,0,0:0:0:0:
192,192,42847,1,0,0:0:0:0:
448,192,42954,1,0,0:0:0:0:
192,192,42954,1,0,0:0:0:0:
64,192,42954,1,0,0:0:0:0:
320,192,42954,1,0,0:0:0:0:
320,192,43061,1,0,0:0:0:0:
320,192,43169,1,0,0:0:0:0:
192,192,43169,1,0,0:0:0:0:
64,192,43169,1,0,0:0:0:0:
192,192,43276,1,0,0:0:0:0:
64,192,43276,1,0,0:0:0:0:
320,192,43383,1,0,0:0:0:0:
448,192,43383,1,0,0:0:0:0:
192,192,43383,1,0,0:0:0:0:
64,192,43383,1,0,0:0:0:0:
448,192,43490,1,0,0:0:0:0:
320,192,43597,1,0,0:0:0:0:
192,192,43597,1,0,0:0:0:0:
64,192,43597,1,0,0:0:0:0:
192,192,43704,1,0,0:0:0:0:
448,192,43704,1,0,0:0:0:0:
320,192,43811,1,0,0:0:0:0:
192,192,43811,1,0,0:0:0:0:
64,192,43811,1,0,0:0:0:0:
448,192,43811,1,0,0:0:0:0:
320,192,43919,1,0,0:0:0:0:
448,192,44026,1,0,0:0:0:0:
192,192,44026,1,0,0:0:0:0:
64,192,44026,1,0,0:0:0:0:
192,192,44133,1,0,0:0:0:0:
64,192,44240,1,0,0:0:0:0:
448,192,44240,1,0,0:0:0:0:
320,192,44240,1,0,0:0:0:0:
192,192,44240,1,0,0:0:0:0:
64,192,44347,1,0,0:0:0:0:
448,192,44454,1,0,0:0:0:0:
192,192,44454,1,0,0:0:0:0:
320,192,44454,1,0,0:0:0:0:
64,192,44561,1,0,0:0:0:0:
448,192,44561,1,0,0:0:0:0:
320,192,44669,1,0,0:0:0:0:
192,192,44669,1,0,0:0:0:0:
64,192,44669,1,0,0:0:0:0:
448,192,44669,1,0,0:0:0:0:
192,192,44776,1,0,0:0:0:0:
320,192,44883,1,0,0:0:0:0:
192,192,44883,1,0,0:0:0:0:
448,192,44883,1,0,0:0:0:0:
320,192,44990,1,0,0:0:0:0:
448,192,44990,1,0,0:0:0:0:
448,192,45097,1,0,0:0:0:0:
320,192,45097,1,0,0:0:0:0:
192,192,45097,1,0,0:0:0:0:
64,192,45097,1,0,0:0:0:0:
192,192,45204,1,0,0:0:0:0:
448,192,45311,1,0,0:0:0:0:
320,192,45311,1,0,0:0:0:0:
64,192,45311,1,0,0:0:0:0:
192,192,45419,1,0,0:0:0:0:
448,192,45419,1,0,0:0:0:0:
448,192,45526,1,0,0:0:0:0:
320,192,45526,1,0,0:0:0:0:
192,192,45526,1,0,0:0:0:0:
64,192,45526,1,0,0:0:0:0:
320,192,45633,1,0,0:0:0:0:
448,192,45740,1,0,0:0:0:0:
192,192,45740,1,0,0:0:0:0:
64,192,45740,1,0,0:0:0:0:
192,192,45847,1,0,0:0:0:0:
448,192,45954,1,0,0:0:0:0:
320,192,45954,1,0,0:0:0:0:
64,192,45954,1,0,0:0:0:0:
192,192,45954,1,0,0:0:0:0:
320,192,46061,1,0,0:0:0:0:
448,192,46169,1,0,0:0:0:0:
192,192,46169,1,0,0:0:0:0:
64,192,46169,1,0,0:0:0:0:
64,192,46276,1,0,0:0:0:0:
320,192,46276,1,0,0:0:0:0:
64,192,46383,1,0,0:0:0:0:
192,192,46383,1,0,0:0:0:0:
320,192,46383,1,0,0:0:0:0:
448,192,46383,1,0,0:0:0:0:
320,192,46490,1,0,0:0:0:0:
448,192,46597,1,0,0:0:0:0:
192,192,46597,1,0,0:0:0:0:
64,192,46597,1,0,0:0:0:0:
64,192,46704,1,0,0:0:0:0:
192,192,46704,1,0,0:0:0:0:
448,192,46811,1,0,0:0:0:0:
320,192,46811,1,0,0:0:0:0:
64,192,46811,1,0,0:0:0:0:
192,192,46811,1,0,0:0:0:0:
320,192,46919,1,0,0:0:0:0:
448,192,47026,1,0,0:0:0:0:
192,192,47026,1,0,0:0:0:0:
64,192,47026,1,0,0:0:0:0:
320,192,47133,1,0,0:0:0:0:
64,192,47133,1,0,0:0:0:0:
448,192,47240,1,0,0:0:0:0:
320,192,47240,1,0,0:0:0:0:
64,192,47240,1,0,0:0:0:0:
192,192,47240,1,0,0:0:0:0:
448,192,47347,1,0,0:0:0:0:
192,192,47347,1,0,0:0:0:0:
320,192,47454,1,0,0:0:0:0:
64,192,47454,1,0,0:0:0:0:
448,192,47454,1,0,0:0:0:0:
64,192,47561,1,0,0:0:0:0:
320,192,47561,1,0,0:0:0:0:
448,192,47669,1,0,0:0:0:0:
320,192,47669,1,0,0:0:0:0:
192,192,47669,1,0,0:0:0:0:
64,192,47669,1,0,0:0:0:0:
448,192,47776,1,0,0:0:0:0:
192,192,47776,1,0,0:0:0:0:
192,192,47883,1,0,0:0:0:0:
64,192,47883,1,0,0:0:0:0:
320,192,47883,1,0,0:0:0:0:
448,192,47990,1,0,0:0:0:0:
64,192,47990,1,0,0:0:0:0:
448,192,48097,1,0,0:0:0:0:
64,192,48097,1,0,0:0:0:0:
192,192,48097,1,0,0:0:0:0:
320,192,48097,1,0,0:0:0:0:
192,192,48204,1,0,0:0:0:0:
320,192,48204,1,0,0:0:0:0:
448,192,48311,1,0,0:0:0:0:
192,192,48311,1,0,0:0:0:0:
64,192,48311,1,0,0:0:0:0:
448,192,48419,1,0,0:0:0:0:
320,192,48419,1,0,0:0:0:0:
192,192,48526,1,0,0:0:0:0:
64,192,48526,1,0,0:0:0:0:
192,192,48633,1,0,0:0:0:0:
64,192,48633,1,0,0:0:0:0:
192,192,48740,1,0,0:0:0:0:
64,192,48740,1,0,0:0:0:0:
192,192,48847,1,0,0:0:0:0:
64,192,48847,1,0,0:0:0:0:
448,192,48954,1,0,0:0:0:0:
320,192,48954,1,0,0:0:0:0:
448,192,49061,1,0,0:0:0:0:
320,192,49061,1,0,0:0:0:0:
448,192,49169,1,0,0:0:0:0:
320,192,49169,1,0,0:0:0:0:
448,192,49276,1,0,0:0:0:0:
320,192,49276,1,0,0:0:0:0:
64,192,49383,1,0,0:0:0:0:
448,192,49383,1,0,0:0:0:0:
192,192,49383,1,0,0:0:0:0:
320,192,49383,1,0,0:0:0:0:
64,192,49490,1,0,0:0:0:0:
192,192,49597,1,0,0:0:0:0:
320,192,49597,1,0,0:0:0:0:
448,192,49597,1,0,0:0:0:0:
64,192,49704,1,0,0:0:0:0:
320,192,49704,1,0,0:0:0:0:
64,192,49811,1,0,0:0:0:0:
320,192,49811,1,0,0:0:0:0:
448,192,49811,1,0,0:0:0:0:
192,192,49811,1,0,0:0:0:0:
192,192,49919,1,0,0:0:0:0:
192,192,50026,1,0,0:0:0:0:
320,192,50026,1,0,0:0:0:0:
448,192,50026,1,0,0:0:0:0:
320,192,50133,1,0,0:0:0:0:
448,192,50133,1,0,0:0:0:0:
192,192,50240,1,0,0:0:0:0:
64,192,50240,1,0,0:0:0:0:
320,192,50240,1,0,0:0:0:0:
448,192,50240,1,0,0:0:0:0:
64,192,50347,1,0,0:0:0:0:
192,192,50454,1,0,0:0:0:0:
320,192,50454,1,0,0:0:0:0:
448,192,50454,1,0,0:0:0:0:
320,192,50561,1,0,0:0:0:0:
64,192,50561,1,0,0:0:0:0:
192,192,50669,1,0,0:0:0:0:
320,192,50669,1,0,0:0:0:0:
448,192,50669,1,0,0:0:0:0:
64,192,50669,1,0,0:0:0:0:
192,192,50776,1,0,0:0:0:0:
64,192,50883,1,0,0:0:0:0:
320,192,50883,1,0,0:0:0:0:
448,192,50883,1,0,0:0:0:0:
320,192,50990,1,0,0:0:0:0:
448,192,51097,1,0,0:0:0:0:
64,192,51097,1,0,0:0:0:0:
192,192,51097,1,0,0:0:0:0:
320,192,51097,1,0,0:0:0:0:
448,192,51204,1,0,0:0:0:0:
64,192,51311,1,0,0:0:0:0:
320,192,51311,1,0,0:0:0:0:
192,192,51311,1,0,0:0:0:0:
448,192,51419,1,0,0:0:0:0:
64,192,51419,1,0,0:0:0:0:
192,192,51526,1,0,0:0:0:0:
320,192,51526,1,0,0:0:0:0:
448,192,51526,1,0,0:0:0:0:
64,192,51526,1,0,0:0:0:0:
320,192,51633,1,0,0:0:0:0:
192,192,51740,1,0,0:0:0:0:
320,192,51740,1,0,0:0:0:0:
64,192,51740,1,0,0:0:0:0:
192,192,51847,1,0,0:0:0:0:
64,192,51847,1,0,0:0:0:0:
64,192,51954,1,0,0:0:0:0:
192,192,51954,1,0,0:0:0:0:
320,192,51954,1,0,0:0:0:0:
448,192,51954,1,0,0:0:0:0:
320,192,52061,1,0,0:0:0:0:
64,192,52169,1,0,0:0:0:0:
192,192,52169,1,0,0:0:0:0:
448,192,52169,1,0,0:0:0:0:
320,192,52276,1,0,0:0:0:0:
64,192,52276,1,0,0:0:0:0:
64,192,52383,1,0,0:0:0:0:
192,192,52383,1,0,0:0:0:0:
320,192,52383,1,0,0:0:0:0:
448,192,52383,1,0,0:0:0:0:
192,192,52490,1,0,0:0:0:0:
64,192,52597,1,0,0:0:0:0:
320,192,52597,1,0,0:0:0:0:
448,192,52597,1,0,0:0:0:0:
320,192,52704,1,0,0:0:0:0:
64,192,52811,1,0,0:0:0:0:
192,192,52811,1,0,0:0:0:0:
448,192,52811,1,0,0:0:0:0:
320,192,52811,1,0,0:0:0:0:
192,192,52919,1,0,0:0:0:0:
64,192,53026,1,0,0:0:0:0:
320,192,53026,1,0,0:0:0:0:
448,192,53026,1,0,0:0:0:0:
448,192,53133,1,0,0:0:0:0:
192,192,53133,1,0,0:0:0:0:
448,192,53240,1,0,0:0:0:0:
320,192,53240,1,0,0:0:0:0:
192,192,53240,1,0,0:0:0:0:
64,192,53240,1,0,0:0:0:0:
192,192,53347,1,0,0:0:0:0:
64,192,53454,1,0,0:0:0:0:
320,192,53454,1,0,0:0:0:0:
448,192,53454,1,0,0:0:0:0:
448,192,53561,1,0,0:0:0:0:
320,192,53561,1,0,0:0:0:0:
64,192,53669,1,0,0:0:0:0:
192,192,53669,1,0,0:0:0:0:
448,192,53669,1,0,0:0:0:0:
320,192,53669,1,0,0:0:0:0:
192,192,53776,1,0,0:0:0:0:
64,192,53883,1,0,0:0:0:0:
320,192,53883,1,0,0:0:0:0:
448,192,53883,1,0,0:0:0:0:
192,192,53990,1,0,0:0:0:0:
448,192,53990,1,0,0:0:0:0:
64,192,54097,1,0,0:0:0:0:
192,192,54097,1,0,0:0:0:0:
448,192,54097,1,0,0:0:0:0:
320,192,54097,1,0,0:0:0:0:
64,192,54204,1,0,0:0:0:0:
320,192,54204,1,0,0:0:0:0:
192,192,54311,1,0,0:0:0:0:
448,192,54311,1,0,0:0:0:0:
64,192,54311,1,0,0:0:0:0:
448,192,54419,1,0,0:0:0:0:
192,192,54419,1,0,0:0:0:0:
64,192,54526,1,0,0:0:0:0:
192,192,54526,1,0,0:0:0:0:
320,192,54526,1,0,0:0:0:0:
448,192,54526,1,0,0:0:0:0:
64,192,54633,1,0,0:0:0:0:
320,192,54633,1,0,0:0:0:0:
320,192,54740,1,0,0:0:0:0:
448,192,54740,1,0,0:0:0:0:
192,192,54740,1,0,0:0:0:0:
64,192,54847,1,0,0:0:0:0:
448,192,54847,1,0,0:0:0:0:
64,192,54954,1,0,0:0:0:0:
448,192,54954,1,0,0:0:0:0:
320,192,54954,1,0,0:0:0:0:
192,192,54954,1,0,0:0:0:0:
320,192,55061,1,0,0:0:0:0:
192,192,55061,1,0,0:0:0:0:
64,192,55169,1,0,0:0:0:0:
320,192,55169,1,0,0:0:0:0:
448,192,55169,1,0,0:0:0:0:
64,192,55276,1,0,0:0:0:0:
320,192,55383,1,0,0:0:0:0:
192,192,55383,1,0,0:0:0:0:
448,192,55490,1,0,0:0:0:0:
64,192,55490,1,0,0:0:0:0:
320,192,55597,1,0,0:0:0:0:
192,192,55597,1,0,0:0:0:0:
448,192,55704,1,0,0:0:0:0:
64,192,55704,1,0,0:0:0:0:
320,192,55811,128,0,56026:0:0:0:0:
192,192,55811,128,0,56026:0:0:0:0:
64,192,56026,128,0,56240:0:0:0:0:
448,192,56026,128,0,56240:0:0:0:0:
192,192,56240,1,0,0:0:0:0:
320,192,56240,1,0,0:0:0:0:
448,192,56276,1,0,0:0:0:0:
64,192,56311,1,0,0:0:0:0:
192,192,56347,1,0,0:0:0:0:
320,192,56383,1,0,0:0:0:0:
448,192,56419,1,0,0:0:0:0:
320,192,56454,1,0,0:0:0:0:
192,192,56490,1,0,0:0:0:0:
64,192,56526,1,0,0:0:0:0:
448,192,56561,1,0,0:0:0:0:
320,192,56561,1,0,0:0:0:0:
192,192,56597,1,0,0:0:0:0:
64,192,56633,1,0,0:0:0:0:
320,192,56669,1,0,0:0:0:0:
448,192,56704,1,0,0:0:0:0:
192,192,56740,1,0,0:0:0:0:
64,192,56776,1,0,0:0:0:0:
448,192,56811,1,0,0:0:0:0:
320,192,56847,1,0,0:0:0:0:
192,192,56883,1,0,0:0:0:0:
64,192,56883,1,0,0:0:0:0:
448,192,56919,1,0,0:0:0:0:
320,192,56954,1,0,0:0:0:0:
192,192,56990,1,0,0:0:0:0:
448,192,57026,1,0,0:0:0:0:
64,192,57061,1,0,0:0:0:0:
192,192,57097,1,0,0:0:0:0:
320,192,57097,1,0,0:0:0:0:
448,192,57133,1,0,0:0:0:0:
64,192,57169,1,0,0:0:0:0:
192,192,57204,1,0,0:0:0:0:
320,192,57240,1,0,0:0:0:0:
448,192,57276,1,0,0:0:0:0:
64,192,57311,1,0,0:0:0:0:
192,192,57347,1,0,0:0:0:0:
320,192,57383,1,0,0:0:0:0:
448,192,57419,1,0,0:0:0:0:
320,192,57454,1,0,0:0:0:0:
192,192,57490,1,0,0:0:0:0:
64,192,57526,1,0,0:0:0:0:
448,192,57526,1,0,0:0:0:0:
320,192,57561,1,0,0:0:0:0:
192,192,57597,1,0,0:0:0:0:
64,192,57633,1,0,0:0:0:0:
192,192,57669,1,0,0:0:0:0:
320,192,57704,1,0,0:0:0:0:
448,192,57740,1,0,0:0:0:0:
64,192,57776,1,0,0:0:0:0:
192,192,57811,1,0,0:0:0:0:
320,192,57847,1,0,0:0:0:0:
448,192,57883,1,0,0:0:0:0:
320,192,57919,1,0,0:0:0:0:
64,192,57954,1,0,0:0:0:0:
192,192,57954,1,0,0:0:0:0:
448,192,57990,1,0,0:0:0:0:
320,192,58026,1,0,0:0:0:0:
192,192,58061,1,0,0:0:0:0:
64,192,58097,1,0,0:0:0:0:
192,192,58133,1,0,0:0:0:0:
320,192,58169,1,0,0:0:0:0:
448,192,58204,1,0,0:0:0:0:
64,192,58240,1,0,0:0:0:0:
192,192,58276,1,0,0:0:0:0:
448,192,58276,1,0,0:0:0:0:
320,192,58311,1,0,0:0:0:0:
192,192,58347,1,0,0:0:0:0:
64,192,58383,1,0,0:0:0:0:
320,192,58419,1,0,0:0:0:0:
448,192,58454,1,0,0:0:0:0:
64,192,58490,1,0,0:0:0:0:
192,192,58526,1,0,0:0:0:0:
320,192,58561,1,0,0:0:0:0:
448,192,58597,1,0,0:0:0:0:
64,192,58597,1,0,0:0:0:0:
192,192,58633,1,0,0:0:0:0:
320,192,58669,1,0,0:0:0:0:
448,192,58704,1,0,0:0:0:0:
192,192,58740,1,0,0:0:0:0:
320,192,58776,1,0,0:0:0:0:
448,192,58811,1,0,0:0:0:0:
64,192,58811,1,0,0:0:0:0:
64,192,58919,1,0,0:0:0:0:
192,192,59026,1,0,0:0:0:0:
320,192,59026,1,0,0:0:0:0:
320,192,59133,1,0,0:0:0:0:
448,192,59133,1,0,0:0:0:0:
64,192,59240,1,0,0:0:0:0:
192,192,59240,1,0,0:0:0:0:
448,192,59240,1,0,0:0:0:0:
192,192,59347,1,0,0:0:0:0:
64,192,59454,1,0,0:0:0:0:
320,192,59454,1,0,0:0:0:0:
64,192,59561,1,0,0:0:0:0:
192,192,59669,1,0,0:0:0:0:
320,192,59669,1,0,0:0:0:0:
448,192,59704,1,0,0:0:0:0:
64,192,59740,1,0,0:0:0:0:
192,192,59776,1,0,0:0:0:0:
320,192,59811,1,0,0:0:0:0:
448,192,59847,1,0,0:0:0:0:
320,192,59883,1,0,0:0:0:0:
192,192,59919,1,0,0:0:0:0:
64,192,59954,1,0,0:0:0:0:
448,192,59990,1,0,0:0:0:0:
320,192,59990,1,0,0:0:0:0:
192,192,60026,1,0,0:0:0:0:
64,192,60061,1,0,0:0:0:0:
320,192,60097,1,0,0:0:0:0:
448,192,60133,1,0,0:0:0:0:
192,192,60169,1,0,0:0:0:0:
64,192,60204,1,0,0:0:0:0:
448,192,60240,1,0,0:0:0:0:
320,192,60276,1,0,0:0:0:0:
192,192,60311,1,0,0:0:0:0:
64,192,60311,1,0,0:0:0:0:
448,192,60347,1,0,0:0:0:0:
320,192,60383,1,0,0:0:0:0:
192,192,60419,1,0,0:0:0:0:
448,192,60454,1,0,0:0:0:0:
64,192,60490,1,0,0:0:0:0:
192,192,60526,1,0,0:0:0:0:
320,192,60526,1,0,0:0:0:0:
448,192,60561,1,0,0:0:0:0:
64,192,60597,1,0,0:0:0:0:
192,192,60633,1,0,0:0:0:0:
320,192,60669,1,0,0:0:0:0:
448,192,60704,1,0,0:0:0:0:
64,192,60740,1,0,0:0:0:0:
192,192,60776,1,0,0:0:0:0:
320,192,60811,1,0,0:0:0:0:
448,192,60847,1,0,0:0:0:0:
320,192,60883,1,0,0:0:0:0:
192,192,60919,1,0,0:0:0:0:
64,192,60954,1,0,0:0:0:0:
448,192,60954,1,0,0:0:0:0:
320,192,60990,1,0,0:0:0:0:
192,192,61026,1,0,0:0:0:0:
64,192,61061,1,0,0:0:0:0:
192,192,61097,1,0,0:0:0:0:
320,192,61133,1,0,0:0:0:0:
448,192,61169,1,0,0:0:0:0:
64,192,61204,1,0,0:0:0:0:
192,192,61240,1,0,0:0:0:0:
320,192,61276,1,0,0:0:0:0:
448,192,61311,1,0,0:0:0:0:
320,192,61347,1,0,0:0:0:0:
64,192,61383,1,0,0:0:0:0:
192,192,61383,1,0,0:0:0:0:
448,192,61419,1,0,0:0:0:0:
320,192,61454,1,0,0:0:0:0:
192,192,61490,1,0,0:0:0:0:
64,192,61526,1,0,0:0:0:0:
192,192,61561,1,0,0:0:0:0:
320,192,61597,1,0,0:0:0:0:
448,192,61633,1,0,0:0:0:0:
64,192,61669,1,0,0:0:0:0:
192,192,61704,1,0,0:0:0:0:
448,192,61704,1,0,0:0:0:0:
320,192,61740,1,0,0:0:0:0:
192,192,61776,1,0,0:0:0:0:
64,192,61811,1,0,0:0:0:0:
320,192,61847,1,0,0:0:0:0:
448,192,61883,1,0,0:0:0:0:
64,192,61919,1,0,0:0:0:0:
192,192,61954,1,0,0:0:0:0:
320,192,61990,1,0,0:0:0:0:
448,192,62026,1,0,0:0:0:0:
64,192,62026,1,0,0:0:0:0:
192,192,62061,1,0,0:0:0:0:
320,192,62097,1,0,0:0:0:0:
448,192,62133,1,0,0:0:0:0:
192,192,62169,1,0,0:0:0:0:
64,192,62204,1,0,0:0:0:0:
448,192,62240,1,0,0:0:0:0:
320,192,62240,1,0,0:0:0:0:
320,192,62347,1,0,0:0:0:0:
448,192,62454,1,0,0:0:0:0:
64,192,62454,1,0,0:0:0:0:
192,192,62490,1,0,0:0:0:0:
320,192,62526,1,0,0:0:0:0:
448,192,62561,1,0,0:0:0:0:
192,192,62597,1,0,0:0:0:0:
64,192,62633,1,0,0:0:0:0:
448,192,62669,1,0,0:0:0:0:
320,192,62704,1,0,0:0:0:0:
192,192,62740,1,0,0:0:0:0:
64,192,62776,1,0,0:0:0:0:
320,192,62811,1,0,0:0:0:0:
192,192,62847,1,0,0:0:0:0:
64,192,62883,1,0,0:0:0:0:
448,192,62883,1,0,0:0:0:0:
448,192,62990,1,0,0:0:0:0:
192,192,63097,1,0,0:0:0:0:
320,192,63097,1,0,0:0:0:0:
448,192,63133,1,0,0:0:0:0:
64,192,63169,1,0,0:0:0:0:
192,192,63204,1,0,0:0:0:0:
320,192,63240,1,0,0:0:0:0:
448,192,63276,1,0,0:0:0:0:
320,192,63311,1,0,0:0:0:0:
192,192,63347,1,0,0:0:0:0:
64,192,63383,1,0,0:0:0:0:
448,192,63419,1,0,0:0:0:0:
320,192,63419,1,0,0:0:0:0:
192,192,63454,1,0,0:0:0:0:
64,192,63490,1,0,0:0:0:0:
320,192,63526,1,0,0:0:0:0:
448,192,63561,1,0,0:0:0:0:
192,192,63597,1,0,0:0:0:0:
64,192,63633,1,0,0:0:0:0:
448,192,63669,1,0,0:0:0:0:
320,192,63704,1,0,0:0:0:0:
192,192,63740,1,0,0:0:0:0:
64,192,63740,1,0,0:0:0:0:
448,192,63776,1,0,0:0:0:0:
320,192,63811,1,0,0:0:0:0:
192,192,63847,1,0,0:0:0:0:
448,192,63883,1,0,0:0:0:0:
64,192,63919,1,0,0:0:0:0:
192,192,63954,1,0,0:0:0:0:
320,192,63954,1,0,0:0:0:0:
448,192,63990,1,0,0:0:0:0:
64,192,64026,1,0,0:0:0:0:
192,192,64061,1,0,0:0:0:0:
320,192,64097,1,0,0:0:0:0:
448,192,64133,1,0,0:0:0:0:
64,192,64169,1,0,0:0:0:0:
192,192,64204,1,0,0:0:0:0:
320,192,64240,1,0,0:0:0:0:
448,192,64276,1,0,0:0:0:0:
320,192,64311,1,0,0:0:0:0:
192,192,64347,1,0,0:0:0:0:
64,192,64383,1,0,0:0:0:0:
448,192,64383,1,0,0:0:0:0:
320,192,64419,1,0,0:0:0:0:
192,192,64454,1,0,0:0:0:0:
64,192,64490,1,0,0:0:0:0:
192,192,64526,1,0,0:0:0:0:
320,192,64561,1,0,0:0:0:0:
448,192,64597,1,0,0:0:0:0:
64,192,64633,1,0,0:0:0:0:
192,192,64669,1,0,0:0:0:0:
320,192,64704,1,0,0:0:0:0:
448,192,64740,1,0,0:0:0:0:
320,192,64776,1,0,0:0:0:0:
64,192,64811,1,0,0:0:0:0:
192,192,64811,1,0,0:0:0:0:
448,192,64847,1,0,0:0:0:0:
320,192,64883,1,0,0:0:0:0:
192,192,64919,1,0,0:0:0:0:
64,192,64954,1,0,0:0:0:0:
192,192,64990,1,0,0:0:0:0:
320,192,65026,1,0,0:0:0:0:
448,192,65061,1,0,0:0:0:0:
64,192,65097,1,0,0:0:0:0:
192,192,65133,1,0,0:0:0:0:
448,192,65133,1,0,0:0:0:0:
320,192,65169,1,0,0:0:0:0:
192,192,65204,1,0,0:0:0:0:
64,192,65240,1,0,0:0:0:0:
320,192,65276,1,0,0:0:0:0:
448,192,65311,1,0,0:0:0:0:
64,192,65347,1,0,0:0:0:0:
192,192,65383,1,0,0:0:0:0:
320,192,65419,1,0,0:0:0:0:
448,192,65454,1,0,0:0:0:0:
64,192,65454,1,0,0:0:0:0:
192,192,65490,1,0,0:0:0:0:
320,192,65526,1,0,0:0:0:0:
448,192,65561,1,0,0:0:0:0:
192,192,65597,1,0,0:0:0:0:
320,192,65633,1,0,0:0:0:0:
448,192,65669,1,0,0:0:0:0:
64,192,65669,1,0,0:0:0:0:
192,192,65669,1,0,0:0:0:0:
64,192,65776,1,0,0:0:0:0:
192,192,65883,1,0,0:0:0:0:
448,192,65883,1,0,0:0:0:0:
192,192,65990,1,0,0:0:0:0:
320,192,65990,1,0,0:0:0:0:
64,192,66097,1,0,0:0:0:0:
320,192,66097,1,0,0:0:0:0:
448,192,66097,1,0,0:0:0:0:
64,192,66204,1,0,0:0:0:0:
192,192,66311,1,0,0:0:0:0:
448,192,66311,1,0,0:0:0:0:
448,192,66419,1,0,0:0:0:0:
192,192,66526,1,0,0:0:0:0:
320,192,66526,1,0,0:0:0:0:
448,192,66561,1,0,0:0:0:0:
64,192,66597,1,0,0:0:0:0:
192,192,66633,1,0,0:0:0:0:
320,192,66669,1,0,0:0:0:0:
448,192,66704,1,0,0:0:0:0:
320,192,66740,1,0,0:0:0:0:
192,192,66776,1,0,0:0:0:0:
64,192,66811,1,0,0:0:0:0:
448,192,66847,1,0,0:0:0:0:
320,192,66847,1,0,0:0:0:0:
192,192,66883,1,0,0:0:0:0:
64,192,66919,1,0,0:0:0:0:
320,192,66954,1,0,0:0:0:0:
448,192,66990,1,0,0:0:0:0:
192,192,67026,1,0,0:0:0:0:
64,192,67061,1,0,0:0:0:0:
448,192,67097,1,0,0:0:0:0:
320,192,67133,1,0,0:0:0:0:
192,192,67169,1,0,0:0:0:0:
64,192,67169,1,0,0:0:0:0:
448,192,67204,1,0,0:0:0:0:
320,192,67240,1,0,0:0:0:0:
192,192,67276,1,0,0:0:0:0:
448,192,67311,1,0,0:0:0:0:
64,192,67347,1,0,0:0:0:0:
192,192,67383,1,0,0:0:0:0:
320,192,67383,1,0,0:0:0:0:
448,192,67419,1,0,0:0:0:0:
64,192,67454,1,0,0:0:0:0:
192,192,67490,1,0,0:0:0:0:
320,192,67526,1,0,0:0:0:0:
448,192,67561,1,0,0:0:0:0:
64,192,67597,1,0,0:0:0:0:
192,192,67633,1,0,0:0:0:0:
320,192,67669,1,0,0:0:0:0:
448,192,67704,1,0,0:0:0:0:
320,192,67740,1,0,0:0:0:0:
192,192,67776,1,0,0:0:0:0:
64,192,67811,1,0,0:0:0:0:
448,192,67811,1,0,0:0:0:0:
320,192,67847,1,0,0:0:0:0:
192,192,67883,1,0,0:0:0:0:
64,192,67919,1,0,0:0:0:0:
192,192,67954,1,0,0:0:0:0:
320,192,67990,1,0,0:0:0:0:
448,192,68026,1,0,0:0:0:0:
64,192,68061,1,0,0:0:0:0:
192,192,68097,1,0,0:0:0:0:
320,192,68133,1,0,0:0:0:0:
448,192,68169,1,0,0:0:0:0:
320,192,68204,1,0,0:0:0:0:
64,192,68240,1,0,0:0:0:0:
192,192,68240,1,0,0:0:0:0:
448,192,68276,1,0,0:0:0:0:
320,192,68311,1,0,0:0:0:0:
192,192,68347,1,0,0:0:0:0:
64,192,68383,1,0,0:0:0:0:
192,192,68419,1,0,0:0:0:0:
320,192,68454,1,0,0:0:0:0:
448,192,68490,1,0,0:0:0:0:
64,192,68526,1,0,0:0:0:0:
192,192,68561,1,0,0:0:0:0:
448,192,68561,1,0,0:0:0:0:
320,192,68597,1,0,0:0:0:0:
192,192,68633,1,0,0:0:0:0:
64,192,68669,1,0,0:0:0:0:
320,192,68704,1,0,0:0:0:0:
448,192,68740,1,0,0:0:0:0:
64,192,68776,1,0,0:0:0:0:
192,192,68811,1,0,0:0:0:0:
320,192,68847,1,0,0:0:0:0:
448,192,68883,1,0,0:0:0:0:
64,192,68883,1,0,0:0:0:0:
192,192,68919,1,0,0:0:0:0:
320,192,68954,1,0,0:0:0:0:
448,192,68990,1,0,0:0:0:0:
192,192,69026,1,0,0:0:0:0:
64,192,69061,1,0,0:0:0:0:
448,192,69097,1,0,0:0:0:0:
320,192,69097,1,0,0:0:0:0:
320,192,69204,1,0,0:0:0:0:
448,192,69311,1,0,0:0:0:0:
64,192,69311,1,0,0:0:0:0:
192,192,69347,1,0,0:0:0:0:
320,192,69383,1,0,0:0:0:0:
448,192,69419,1,0,0:0:0:0:
192,192,69454,1,0,0:0:0:0:
64,192,69490,1,0,0:0:0:0:
448,192,69526,1,0,0:0:0:0:
320,192,69561,1,0,0:0:0:0:
192,192,69597,1,0,0:0:0:0:
64,192,69633,1,0,0:0:0:0:
320,192,69669,1,0,0:0:0:0:
192,192,69704,1,0,0:0:0:0:
448,192,69740,128,0,69954:0:0:0:0:
64,192,69740,128,0,69954:0:0:0:0:
320,192,69954,1,0,0:0:0:0:
192,192,69954,1,0,0:0:0:0:
320,192,70061,1,0,0:0:0:0:
448,192,70169,1,0,0:0:0:0:
192,192,70169,1,0,0:0:0:0:
64,192,70169,1,0,0:0:0:0:
64,192,70276,1,0,0:0:0:0:
192,192,70276,1,0,0:0:0:0:
448,192,70383,1,0,0:0:0:0:
192,192,70383,1,0,0:0:0:0:
64,192,70383,1,0,0:0:0:0:
320,192,70383,1,0,0:0:0:0:
320,192,70490,1,0,0:0:0:0:
320,192,70597,1,0,0:0:0:0:
192,192,70597,1,0,0:0:0:0:
64,192,70597,1,0,0:0:0:0:
192,192,70704,1,0,0:0:0:0:
64,192,70704,1,0,0:0:0:0:
320,192,70811,1,0,0:0:0:0:
448,192,70811,1,0,0:0:0:0:
192,192,70811,1,0,0:0:0:0:
64,192,70811,1,0,0:0:0:0:
448,192,70919,1,0,0:0:0:0:
320,192,71026,1,0,0:0:0:0:
192,192,71026,1,0,0:0:0:0:
64,192,71026,1,0,0:0:0:0:
192,192,71133,1,0,0:0:0:0:
448,192,71133,1,0,0:0:0:0:
320,192,71240,1,0,0:0:0:0:
192,192,71240,1,0,0:0:0:0:
64,192,71240,1,0,0:0:0:0:
448,192,71240,1,0,0:0:0:0:
320,192,71347,1,0,0:0:0:0:
448,192,71454,1,0,0:0:0:0:
192,192,71454,1,0,0:0:0:0:
64,192,71454,1,0,0:0:0:0:
192,192,71561,1,0,0:0:0:0:
64,192,71669,1,0,0:0:0:0:
448,192,71669,1,0,0:0:0:0:
320,192,71669,1,0,0:0:0:0:
192,192,71669,1,0,0:0:0:0:
64,192,71776,1,0,0:0:0:0:
448,192,71883,1,0,0:0:0:0:
192,192,71883,1,0,0:0:0:0:
320,192,71883,1,0,0:0:0:0:
64,192,71990,1,0,0:0:0:0:
448,192,71990,1,0,0:0:0:0:
320,192,72097,1,0,0:0:0:0:
192,192,72097,1,0,0:0:0:0:
64,192,72097,1,0,0:0:0:0:
448,192,72097,1,0,0:0:0:0:
192,192,72204,1,0,0:0:0:0:
320,192,72311,1,0,0:0:0:0:
192,192,72311,1,0,0:0:0:0:
448,192,72311,1,0,0:0:0:0:
320,192,72419,1,0,0:0:0:0:
448,192,72419,1,0,0:0:0:0:
448,192,72526,1,0,0:0:0:0:
320,192,72526,1,0,0:0:0:0:
192,192,72526,1,0,0:0:0:0:
64,192,72526,1,0,0:0:0:0:
192,192,72633,1,0,0:0:0:0:
448,192,72740,1,0,0:0:0:0:
320,192,72740,1,0,0:0:0:0:
64,192,72740,1,0,0:0:0:0:
192,192,72847,1,0,0:0:0:0:
448,192,72847,1,0,0:0:0:0:
448,192,72954,1,0,0:0:0:0:
320,192,72954,1,0,0:0:0:0:
192,192,72954,1,0,0:0:0:0:
64,192,72954,1,0,0:0:0:0:
320,192,73061,1,0,0:0:0:0:
448,192,73169,1,0,0:0:0:0:
192,192,73169,1,0,0:0:0:0:
64,192,73169,1,0,0:0:0:0:
192,192,73276,1,0,0:0:0:0:
448,192,73383,1,0,0:0:0:0:
320,192,73383,1,0,0:0:0:0:
64,192,73383,1,0,0:0:0:0:
192,192,73383,128,0,73409:0:0:0:0:
320,192,73490,128,0,73516:0:0:0:0:
192,192,73597,1,0,0:0:0:0:
64,192,73597,1,0,0:0:0:0:
448,192,73597,128,0,73624:0:0:0:0:
64,192,73704,1,0,0:0:0:0:
320,192,73704,128,0,73731:0:0:0:0:
192,192,73811,1,0,0:0:0:0:
320,192,73811,1,0,0:0:0:0:
448,192,73811,1,0,0:0:0:0:
64,192,73811,128,0,73838:0:0:0:0:
320,192,73919,128,0,73945:0:0:0:0:
448,192,74026,1,0,0:0:0:0:
64,192,74026,1,0,0:0:0:0:
192,192,74026,128,0,74052:0:0:0:0:
192,192,74133,1,0,0:0:0:0:
64,192,74133,128,0,74159:0:0:0:0:
320,192,74240,1,0,0:0:0:0:
64,192,74240,1,0,0:0:0:0:
192,192,74240,1,0,0:0:0:0:
448,192,74240,128,0,74266:0:0:0:0:
320,192,74347,128,0,74374:0:0:0:0:
448,192,74454,1,0,0:0:0:0:
64,192,74454,1,0,0:0:0:0:
192,192,74454,128,0,74481:0:0:0:0:
320,192,74561,1,0,0:0:0:0:
64,192,74561,128,0,74588:0:0:0:0:
320,192,74669,1,0,0:0:0:0:
64,192,74669,1,0,0:0:0:0:
192,192,74669,1,0,0:0:0:0:
448,192,74669,128,0,74695:0:0:0:0:
448,192,74776,1,0,0:0:0:0:
192,192,74776,128,0,74802:0:0:0:0:
64,192,74883,1,0,0:0:0:0:
448,192,74883,1,0,0:0:0:0:
320,192,74883,128,0,74909:0:0:0:0:
320,192,74990,1,0,0:0:0:0:
64,192,74990,128,0,75016:0:0:0:0:
448,192,75097,1,0,0:0:0:0:
320,192,75097,1,0,0:0:0:0:
64,192,75097,1,0,0:0:0:0:
192,192,75097,128,0,75124:0:0:0:0:
192,192,75204,1,0,0:0:0:0:
448,192,75204,128,0,75231:0:0:0:0:
192,192,75311,1,0,0:0:0:0:
64,192,75311,1,0,0:0:0:0:
320,192,75311,128,0,75338:0:0:0:0:
448,192,75419,1,0,0:0:0:0:
64,192,75419,128,0,75445:0:0:0:0:
64,192,75526,1,0,0:0:0:0:
192,192,75526,1,0,0:0:0:0:
320,192,75526,1,0,0:0:0:0:
448,192,75526,128,0,75552:0:0:0:0:
192,192,75633,1,0,0:0:0:0:
320,192,75633,128,0,75659:0:0:0:0:
448,192,75740,1,0,0:0:0:0:
64,192,75740,1,0,0:0:0:0:
192,192,75740,128,0,75766:0:0:0:0:
448,192,75847,128,0,75874:0:0:0:0:
192,192,75954,1,0,0:0:0:0:
320,192,75954,1,0,0:0:0:0:
448,192,75954,1,0,0:0:0:0:
64,192,75954,128,0,75981:0:0:0:0:
192,192,76061,128,0,76088:0:0:0:0:
448,192,76169,128,0,76195:0:0:0:0:
320,192,76276,128,0,76302:0:0:0:0:
448,192,76383,1,0,0:0:0:0:
64,192,76383,128,0,76409:0:0:0:0:
64,192,76490,128,0,76516:0:0:0:0:
320,192,76597,128,0,76624:0:0:0:0:
320,192,76704,128,0,76731:0:0:0:0:
64,192,76811,1,0,0:0:0:0:
448,192,76811,1,0,0:0:0:0:
192,192,76811,1,0,0:0:0:0:
320,192,76811,1,0,0:0:0:0:
64,192,76919,1,0,0:0:0:0:
192,192,76919,1,0,0:0:0:0:
192,192,77026,1,0,0:0:0:0:
320,192,77026,1,0,0:0:0:0:
448,192,77026,1,0,0:0:0:0:
64,192,77133,1,0,0:0:0:0:
320,192,77133,1,0,0:0:0:0:
448,192,77133,1,0,0:0:0:0:
64,192,77240,1,0,0:0:0:0:
448,192,77240,1,0,0:0:0:0:
192,192,77240,1,0,0:0:0:0:
192,192,77347,1,0,0:0:0:0:
64,192,77347,1,0,0:0:0:0:
320,192,77347,1,0,0:0:0:0:
192,192,77454,1,0,0:0:0:0:
320,192,77454,1,0,0:0:0:0:
448,192,77454,1,0,0:0:0:0:
320,192,77561,1,0,0:0:0:0:
448,192,77561,1,0,0:0:0:0:
64,192,77561,1,0,0:0:0:0:
192,192,77669,1,0,0:0:0:0:
64,192,77669,1,0,0:0:0:0:
448,192,77669,1,0,0:0:0:0:
64,192,77776,1,0,0:0:0:0:
192,192,77883,1,0,0:0:0:0:
320,192,77883,1,0,0:0:0:0:
448,192,77883,1,0,0:0:0:0:
320,192,77990,1,0,0:0:0:0:
64,192,77990,1,0,0:0:0:0:
448,192,77990,1,0,0:0:0:0:
192,192,78097,1,0,0:0:0:0:
448,192,78097,1,0,0:0:0:0:
64,192,78097,1,0,0:0:0:0:
192,192,78204,1,0,0:0:0:0:
64,192,78311,1,0,0:0:0:0:
320,192,78311,1,0,0:0:0:0:
448,192,78311,1,0,0:0:0:0:
448,192,78419,1,0,0:0:0:0:
192,192,78419,1,0,0:0:0:0:
64,192,78419,1,0,0:0:0:0:
64,192,78526,1,0,0:0:0:0:
192,192,78526,1,0,0:0:0:0:
320,192,78526,1,0,0:0:0:0:
448,192,78633,1,0,0:0:0:0:
320,192,78633,1,0,0:0:0:0:
192,192,78633,1,0,0:0:0:0:
448,192,78740,1,0,0:0:0:0:
64,192,78740,1,0,0:0:0:0:
320,192,78740,1,0,0:0:0:0:
448,192,78847,1,0,0:0:0:0:
64,192,78847,1,0,0:0:0:0:
192,192,78847,1,0,0:0:0:0:
192,192,78954,1,0,0:0:0:0:
320,192,78954,1,0,0:0:0:0:
64,192,78954,1,0,0:0:0:0:
320,192,79061,1,0,0:0:0:0:
448,192,79061,1,0,0:0:0:0:
192,192,79061,1,0,0:0:0:0:
192,192,79169,1,0,0:0:0:0:
320,192,79169,1,0,0:0:0:0:
64,192,79169,1,0,0:0:0:0:
192,192,79276,1,0,0:0:0:0:
64,192,79276,1,0,0:0:0:0:
448,192,79276,1,0,0:0:0:0:
64,192,79383,1,0,0:0:0:0:
320,192,79383,1,0,0:0:0:0:
448,192,79383,1,0,0:0:0:0:
320,192,79490,1,0,0:0:0:0:
192,192,79490,1,0,0:0:0:0:
448,192,79490,1,0,0:0:0:0:
64,192,79597,1,0,0:0:0:0:
320,192,79597,1,0,0:0:0:0:
448,192,79597,1,0,0:0:0:0:
192,192,79704,1,0,0:0:0:0:
64,192,79704,1,0,0:0:0:0:
448,192,79704,1,0,0:0:0:0:
64,192,79811,1,0,0:0:0:0:
192,192,79811,1,0,0:0:0:0:
320,192,79811,1,0,0:0:0:0:
192,192,79919,1,0,0:0:0:0:
64,192,80026,1,0,0:0:0:0:
320,192,80026,1,0,0:0:0:0:
448,192,80026,1,0,0:0:0:0:
448,192,80133,1,0,0:0:0:0:
192,192,80133,1,0,0:0:0:0:
64,192,80133,1,0,0:0:0:0:
64,192,80240,1,0,0:0:0:0:
192,192,80240,1,0,0:0:0:0:
320,192,80240,1,0,0:0:0:0:
192,192,80347,1,0,0:0:0:0:
64,192,80347,1,0,0:0:0:0:
448,192,80347,1,0,0:0:0:0:
64,192,80454,1,0,0:0:0:0:
320,192,80454,1,0,0:0:0:0:
448,192,80454,1,0,0:0:0:0:
448,192,80561,1,0,0:0:0:0:
192,192,80561,1,0,0:0:0:0:
320,192,80561,1,0,0:0:0:0:
448,192,80669,1,0,0:0:0:0:
320,192,80669,1,0,0:0:0:0:
64,192,80669,1,0,0:0:0:0:
64,192,80776,1,0,0:0:0:0:
192,192,80883,1,0,0:0:0:0:
320,192,80883,1,0,0:0:0:0:
448,192,80883,1,0,0:0:0:0:
448,192,80990,1,0,0:0:0:0:
320,192,80990,1,0,0:0:0:0:
64,192,80990,1,0,0:0:0:0:
192,192,81097,1,0,0:0:0:0:
448,192,81097,1,0,0:0:0:0:
320,192,81097,1,0,0:0:0:0:
192,192,81204,1,0,0:0:0:0:
64,192,81311,1,0,0:0:0:0:
320,192,81311,1,0,0:0:0:0:
448,192,81311,1,0,0:0:0:0:
192,192,81419,1,0,0:0:0:0:
448,192,81419,1,0,0:0:0:0:
320,192,81419,1,0,0:0:0:0:
64,192,81526,1,0,0:0:0:0:
192,192,81526,1,0,0:0:0:0:
448,192,81526,1,0,0:0:0:0:
64,192,81633,1,0,0:0:0:0:
320,192,81633,1,0,0:0:0:0:
192,192,81633,1,0,0:0:0:0:
192,192,81740,1,0,0:0:0:0:
448,192,81740,1,0,0:0:0:0:
64,192,81740,1,0,0:0:0:0:
448,192,81847,1,0,0:0:0:0:
192,192,81847,1,0,0:0:0:0:
320,192,81847,1,0,0:0:0:0:
64,192,81954,1,0,0:0:0:0:
320,192,81954,1,0,0:0:0:0:
448,192,81954,1,0,0:0:0:0:
64,192,82061,1,0,0:0:0:0:
320,192,82061,1,0,0:0:0:0:
320,192,82169,1,0,0:0:0:0:
448,192,82169,1,0,0:0:0:0:
192,192,82169,1,0,0:0:0:0:
64,192,82276,1,0,0:0:0:0:
448,192,82276,1,0,0:0:0:0:
192,192,82276,1,0,0:0:0:0:
448,192,82383,1,0,0:0:0:0:
320,192,82383,1,0,0:0:0:0:
192,192,82383,1,0,0:0:0:0:
320,192,82490,1,0,0:0:0:0:
192,192,82490,1,0,0:0:0:0:
64,192,82490,1,0,0:0:0:0:
64,192,82597,1,0,0:0:0:0:
320,192,82597,1,0,0:0:0:0:
448,192,82597,1,0,0:0:0:0:
64,192,82704,1,0,0:0:0:0:
192,192,82704,1,0,0:0:0:0:
320,192,82811,1,0,0:0:0:0:
448,192,82811,1,0,0:0:0:0:
192,192,82811,1,0,0:0:0:0:
320,192,82919,1,0,0:0:0:0:
448,192,82919,1,0,0:0:0:0:
64,192,82919,1,0,0:0:0:0:
192,192,83026,1,0,0:0:0:0:
448,192,83026,1,0,0:0:0:0:
64,192,83026,1,0,0:0:0:0:
320,192,83133,1,0,0:0:0:0:
192,192,83133,1,0,0:0:0:0:
64,192,83133,1,0,0:0:0:0:
192,192,83240,1,0,0:0:0:0:
320,192,83240,1,0,0:0:0:0:
448,192,83240,1,0,0:0:0:0:
64,192,83347,1,0,0:0:0:0:
448,192,83347,1,0,0:0:0:0:
64,192,83454,1,0,0:0:0:0:
192,192,83454,1,0,0:0:0:0:
320,192,83454,1,0,0:0:0:0:
192,192,83561,1,0,0:0:0:0:
448,192,83561,1,0,0:0:0:0:
448,192,83669,1,0,0:0:0:0:
64,192,83669,1,0,0:0:0:0:
192,192,83669,1,0,0:0:0:0:
448,192,83776,1,0,0:0:0:0:
320,192,83776,1,0,0:0:0:0:
64,192,83776,1,0,0:0:0:0:
320,192,83883,1,0,0:0:0:0:
192,192,83883,1,0,0:0:0:0:
448,192,83883,1,0,0:0:0:0:
448,192,83990,1,0,0:0:0:0:
192,192,83990,1,0,0:0:0:0:
64,192,83990,1,0,0:0:0:0:
192,192,84097,1,0,0:0:0:0:
64,192,84097,1,0,0:0:0:0:
320,192,84097,1,0,0:0:0:0:
320,192,84204,1,0,0:0:0:0:
448,192,84204,1,0,0:0:0:0:
320,192,84311,1,0,0:0:0:0:
192,192,84311,1,0,0:0:0:0:
64,192,84311,1,0,0:0:0:0:
192,192,84419,1,0,0:0:0:0:
64,192,84419,1,0,0:0:0:0:
448,192,84419,1,0,0:0:0:0:
320,192,84526,1,0,0:0:0:0:
448,192,84526,1,0,0:0:0:0:
64,192,84526,1,0,0:0:0:0:
448,192,84633,1,0,0:0:0:0:
192,192,84633,1,0,0:0:0:0:
320,192,84633,1,0,0:0:0:0:
320,192,84740,1,0,0:0:0:0:
192,192,84740,1,0,0:0:0:0:
64,192,84740,1,0,0:0:0:0:
192,192,84847,1,0,0:0:0:0:
448,192,84847,1,0,0:0:0:0:
320,192,84847,1,0,0:0:0:0:
320,192,84954,1,0,0:0:0:0:
64,192,84954,1,0,0:0:0:0:
448,192,84954,1,0,0:0:0:0:
320,192,85061,1,0,0:0:0:0:
192,192,85061,1,0,0:0:0:0:
448,192,85169,1,0,0:0:0:0:
192,192,85169,1,0,0:0:0:0:
64,192,85169,1,0,0:0:0:0:
192,192,85276,1,0,0:0:0:0:
320,192,85276,1,0,0:0:0:0:
64,192,85383,1,0,0:0:0:0:
448,192,85383,1,0,0:0:0:0:
320,192,85383,1,0,0:0:0:0:
64,192,85490,1,0,0:0:0:0:
448,192,85597,1,0,0:0:0:0:
192,192,85597,1,0,0:0:0:0:
320,192,85597,1,0,0:0:0:0:
64,192,85704,1,0,0:0:0:0:
448,192,85704,1,0,0:0:0:0:
320,192,85704,1,0,0:0:0:0:
192,192,85811,1,0,0:0:0:0:
64,192,85811,1,0,0:0:0:0:
448,192,85811,1,0,0:0:0:0:
192,192,85919,1,0,0:0:0:0:
320,192,85919,1,0,0:0:0:0:
64,192,85919,1,0,0:0:0:0:
320,192,86026,1,0,0:0:0:0:
192,192,86026,1,0,0:0:0:0:
448,192,86026,1,0,0:0:0:0:
64,192,86133,1,0,0:0:0:0:
448,192,86133,1,0,0:0:0:0:
320,192,86240,1,0,0:0:0:0:
192,192,86240,1,0,0:0:0:0:
64,192,86240,1,0,0:0:0:0:
192,192,86347,1,0,0:0:0:0:
64,192,86347,1,0,0:0:0:0:
448,192,86347,1,0,0:0:0:0:
448,192,86454,1,0,0:0:0:0:
320,192,86454,1,0,0:0:0:0:
64,192,86454,1,0,0:0:0:0:
192,192,86561,1,0,0:0:0:0:
448,192,86561,1,0,0:0:0:0:
320,192,86561,1,0,0:0:0:0:
320,192,86669,1,0,0:0:0:0:
192,192,86669,1,0,0:0:0:0:
64,192,86669,1,0,0:0:0:0:
320,192,86776,1,0,0:0:0:0:
448,192,86883,1,0,0:0:0:0:
192,192,86883,1,0,0:0:0:0:
64,192,86883,1,0,0:0:0:0:
192,192,86990,1,0,0:0:0:0:
320,192,86990,1,0,0:0:0:0:
448,192,87097,1,0,0:0:0:0:
320,192,87097,1,0,0:0:0:0:
64,192,87097,1,0,0:0:0:0:
320,192,87204,1,0,0:0:0:0:
448,192,87311,1,0,0:0:0:0:
192,192,87311,1,0,0:0:0:0:
64,192,87311,1,0,0:0:0:0:
64,192,87419,1,0,0:0:0:0:
320,192,87419,1,0,0:0:0:0:
448,192,87419,1,0,0:0:0:0:
192,192,87526,1,0,0:0:0:0:
320,192,87526,1,0,0:0:0:0:
448,192,87526,1,0,0:0:0:0:
320,192,87633,1,0,0:0:0:0:
448,192,87740,1,0,0:0:0:0:
192,192,87740,1,0,0:0:0:0:
64,192,87740,1,0,0:0:0:0:
64,192,87847,1,0,0:0:0:0:
192,192,87847,1,0,0:0:0:0:
320,192,87847,1,0,0:0:0:0:
448,192,87954,1,0,0:0:0:0:
320,192,87954,1,0,0:0:0:0:
192,192,87954,1,0,0:0:0:0:
320,192,88061,1,0,0:0:0:0:
448,192,88169,1,0,0:0:0:0:
192,192,88169,1,0,0:0:0:0:
64,192,88169,1,0,0:0:0:0:
320,192,88276,1,0,0:0:0:0:
64,192,88276,1,0,0:0:0:0:
448,192,88383,1,0,0:0:0:0:
320,192,88383,1,0,0:0:0:0:
192,192,88383,1,0,0:0:0:0:
448,192,88490,1,0,0:0:0:0:
192,192,88490,1,0,0:0:0:0:
320,192,88597,1,0,0:0:0:0:
64,192,88597,1,0,0:0:0:0:
448,192,88597,1,0,0:0:0:0:
64,192,88704,1,0,0:0:0:0:
320,192,88704,1,0,0:0:0:0:
448,192,88811,1,0,0:0:0:0:
192,192,88811,1,0,0:0:0:0:
64,192,88811,1,0,0:0:0:0:
448,192,88919,1,0,0:0:0:0:
320,192,88919,1,0,0:0:0:0:
64,192,88919,1,0,0:0:0:0:
192,192,89026,1,0,0:0:0:0:
448,192,89026,1,0,0:0:0:0:
320,192,89026,1,0,0:0:0:0:
448,192,89133,1,0,0:0:0:0:
64,192,89133,1,0,0:0:0:0:
320,192,89133,1,0,0:0:0:0:
448,192,89240,1,0,0:0:0:0:
64,192,89240,1,0,0:0:0:0:
192,192,89240,1,0,0:0:0:0:
192,192,89347,1,0,0:0:0:0:
448,192,89454,1,0,0:0:0:0:
320,192,89454,1,0,0:0:0:0:
64,192,89454,1,0,0:0:0:0:
320,192,89561,1,0,0:0:0:0:
192,192,89669,1,0,0:0:0:0:
448,192,89669,1,0,0:0:0:0:
64,192,89669,1,0,0:0:0:0:
448,192,89776,1,0,0:0:0:0:
192,192,89883,1,0,0:0:0:0:
320,192,89883,1,0,0:0:0:0:
64,192,89883,1,0,0:0:0:0:
64,192,89990,1,0,0:0:0:0:
320,192,89990,1,0,0:0:0:0:
448,192,90097,128,0,90311:0:0:0:0:
64,192,90097,128,0,90311:0:0:0:0:
320,192,90311,128,0,90526:0:0:0:0:
192,192,90311,128,0,90526:0:0:0:0:
448,192,90526,1,0,0:0:0:0:
64,192,90526,1,0,0:0:0:0:
448,192,90633,1,0,0:0:0:0:
320,192,90740,1,0,0:0:0:0:
192,192,90740,1,0,0:0:0:0:
64,192,90740,1,0,0:0:0:0:
448,192,90847,1,0,0:0:0:0:
192,192,90847,1,0,0:0:0:0:
448,192,90954,1,0,0:0:0:0:
192,192,90954,1,0,0:0:0:0:
64,192,90954,1,0,0:0:0:0:
320,192,90954,1,0,0:0:0:0:
320,192,91061,1,0,0:0:0:0:
320,192,91169,1,0,0:0:0:0:
192,192,91169,1,0,0:0:0:0:
64,192,91169,1,0,0:0:0:0:
192,192,91276,1,0,0:0:0:0:
64,192,91276,1,0,0:0:0:0:
320,192,91383,1,0,0:0:0:0:
448,192,91383,1,0,0:0:0:0:
192,192,91383,1,0,0:0:0:0:
64,192,91383,1,0,0:0:0:0:
448,192,91490,1,0,0:0:0:0:
320,192,91597,1,0,0:0:0:0:
192,192,91597,1,0,0:0:0:0:
64,192,91597,1,0,0:0:0:0:
192,192,91704,1,0,0:0:0:0:
448,192,91704,1,0,0:0:0:0:
320,192,91811,1,0,0:0:0:0:
192,192,91811,1,0,0:0:0:0:
64,192,91811,1,0,0:0:0:0:
448,192,91811,1,0,0:0:0:0:
320,192,91919,1,0,0:0:0:0:
448,192,92026,1,0,0:0:0:0:
192,192,92026,1,0,0:0:0:0:
64,192,92026,1,0,0:0:0:0:
192,192,92133,1,0,0:0:0:0:
64,192,92240,1,0,0:0:0:0:
448,192,92240,1,0,0:0:0:0:
320,192,92240,1,0,0:0:0:0:
192,192,92240,1,0,0:0:0:0:
64,192,92347,1,0,0:0:0:0:
448,192,92454,1,0,0:0:0:0:
192,192,92454,1,0,0:0:0:0:
320,192,92454,1,0,0:0:0:0:
64,192,92561,1,0,0:0:0:0:
448,192,92561,1,0,0:0:0:0:
320,192,92669,1,0,0:0:0:0:
192,192,92669,1,0,0:0:0:0:
64,192,92669,1,0,0:0:0:0:
448,192,92669,1,0,0:0:0:0:
192,192,92776,1,0,0:0:0:0:
320,192,92883,1,0,0:0:0:0:
192,192,92883,1,0,0:0:0:0:
448,192,92883,1,0,0:0:0:0:
320,192,92990,1,0,0:0:0:0:
448,192,92990,1,0,0:0:0:0:
448,192,93097,1,0,0:0:0:0:
320,192,93097,1,0,0:0:0:0:
192,192,93097,1,0,0:0:0:0:
64,192,93097,1,0,0:0:0:0:
192,192,93204,1,0,0:0:0:0:
448,192,93311,1,0,0:0:0:0:
320,192,93311,1,0,0:0:0:0:
64,192,93311,1,0,0:0:0:0:
192,192,93419,1,0,0:0:0:0:
448,192,93419,1,0,0:0:0:0:
448,192,93526,1,0,0:0:0:0:
320,192,93526,1,0,0:0:0:0:
192,192,93526,1,0,0:0:0:0:
64,192,93526,1,0,0:0:0:0:
320,192,93633,1,0,0:0:0:0:
448,192,93740,1,0,0:0:0:0:
192,192,93740,1,0,0:0:0:0:
64,192,93740,1,0,0:0:0:0:
192,192,93847,1,0,0:0:0:0:
448,192,93954,1,0,0:0:0:0:
320,192,93954,1,0,0:0:0:0:
64,192,93954,1,0,0:0:0:0:
192,192,93954,1,0,0:0:0:0:
320,192,94061,1,0,0:0:0:0:
448,192,94169,1,0,0:0:0:0:
192,192,94169,1,0,0:0:0:0:
64,192,94169,1,0,0:0:0:0:
64,192,94276,1,0,0:0:0:0:
320,192,94276,1,0,0:0:0:0:
64,192,94383,1,0,0:0:0:0:
192,192,94383,1,0,0:0:0:0:
320,192,94383,1,0,0:0:0:0:
448,192,94383,1,0,0:0:0:0:
320,192,94490,1,0,0:0:0:0:
448,192,94597,1,0,0:0:0:0:
192,192,94597,1,0,0:0:0:0:
64,192,94597,1,0,0:0:0:0:
64,192,94704,1,0,0:0:0:0:
192,192,94704,1,0,0:0:0:0:
448,192,94811,1,0,0:0:0:0:
320,192,94811,1,0,0:0:0:0:
64,192,94811,1,0,0:0:0:0:
192,192,94811,1,0,0:0:0:0:
320,192,94919,1,0,0:0:0:0:
448,192,95026,1,0,0:0:0:0:
192,192,95026,1,0,0:0:0:0:
64,192,95026,1,0,0:0:0:0:
320,192,95133,1,0,0:0:0:0:
64,192,95133,1,0,0:0:0:0:
448,192,95240,1,0,0:0:0:0:
320,192,95240,1,0,0:0:0:0:
64,192,95240,1,0,0:0:0:0:
192,192,95240,1,0,0:0:0:0:
448,192,95347,1,0,0:0:0:0:
192,192,95347,1,0,0:0:0:0:
320,192,95454,1,0,0:0:0:0:
64,192,95454,1,0,0:0:0:0:
448,192,95454,1,0,0:0:0:0:
64,192,95561,1,0,0:0:0:0:
320,192,95561,1,0,0:0:0:0:
448,192,95669,1,0,0:0:0:0:
320,192,95669,1,0,0:0:0:0:
192,192,95669,1,0,0:0:0:0:
64,192,95669,1,0,0:0:0:0:
448,192,95776,1,0,0:0:0:0:
192,192,95776,1,0,0:0:0:0:
192,192,95883,1,0,0:0:0:0:
64,192,95883,1,0,0:0:0:0:
320,192,95883,1,0,0:0:0:0:
448,192,95990,1,0,0:0:0:0:
64,192,95990,1,0,0:0:0:0:
448,192,96097,1,0,0:0:0:0:
64,192,96097,1,0,0:0:0:0:
192,192,96097,1,0,0:0:0:0:
320,192,96097,1,0,0:0:0:0:
192,192,96204,1,0,0:0:0:0:
320,192,96204,1,0,0:0:0:0:
448,192,96311,1,0,0:0:0:0:
192,192,96311,1,0,0:0:0:0:
64,192,96311,1,0,0:0:0:0:
448,192,96419,1,0,0:0:0:0:
320,192,96419,1,0,0:0:0:0:
192,192,96526,1,0,0:0:0:0:
64,192,96526,1,0,0:0:0:0:
192,192,96633,1,0,0:0:0:0:
64,192,96633,1,0,0:0:0:0:
192,192,96740,1,0,0:0:0:0:
64,192,96740,1,0,0:0:0:0:
192,192,96847,1,0,0:0:0:0:
64,192,96847,1,0,0:0:0:0:
448,192,96954,1,0,0:0:0:0:
320,192,96954,1,0,0:0:0:0:
448,192,97061,1,0,0:0:0:0:
320,192,97061,1,0,0:0:0:0:
448,192,97169,1,0,0:0:0:0:
320,192,97169,1,0,0:0:0:0:
448,192,97276,1,0,0:0:0:0:
320,192,97276,1,0,0:0:0:0:
64,192,97383,1,0,0:0:0:0:
448,192,97383,1,0,0:0:0:0:
192,192,97383,1,0,0:0:0:0:
320,192,97383,1,0,0:0:0:0:
64,192,97490,1,0,0:0:0:0:
192,192,97597,1,0,0:0:0:0:
320,192,97597,1,0,0:0:0:0:
448,192,97597,1,0,0:0:0:0:
64,192,97704,1,0,0:0:0:0:
320,192,97704,1,0,0:0:0:0:
64,192,97811,1,0,0:0:0:0:
320,192,97811,1,0,0:0:0:0:
448,192,97811,1,0,0:0:0:0:
192,192,97811,1,0,0:0:0:0:
192,192,97919,1,0,0:0:0:0:
192,192,98026,1,0,0:0:0:0:
320,192,98026,1,0,0:0:0:0:
448,192,98026,1,0,0:0:0:0:
320,192,98133,1,0,0:0:0:0:
448,192,98133,1,0,0:0:0:0:
192,192,98240,1,0,0:0:0:0:
64,192,98240,1,0,0:0:0:0:
320,192,98240,1,0,0:0:0:0:
448,192,98240,1,0,0:0:0:0:
64,192,98347,1,0,0:0:0:0:
192,192,98454,1,0,0:0:0:0:
320,192,98454,1,0,0:0:0:0:
448,192,98454,1,0,0:0:0:0:
320,192,98561,1,0,0:0:0:0:
64,192,98561,1,0,0:0:0:0:
192,192,98669,1,0,0:0:0:0:
320,192,98669,1,0,0:0:0:0:
448,192,98669,1,0,0:0:0:0:
64,192,98669,1,0,0:0:0:0:
192,192,98776,1,0,0:0:0:0:
64,192,98883,1,0,0:0:0:0:
320,192,98883,1,0,0:0:0:0:
448,192,98883,1,0,0:0:0:0:
320,192,98990,1,0,0:0:0:0:
448,192,99097,1,0,0:0:0:0:
64,192,99097,1,0,0:0:0:0:
192,192,99097,1,0,0:0:0:0:
320,192,99097,1,0,0:0:0:0:
448,192,99204,1,0,0:0:0:0:
64,192,99311,1,0,0:0:0:0:
320,192,99311,1,0,0:0:0:0:
192,192,99311,1,0,0:0:0:0:
448,192,99419,1,0,0:0:0:0:
64,192,99419,1,0,0:0:0:0:
192,192,99526,1,0,0:0:0:0:
320,192,99526,1,0,0:0:0:0:
448,192,99526,1,0,0:0:0:0:
64,192,99526,1,0,0:0:0:0:
320,192,99633,1,0,0:0:0:0:
192,192,99740,1,0,0:0:0:0:
320,192,99740,1,0,0:0:0:0:
64,192,99740,1,0,0:0:0:0:
192,192,99847,1,0,0:0:0:0:
64,192,99847,1,0,0:0:0:0:
64,192,99954,1,0,0:0:0:0:
192,192,99954,1,0,0:0:0:0:
320,192,99954,1,0,0:0:0:0:
448,192,99954,1,0,0:0:0:0:
320,192,100061,1,0,0:0:0:0:
64,192,100169,1,0,0:0:0:0:
192,192,100169,1,0,0:0:0:0:
448,192,100169,1,0,0:0:0:0:
320,192,100276,1,0,0:0:0:0:
64,192,100276,1,0,0:0:0:0:
64,192,100383,1,0,0:0:0:0:
192,192,100383,1,0,0:0:0:0:
320,192,100383,1,0,0:0:0:0:
448,192,100383,1,0,0:0:0:0:
192,192,100490,1,0,0:0:0:0:
64,192,100597,1,0,0:0:0:0:
320,192,100597,1,0,0:0:0:0:
448,192,100597,1,0,0:0:0:0:
320,192,100704,1,0,0:0:0:0:
64,192,100811,1,0,0:0:0:0:
192,192,100811,1,0,0:0:0:0:
448,192,100811,1,0,0:0:0:0:
320,192,100811,1,0,0:0:0:0:
192,192,100919,1,0,0:0:0:0:
64,192,101026,1,0,0:0:0:0:
320,192,101026,1,0,0:0:0:0:
448,192,101026,1,0,0:0:0:0:
448,192,101133,1,0,0:0:0:0:
192,192,101133,1,0,0:0:0:0:
448,192,101240,1,0,0:0:0:0:
320,192,101240,1,0,0:0:0:0:
192,192,101240,1,0,0:0:0:0:
64,192,101240,1,0,0:0:0:0:
192,192,101347,1,0,0:0:0:0:
64,192,101454,1,0,0:0:0:0:
320,192,101454,1,0,0:0:0:0:
448,192,101454,1,0,0:0:0:0:
448,192,101561,1,0,0:0:0:0:
320,192,101561,1,0,0:0:0:0:
64,192,101669,1,0,0:0:0:0:
192,192,101669,1,0,0:0:0:0:
448,192,101669,1,0,0:0:0:0:
320,192,101669,1,0,0:0:0:0:
192,192,101776,1,0,0:0:0:0:
64,192,101883,1,0,0:0:0:0:
320,192,101883,1,0,0:0:0:0:
448,192,101883,1,0,0:0:0:0:
192,192,101990,1,0,0:0:0:0:
448,192,101990,1,0,0:0:0:0:
64,192,102097,1,0,0:0:0:0:
192,192,102097,1,0,0:0:0:0:
448,192,102097,1,0,0:0:0:0:
320,192,102097,1,0,0:0:0:0:
64,192,102204,1,0,0:0:0:0:
320,192,102204,1,0,0:0:0:0:
192,192,102311,1,0,0:0:0:0:
448,192,102311,1,0,0:0:0:0:
64,192,102311,1,0,0:0:0:0:
448,192,102419,1,0,0:0:0:0:
192,192,102419,1,0,0:0:0:0:
64,192,102526,1,0,0:0:0:0:
192,192,102526,1,0,0:0:0:0:
320,192,102526,1,0,0:0:0:0:
448,192,102526,1,0,0:0:0:0:
64,192,102633,1,0,0:0:0:0:
320,192,102633,1,0,0:0:0:0:
320,192,102740,1,0,0:0:0:0:
448,192,102740,1,0,0:0:0:0:
192,192,102740,1,0,0:0:0:0:
64,192,102847,1,0,0:0:0:0:
448,192,102847,1,0,0:0:0:0:
64,192,102954,1,0,0:0:0:0:
448,192,102954,1,0,0:0:0:0:
320,192,102954,1,0,0:0:0:0:
192,192,102954,1,0,0:0:0:0:
320,192,103061,1,0,0:0:0:0:
192,192,103061,1,0,0:0:0:0:
64,192,103169,1,0,0:0:0:0:
320,192,103169,1,0,0:0:0:0:
448,192,103169,1,0,0:0:0:0:
64,192,103276,1,0,0:0:0:0:
320,192,103383,1,0,0:0:0:0:
192,192,103383,1,0,0:0:0:0:
448,192,103490,1,0,0:0:0:0:
64,192,103490,1,0,0:0:0:0:
320,192,103597,1,0,0:0:0:0:
192,192,103597,1,0,0:0:0:0:
448,192,103704,1,0,0:0:0:0:
64,192,103704,1,0,0:0:0:0:
320,192,103811,128,0,104026:0:0:0:0:
192,192,103811,128,0,104026:0:0:0:0:
64,192,104026,128,0,104240:0:0:0:0:
448,192,104026,128,0,104240:0:0:0:0:
192,192,104240,1,0,0:0:0:0:
320,192,104240,1,0,0:0:0:0:
448,192,104276,1,0,0:0:0:0:
64,192,104311,1,0,0:0:0:0:
192,192,104347,1,0,0:0:0:0:
320,192,104383,1,0,0:0:0:0:
448,192,104419,1,0,0:0:0:0:
320,192,104454,1,0,0:0:0:0:
192,192,104490,1,0,0:0:0:0:
64,192,104526,1,0,0:0:0:0:
448,192,104561,1,0,0:0:0:0:
320,192,104561,1,0,0:0:0:0:
192,192,104597,1,0,0:0:0:0:
64,192,104633,1,0,0:0:0:0:
320,192,104669,1,0,0:0:0:0:
448,192,104704,1,0,0:0:0:0:
192,192,104740,1,0,0:0:0:0:
64,192,104776,1,0,0:0:0:0:
448,192,104811,1,0,0:0:0:0:
320,192,104847,1,0,0:0:0:0:
192,192,104883,1,0,0:0:0:0:
64,192,104883,1,0,0:0:0:0:
448,192,104919,1,0,0:0:0:0:
320,192,104954,1,0,0:0:0:0:
192,192,104990,1,0,0:0:0:0:
448,192,105026,1,0,0:0:0:0:
64,192,105061,1,0,0:0:0:0:
192,192,105097,1,0,0:0:0:0:
320,192,105097,1,0,0:0:0:0:
448,192,105133,1,0,0:0:0:0:
64,192,105169,1,0,0:0:0:0:
192,192,105204,1,0,0:0:0:0:
320,192,105240,1,0,0:0:0:0:
448,192,105276,1,0,0:0:0:0:
64,192,105311,1,0,0:0:0:0:
192,192,105347,1,0,0:0:0:0:
320,192,105383,1,0,0:0:0:0:
448,192,105419,1,0,0:0:0:0:
320,192,105454,1,0,0:0:0:0:
192,192,105490,1,0,0:0:0:0:
64,192,105526,1,0,0:0:0:0:
448,192,105526,1,0,0:0:0:0:
320,192,105561,1,0,0:0:0:0:
192,192,105597,1,0,0:0:0:0:
64,192,105633,1,0,0:0:0:0:
192,192,105669,1,0,0:0:0:0:
320,192,105704,1,0,0:0:0:0:
448,192,105740,1,0,0:0:0:0:
64,192,105776,1,0,0:0:0:0:
192,192,105811,1,0,0:0:0:0:
320,192,105847,1,0,0:0:0:0:
448,192,105883,1,0,0:0:0:0:
320,192,105919,1,0,0:0:0:0:
64,192,105954,1,0,0:0:0:0:
192,192,105954,1,0,0:0:0:0:
448,192,105990,1,0,0:0:0:0:
320,192,106026,1,0,0:0:0:0:
192,192,106061,1,0,0:0:0:0:
64,192,106097,1,0,0:0:0:0:
192,192,106133,1,0,0:0:0:0:
320,192,106169,1,0,0:0:0:0:
448,192,106204,1,0,0:0:0:0:
64,192,106240,1,0,0:0:0:0:
192,192,106276,1,0,0:0:0:0:
448,192,106276,1,0,0:0:0:0:
320,192,106311,1,0,0:0:0:0:
192,192,106347,1,0,0:0:0:0:
64,192,106383,1,0,0:0:0:0:
320,192,106419,1,0,0:0:0:0:
448,192,106454,1,0,0:0:0:0:
64,192,106490,1,0,0:0:0:0:
192,192,106526,1,0,0:0:0:0:
320,192,106561,1,0,0:0:0:0:
448,192,106597,1,0,0:0:0:0:
64,192,106597,1,0,0:0:0:0:
192,192,106633,1,0,0:0:0:0:
320,192,106669,1,0,0:0:0:0:
448,192,106704,1,0,0:0:0:0:
192,192,106740,1,0,0:0:0:0:
320,192,106776,1,0,0:0:0:0:
448,192,106811,1,0,0:0:0:0:
64,192,106811,1,0,0:0:0:0:
64,192,106919,1,0,0:0:0:0:
192,192,107026,1,0,0:0:0:0:
320,192,107026,1,0,0:0:0:0:
320,192,107133,1,0,0:0:0:0:
448,192,107133,1,0,0:0:0:0:
64,192,107240,1,0,0:0:0:0:
192,192,107240,1,0,0:0:0:0:
448,192,107240,1,0,0:0:0:0:
192,192,107347,1,0,0:0:0:0:
64,192,107454,1,0,0:0:0:0:
320,192,107454,1,0,0:0:0:0:
64,192,107561,1,0,0:0:0:0:
192,192,107669,1,0,0:0:0:0:
320,192,107669,1,0,0:0:0:0:
448,192,107704,1,0,0:0:0:0:
64,192,107740,1,0,0:0:0:0:
192,192,107776,1,0,0:0:0:0:
320,192,107811,1,0,0:0:0:0:
448,192,107847,1,0,0:0:0:0:
320,192,107883,1,0,0:0:0:0:
192,192,107919,1,0,0:0:0:0:
64,192,107954,1,0,0:0:0:0:
448,192,107990,1,0,0:0:0:0:
320,192,107990,1,0,0:0:0:0:
192,192,108026,1,0,0:0:0:0:
64,192,108061,1,0,0:0:0:0:
320,192,108097,1,0,0:0:0:0:
448,192,108133,1,0,0:0:0:0:
192,192,108169,1,0,0:0:0:0:
64,192,108204,1,0,0:0:0:0:
448,192,108240,1,0,0:0:0:0:
320,192,108276,1,0,0:0:0:0:
192,192,108311,1,0,0:0:0:0:
64,192,108311,1,0,0:0:0:0:
448,192,108347,1,0,0:0:0:0:
320,192,108383,1,0,0:0:0:0:
192,192,108419,1,0,0:0:0:0:
448,192,108454,1,0,0:0:0:0:
64,192,108490,1,0,0:0:0:0:
192,192,108526,1,0,0:0:0:0:
320,192,108526,1,0,0:0:0:0:
448,192,108561,1,0,0:0:0:0:
64,192,108597,1,0,0:0:0:0:
192,192,108633,1,0,0:0:0:0:
320,192,108669,1,0,0:0:0:0:
448,192,108704,1,0,0:0:0:0:
64,192,108740,1,0,0:0:0:0:
192,192,108776,1,0,0:0:0:0:
320,192,108811,1,0,0:0:0:0:
448,192,108847,1,0,0:0:0:0:
320,192,108883,1,0,0:0:0:0:
192,192,108919,1,0,0:0:0:0:
64,192,108954,1,0,0:0:0:0:
448,192,108954,1,0,0:0:0:0:
320,192,108990,1,0,0:0:0:0:
192,192,109026,1,0,0:0:0:0:
64,192,109061,1,0,0:0:0:0:
192,192,109097,1,0,0:0:0:0:
320,192,109133,1,0,0:0:0:0:
448,192,109169,1,0,0:0:0:0:
64,192,109204,1,0,0:0:0:0:
192,192,109240,1,0,0:0:0:0:
320,192,109276,1,0,0:0:0:0:
448,192,109311,1,0,0:0:0:0:
320,192,109347,1,0,0:0:0:0:
64,192,109383,1,0,0:0:0:0:
192,192,109383,1,0,0:0:0:0:
448,192,109419,1,0,0:0:0:0:
320,192,109454,1,0,0:0:0:0:
192,192,109490,1,0,0:0:0:0:
64,192,109526,1,0,0:0:0:0:
192,192,109561,1,0,0:0:0:0:
320,192,109597,1,0,0:0:0:0:
448,192,109633,1,0,0:0:0:0:
64,192,109669,1,0,0:0:0:0:
192,192,109704,1,0,0:0:0:0:
448,192,109704,1,0,0:0:0:0:
320,192,109740,1,0,0:0:0:0:
192,192,109776,1,0,0:0:0:0:
64,192,109811,1,0,0:0:0:0:
320,192,109847,1,0,0:0:0:0:
448,192,109883,1,0,0:0:0:0:
64,192,109919,1,0,0:0:0:0:
192,192,109954,1,0,0:0:0:0:
320,192,109990,1,0,0:0:0:0:
448,192,110026,1,0,0:0:0:0:
64,192,110026,1,0,0:0:0:0:
192,192,110061,1,0,0:0:0:0:
320,192,110097,1,0,0:0:0:0:
448,192,110133,1,0,0:0:0:0:
192,192,110169,1,0,0:0:0:0:
64,192,110204,1,0,0:0:0:0:
448,192,110240,1,0,0:0:0:0:
320,192,110240,1,0,0:0:0:0:
320,192,110347,1,0,0:0:0:0:
448,192,110347,1,0,0:0:0:0:
320,192,110454,1,0,0:0:0:0:
448,192,110454,1,0,0:0:0:0:
320,192,110561,1,0,0:0:0:0:
448,192,110561,1,0,0:0:0:0:
192,192,110669,1,0,0:0:0:0:
448,192,110669,1,0,0:0:0:0:
64,192,110669,1,0,0:0:0:0:
192,192,110776,1,0,0:0:0:0:
64,192,110883,1,0,0:0:0:0:
320,192,110883,1,0,0:0:0:0:
448,192,110883,1,0,0:0:0:0:
64,192,110990,1,0,0:0:0:0:
192,192,111097,1,0,0:0:0:0:
320,192,111097,1,0,0:0:0:0:
448,192,111133,1,0,0:0:0:0:
64,192,111169,1,0,0:0:0:0:
192,192,111204,1,0,0:0:0:0:
320,192,111240,1,0,0:0:0:0:
448,192,111276,1,0,0:0:0:0:
320,192,111311,1,0,0:0:0:0:
192,192,111347,1,0,0:0:0:0:
64,192,111383,1,0,0:0:0:0:
448,192,111419,1,0,0:0:0:0:
320,192,111454,1,0,0:0:0:0:
192,192,111490,1,0,0:0:0:0:
64,192,111526,1,0,0:0:0:0:
320,192,111561,1,0,0:0:0:0:
448,192,111597,1,0,0:0:0:0:
192,192,111633,1,0,0:0:0:0:
64,192,111669,1,0,0:0:0:0:
320,192,111704,1,0,0:0:0:0:
192,192,111740,1,0,0:0:0:0:
448,192,111776,1,0,0:0:0:0:
320,192,111811,1,0,0:0:0:0:
192,192,111847,1,0,0:0:0:0:
448,192,111883,1,0,0:0:0:0:
64,192,111919,1,0,0:0:0:0:
192,192,111954,1,0,0:0:0:0:
320,192,111990,1,0,0:0:0:0:
448,192,112026,1,0,0:0:0:0:
64,192,112061,1,0,0:0:0:0:
192,192,112097,1,0,0:0:0:0:
320,192,112133,1,0,0:0:0:0:
192,192,112169,1,0,0:0:0:0:
64,192,112204,1,0,0:0:0:0:
320,192,112240,1,0,0:0:0:0:
448,192,112276,1,0,0:0:0:0:
320,192,112311,1,0,0:0:0:0:
192,192,112347,1,0,0:0:0:0:
64,192,112383,1,0,0:0:0:0:
320,192,112419,1,0,0:0:0:0:
448,192,112454,1,0,0:0:0:0:
64,192,112490,1,0,0:0:0:0:
192,192,112526,1,0,0:0:0:0:
320,192,112561,1,0,0:0:0:0:
448,192,112597,1,0,0:0:0:0:
64,192,112633,1,0,0:0:0:0:
192,192,112669,1,0,0:0:0:0:
320,192,112704,1,0,0:0:0:0:
448,192,112740,1,0,0:0:0:0:
320,192,112776,1,0,0:0:0:0:
64,192,112811,1,0,0:0:0:0:
192,192,112847,1,0,0:0:0:0:
320,192,112883,1,0,0:0:0:0:
448,192,112919,1,0,0:0:0:0:
64,192,112954,1,0,0:0:0:0:
192,192,112990,1,0,0:0:0:0:
320,192,113026,1,0,0:0:0:0:
448,192,113061,1,0,0:0:0:0:
64,192,113097,1,0,0:0:0:0:
192,192,113133,1,0,0:0:0:0:
320,192,113169,1,0,0:0:0:0:
192,192,113204,1,0,0:0:0:0:
64,192,113240,1,0,0:0:0:0:
448,192,113276,1,0,0:0:0:0:
320,192,113311,1,0,0:0:0:0:
64,192,113347,1,0,0:0:0:0:
192,192,113383,1,0,0:0:0:0:
320,192,113419,1,0,0:0:0:0:
64,192,113454,1,0,0:0:0:0:
192,192,113490,1,0,0:0:0:0:
320,192,113526,1,0,0:0:0:0:
448,192,113561,1,0,0:0:0:0:
192,192,113597,1,0,0:0:0:0:
320,192,113633,1,0,0:0:0:0:
448,192,113669,1,0,0:0:0:0:
192,192,113669,1,0,0:0:0:0:
64,192,113669,128,0,113695:0:0:0:0:
64,192,113776,128,0,113802:0:0:0:0:
192,192,113883,128,0,113909:0:0:0:0:
192,192,113990,128,0,114016:0:0:0:0:
320,192,114097,1,0,0:0:0:0:
448,192,114097,128,0,114124:0:0:0:0:
448,192,114204,128,0,114231:0:0:0:0:
320,192,114311,128,0,114338:0:0:0:0:
320,192,114419,128,0,114445:0:0:0:0:
64,192,114526,1,0,0:0:0:0:
320,192,114526,1,0,0:0:0:0:
192,192,114561,1,0,0:0:0:0:
448,192,114597,1,0,0:0:0:0:
320,192,114633,1,0,0:0:0:0:
192,192,114669,1,0,0:0:0:0:
64,192,114704,1,0,0:0:0:0:
320,192,114740,1,0,0:0:0:0:
192,192,114776,1,0,0:0:0:0:
64,192,114811,1,0,0:0:0:0:
448,192,114847,1,0,0:0:0:0:
320,192,114883,1,0,0:0:0:0:
192,192,114919,1,0,0:0:0:0:
64,192,114954,1,0,0:0:0:0:
320,192,114990,1,0,0:0:0:0:
448,192,115026,1,0,0:0:0:0:
192,192,115061,1,0,0:0:0:0:
64,192,115097,1,0,0:0:0:0:
320,192,115133,1,0,0:0:0:0:
192,192,115169,1,0,0:0:0:0:
448,192,115204,1,0,0:0:0:0:
320,192,115240,1,0,0:0:0:0:
192,192,115276,1,0,0:0:0:0:
448,192,115311,1,0,0:0:0:0:
64,192,115347,1,0,0:0:0:0:
192,192,115383,1,0,0:0:0:0:
320,192,115419,1,0,0:0:0:0:
448,192,115454,1,0,0:0:0:0:
64,192,115490,1,0,0:0:0:0:
192,192,115526,1,0,0:0:0:0:
320,192,115561,1,0,0:0:0:0:
192,192,115597,1,0,0:0:0:0:
64,192,115633,1,0,0:0:0:0:
320,192,115669,1,0,0:0:0:0:
448,192,115704,1,0,0:0:0:0:
320,192,115740,1,0,0:0:0:0:
192,192,115776,1,0,0:0:0:0:
64,192,115811,1,0,0:0:0:0:
320,192,115847,1,0,0:0:0:0:
448,192,115883,1,0,0:0:0:0:
64,192,115919,1,0,0:0:0:0:
192,192,115954,1,0,0:0:0:0:
320,192,115990,1,0,0:0:0:0:
448,192,116026,1,0,0:0:0:0:
64,192,116061,1,0,0:0:0:0:
192,192,116097,1,0,0:0:0:0:
320,192,116133,1,0,0:0:0:0:
448,192,116169,1,0,0:0:0:0:
320,192,116204,1,0,0:0:0:0:
64,192,116240,1,0,0:0:0:0:
192,192,116276,1,0,0:0:0:0:
320,192,116311,1,0,0:0:0:0:
448,192,116347,1,0,0:0:0:0:
64,192,116383,1,0,0:0:0:0:
192,192,116419,1,0,0:0:0:0:
320,192,116454,1,0,0:0:0:0:
448,192,116490,1,0,0:0:0:0:
64,192,116526,1,0,0:0:0:0:
192,192,116561,1,0,0:0:0:0:
320,192,116597,1,0,0:0:0:0:
192,192,116633,1,0,0:0:0:0:
64,192,116669,1,0,0:0:0:0:
448,192,116704,1,0,0:0:0:0:
320,192,116740,1,0,0:0:0:0:
64,192,116776,1,0,0:0:0:0:
192,192,116811,1,0,0:0:0:0:
320,192,116847,1,0,0:0:0:0:
64,192,116883,1,0,0:0:0:0:
192,192,116919,1,0,0:0:0:0:
320,192,116954,1,0,0:0:0:0:
448,192,116990,1,0,0:0:0:0:
192,192,117026,1,0,0:0:0:0:
320,192,117061,1,0,0:0:0:0:
64,192,117097,128,0,117954:0:0:0:0:
448,192,117097,128,0,117204:0:0:0:0:
320,192,117204,128,0,117311:0:0:0:0:
192,192,117311,128,0,117419:0:0:0:0:
448,192,117419,128,0,117526:0:0:0:0:
320,192,117526,128,0,117740:0:0:0:0:
448,192,117740,128,0,117954:0:0:0:0:
192,192,117954,1,0,0:0:0:0:
320,192,117954,1,0,0:0:0:0:
320,192,118061,1,0,0:0:0:0:
64,192,118169,1,0,0:0:0:0:
192,192,118169,1,0,0:0:0:0:
192,192,118276,1,0,0:0:0:0:
64,192,118383,1,0,0:0:0:0:
320,192,118383,1,0,0:0:0:0:
448,192,118383,1,0,0:0:0:0:
448,192,118490,1,0,0:0:0:0:
64,192,118597,1,0,0:0:0:0:
192,192,118597,1,0,0:0:0:0:
64,192,118704,1,0,0:0:0:0:
192,192,118811,1,0,0:0:0:0:
320,192,118811,1,0,0:0:0:0:
448,192,118811,1,0,0:0:0:0:
320,192,118919,1,0,0:0:0:0:
192,192,119026,1,0,0:0:0:0:
64,192,119026,1,0,0:0:0:0:
192,192,119133,1,0,0:0:0:0:
320,192,119240,1,0,0:0:0:0:
448,192,119240,1,0,0:0:0:0:
64,192,119240,1,0,0:0:0:0:
320,192,119347,1,0,0:0:0:0:
192,192,119454,1,0,0:0:0:0:
64,192,119454,1,0,0:0:0:0:
448,192,119454,1,0,0:0:0:0:
192,192,119561,1,0,0:0:0:0:
320,192,119669,1,0,0:0:0:0:
448,192,119669,1,0,0:0:0:0:
64,192,119669,1,0,0:0:0:0:
64,192,119776,1,0,0:0:0:0:
192,192,119883,1,0,0:0:0:0:
448,192,119883,1,0,0:0:0:0:
448,192,119990,1,0,0:0:0:0:
64,192,120097,1,0,0:0:0:0:
192,192,120097,1,0,0:0:0:0:
320,192,120097,1,0,0:0:0:0:
192,192,120204,1,0,0:0:0:0:
320,192,120311,1,0,0:0:0:0:
448,192,120311,1,0,0:0:0:0:
320,192,120419,1,0,0:0:0:0:
64,192,120526,1,0,0:0:0:0:
192,192,120526,1,0,0:0:0:0:
448,192,120526,1,0,0:0:0:0:
64,192,120633,1,0,0:0:0:0:
320,192,120740,1,0,0:0:0:0:
192,192,120740,1,0,0:0:0:0:
320,192,120847,1,0,0:0:0:0:
192,192,120954,1,0,0:0:0:0:
64,192,120954,1,0,0:0:0:0:
448,192,120954,1,0,0:0:0:0:
192,192,121061,1,0,0:0:0:0:
320,192,121169,1,0,0:0:0:0:
448,192,121169,1,0,0:0:0:0:
64,192,121169,1,0,0:0:0:0:
448,192,121276,1,0,0:0:0:0:
192,192,121383,1,0,0:0:0:0:
320,192,121383,1,0,0:0:0:0:
64,192,121383,1,0,0:0:0:0:
192,192,121490,1,0,0:0:0:0:
320,192,121597,1,0,0:0:0:0:
448,192,121597,1,0,0:0:0:0:
320,192,121704,1,0,0:0:0:0:
64,192,121811,1,0,0:0:0:0:
192,192,121811,1,0,0:0:0:0:
448,192,121811,1,0,0:0:0:0:
64,192,121919,1,0,0:0:0:0:
320,192,122026,1,0,0:0:0:0:
448,192,122026,1,0,0:0:0:0:
448,192,122133,1,0,0:0:0:0:
64,192,122240,1,0,0:0:0:0:
192,192,122240,1,0,0:0:0:0:
320,192,122240,1,0,0:0:0:0:
192,192,122347,1,0,0:0:0:0:
448,192,122454,1,0,0:0:0:0:
320,192,122454,1,0,0:0:0:0:
320,192,122561,1,0,0:0:0:0:
448,192,122669,1,0,0:0:0:0:
64,192,122669,1,0,0:0:0:0:
192,192,122669,1,0,0:0:0:0:
192,192,122776,1,0,0:0:0:0:
64,192,122883,1,0,0:0:0:0:
448,192,122883,1,0,0:0:0:0:
320,192,122883,1,0,0:0:0:0:
320,192,122990,1,0,0:0:0:0:
448,192,123097,1,0,0:0:0:0:
64,192,123097,1,0,0:0:0:0:
192,192,123097,1,0,0:0:0:0:
448,192,123204,1,0,0:0:0:0:
64,192,123311,1,0,0:0:0:0:
320,192,123311,1,0,0:0:0:0:
64,192,123419,1,0,0:0:0:0:
192,192,123526,1,0,0:0:0:0:
320,192,123526,1,0,0:0:0:0:
448,192,123526,1,0,0:0:0:0:
320,192,123633,1,0,0:0:0:0:
64,192,123740,1,0,0:0:0:0:
192,192,123740,1,0,0:0:0:0:
192,192,123847,1,0,0:0:0:0:
320,192,123954,1,0,0:0:0:0:
448,192,123954,1,0,0:0:0:0:
320,192,124061,1,0,0:0:0:0:
320,192,124169,1,0,0:0:0:0:
320,192,124276,1,0,0:0:0:0:
448,192,124383,128,0,124597:0:0:0:0:
64,192,124383,128,0,124597:0:0:0:0:
320,192,124597,128,0,124811:0:0:0:0:
192,192,124597,128,0,124811:0:0:0:0:
448,192,124811,1,0,0:0:0:0:
64,192,124811,1,0,0:0:0:0:
448,192,124919,1,0,0:0:0:0:
320,192,125026,1,0,0:0:0:0:
192,192,125026,1,0,0:0:0:0:
64,192,125026,1,0,0:0:0:0:
448,192,125133,1,0,0:0:0:0:
192,192,125133,1,0,0:0:0:0:
448,192,125240,1,0,0:0:0:0:
192,192,125240,1,0,0:0:0:0:
64,192,125240,1,0,0:0:0:0:
320,192,125240,1,0,0:0:0:0:
320,192,125347,1,0,0:0:0:0:
320,192,125454,1,0,0:0:0:0:
192,192,125454,1,0,0:0:0:0:
64,192,125454,1,0,0:0:0:0:
192,192,125561,1,0,0:0:0:0:
64,192,125561,1,0,0:0:0:0:
320,192,125669,1,0,0:0:0:0:
448,192,125669,1,0,0:0:0:0:
192,192,125669,1,0,0:0:0:0:
64,192,125669,1,0,0:0:0:0:
448,192,125776,1,0,0:0:0:0:
320,192,125883,1,0,0:0:0:0:
192,192,125883,1,0,0:0:0:0:
64,192,125883,1,0,0:0:0:0:
192,192,125990,1,0,0:0:0:0:
448,192,125990,1,0,0:0:0:0:
320,192,126097,1,0,0:0:0:0:
192,192,126097,1,0,0:0:0:0:
64,192,126097,1,0,0:0:0:0:
448,192,126097,1,0,0:0:0:0:
320,192,126204,1,0,0:0:0:0:
448,192,126311,1,0,0:0:0:0:
192,192,126311,1,0,0:0:0:0:
64,192,126311,1,0,0:0:0:0:
192,192,126419,1,0,0:0:0:0:
64,192,126526,1,0,0:0:0:0:
448,192,126526,1,0,0:0:0:0:
320,192,126526,1,0,0:0:0:0:
192,192,126526,1,0,0:0:0:0:
64,192,126633,1,0,0:0:0:0:
448,192,126740,1,0,0:0:0:0:
192,192,126740,1,0,0:0:0:0:
320,192,126740,1,0,0:0:0:0:
64,192,126847,1,0,0:0:0:0:
448,192,126847,1,0,0:0:0:0:
320,192,126954,1,0,0:0:0:0:
192,192,126954,1,0,0:0:0:0:
64,192,126954,1,0,0:0:0:0:
448,192,126954,1,0,0:0:0:0:
192,192,127061,1,0,0:0:0:0:
320,192,127169,1,0,0:0:0:0:
192,192,127169,1,0,0:0:0:0:
448,192,127169,1,0,0:0:0:0:
320,192,127276,1,0,0:0:0:0:
448,192,127276,1,0,0:0:0:0:
448,192,127383,1,0,0:0:0:0:
320,192,127383,1,0,0:0:0:0:
192,192,127383,1,0,0:0:0:0:
64,192,127383,1,0,0:0:0:0:
192,192,127490,1,0,0:0:0:0:
448,192,127597,1,0,0:0:0:0:
320,192,127597,1,0,0:0:0:0:
64,192,127597,1,0,0:0:0:0:
192,192,127704,1,0,0:0:0:0:
448,192,127704,1,0,0:0:0:0:
448,192,127811,1,0,0:0:0:0:
320,192,127811,1,0,0:0:0:0:
192,192,127811,1,0,0:0:0:0:
64,192,127811,1,0,0:0:0:0:
320,192,127919,1,0,0:0:0:0:
448,192,128026,1,0,0:0:0:0:
192,192,128026,1,0,0:0:0:0:
64,192,128026,1,0,0:0:0:0:
192,192,128133,1,0,0:0:0:0:
448,192,128240,1,0,0:0:0:0:
320,192,128240,1,0,0:0:0:0:
64,192,128240,1,0,0:0:0:0:
192,192,128240,1,0,0:0:0:0:
320,192,128347,1,0,0:0:0:0:
448,192,128454,1,0,0:0:0:0:
192,192,128454,1,0,0:0:0:0:
64,192,128454,1,0,0:0:0:0:
64,192,128561,1,0,0:0:0:0:
320,192,128561,1,0,0:0:0:0:
64,192,128669,1,0,0:0:0:0:
192,192,128669,1,0,0:0:0:0:
320,192,128669,1,0,0:0:0:0:
448,192,128669,1,0,0:0:0:0:
320,192,128776,1,0,0:0:0:0:
448,192,128883,1,0,0:0:0:0:
192,192,128883,1,0,0:0:0:0:
64,192,128883,1,0,0:0:0:0:
64,192,128990,1,0,0:0:0:0:
192,192,128990,1,0,0:0:0:0:
448,192,129097,1,0,0:0:0:0:
320,192,129097,1,0,0:0:0:0:
64,192,129097,1,0,0:0:0:0:
192,192,129097,1,0,0:0:0:0:
320,192,129204,1,0,0:0:0:0:
448,192,129311,1,0,0:0:0:0:
192,192,129311,1,0,0:0:0:0:
64,192,129311,1,0,0:0:0:0:
320,192,129419,1,0,0:0:0:0:
64,192,129419,1,0,0:0:0:0:
448,192,129526,1,0,0:0:0:0:
320,192,129526,1,0,0:0:0:0:
64,192,129526,1,0,0:0:0:0:
192,192,129526,1,0,0:0:0:0:
448,192,129633,1,0,0:0:0:0:
192,192,129633,1,0,0:0:0:0:
320,192,129740,1,0,0:0:0:0:
64,192,129740,1,0,0:0:0:0:
448,192,129740,1,0,0:0:0:0:
64,192,129847,1,0,0:0:0:0:
320,192,129847,1,0,0:0:0:0:
448,192,129954,1,0,0:0:0:0:
320,192,129954,1,0,0:0:0:0:
192,192,129954,1,0,0:0:0:0:
64,192,129954,1,0,0:0:0:0:
448,192,130061,1,0,0:0:0:0:
192,192,130061,1,0,0:0:0:0:
192,192,130169,1,0,0:0:0:0:
64,192,130169,1,0,0:0:0:0:
320,192,130169,1,0,0:0:0:0:
448,192,130276,1,0,0:0:0:0:
64,192,130276,1,0,0:0:0:0:
448,192,130383,1,0,0:0:0:0:
64,192,130383,1,0,0:0:0:0:
192,192,130383,1,0,0:0:0:0:
320,192,130383,1,0,0:0:0:0:
192,192,130490,1,0,0:0:0:0:
320,192,130490,1,0,0:0:0:0:
448,192,130597,1,0,0:0:0:0:
192,192,130597,1,0,0:0:0:0:
64,192,130597,1,0,0:0:0:0:
448,192,130704,1,0,0:0:0:0:
320,192,130704,1,0,0:0:0:0:
192,192,130811,1,0,0:0:0:0:
64,192,130811,1,0,0:0:0:0:
192,192,130919,1,0,0:0:0:0:
64,192,130919,1,0,0:0:0:0:
192,192,131026,1,0,0:0:0:0:
64,192,131026,1,0,0:0:0:0:
192,192,131133,1,0,0:0:0:0:
64,192,131133,1,0,0:0:0:0:
448,192,131240,1,0,0:0:0:0:
320,192,131240,1,0,0:0:0:0:
448,192,131347,1,0,0:0:0:0:
320,192,131347,1,0,0:0:0:0:
448,192,131454,1,0,0:0:0:0:
320,192,131454,1,0,0:0:0:0:
448,192,131561,1,0,0:0:0:0:
320,192,131561,1,0,0:0:0:0:
64,192,131669,1,0,0:0:0:0:
448,192,131669,1,0,0:0:0:0:
192,192,131669,1,0,0:0:0:0:
320,192,131669,1,0,0:0:0:0:
64,192,131776,1,0,0:0:0:0:
192,192,131883,1,0,0:0:0:0:
320,192,131883,1,0,0:0:0:0:
448,192,131883,1,0,0:0:0:0:
64,192,131990,1,0,0:0:0:0:
320,192,131990,1,0,0:0:0:0:
64,192,132097,1,0,0:0:0:0:
320,192,132097,1,0,0:0:0:0:
448,192,132097,1,0,0:0:0:0:
192,192,132097,1,0,0:0:0:0:
192,192,132204,1,0,0:0:0:0:
192,192,132311,1,0,0:0:0:0:
320,192,132311,1,0,0:0:0:0:
448,192,132311,1,0,0:0:0:0:
320,192,132419,1,0,0:0:0:0:
448,192,132419,1,0,0:0:0:0:
192,192,132526,1,0,0:0:0:0:
64,192,132526,1,0,0:0:0:0:
320,192,132526,1,0,0:0:0:0:
448,192,132526,1,0,0:0:0:0:
64,192,132633,1,0,0:0:0:0:
192,192,132740,1,0,0:0:0:0:
320,192,132740,1,0,0:0:0:0:
448,192,132740,1,0,0:0:0:0:
320,192,132847,1,0,0:0:0:0:
64,192,132847,1,0,0:0:0:0:
192,192,132954,1,0,0:0:0:0:
320,192,132954,1,0,0:0:0:0:
448,192,132954,1,0,0:0:0:0:
64,192,132954,1,0,0:0:0:0:
192,192,133061,1,0,0:0:0:0:
64,192,133169,1,0,0:0:0:0:
320,192,133169,1,0,0:0:0:0:
448,192,133169,1,0,0:0:0:0:
320,192,133276,1,0,0:0:0:0:
448,192,133383,1,0,0:0:0:0:
64,192,133383,1,0,0:0:0:0:
192,192,133383,1,0,0:0:0:0:
320,192,133383,1,0,0:0:0:0:
448,192,133490,1,0,0:0:0:0:
64,192,133597,1,0,0:0:0:0:
320,192,133597,1,0,0:0:0:0:
192,192,133597,1,0,0:0:0:0:
448,192,133704,1,0,0:0:0:0:
64,192,133704,1,0,0:0:0:0:
192,192,133811,1,0,0:0:0:0:
320,192,133811,1,0,0:0:0:0:
448,192,133811,1,0,0:0:0:0:
64,192,133811,1,0,0:0:0:0:
320,192,133919,1,0,0:0:0:0:
192,192,134026,1,0,0:0:0:0:
320,192,134026,1,0,0:0:0:0:
64,192,134026,1,0,0:0:0:0:
192,192,134133,1,0,0:0:0:0:
64,192,134133,1,0,0:0:0:0:
64,192,134240,1,0,0:0:0:0:
192,192,134240,1,0,0:0:0:0:
320,192,134240,1,0,0:0:0:0:
448,192,134240,1,0,0:0:0:0:
320,192,134347,1,0,0:0:0:0:
64,192,134454,1,0,0:0:0:0:
192,192,134454,1,0,0:0:0:0:
448,192,134454,1,0,0:0:0:0:
320,192,134561,1,0,0:0:0:0:
64,192,134561,1,0,0:0:0:0:
64,192,134669,1,0,0:0:0:0:
192,192,134669,1,0,0:0:0:0:
320,192,134669,1,0,0:0:0:0:
448,192,134669,1,0,0:0:0:0:
192,192,134776,1,0,0:0:0:0:
64,192,134883,1,0,0:0:0:0:
320,192,134883,1,0,0:0:0:0:
448,192,134883,1,0,0:0:0:0:
320,192,134990,1,0,0:0:0:0:
64,192,135097,1,0,0:0:0:0:
192,192,135097,1,0,0:0:0:0:
448,192,135097,1,0,0:0:0:0:
320,192,135097,1,0,0:0:0:0:
192,192,135204,1,0,0:0:0:0:
64,192,135311,1,0,0:0:0:0:
320,192,135311,1,0,0:0:0:0:
448,192,135311,1,0,0:0:0:0:
448,192,135419,1,0,0:0:0:0:
192,192,135419,1,0,0:0:0:0:
448,192,135526,1,0,0:0:0:0:
320,192,135526,1,0,0:0:0:0:
192,192,135526,1,0,0:0:0:0:
64,192,135526,1,0,0:0:0:0:
192,192,135633,1,0,0:0:0:0:
64,192,135740,1,0,0:0:0:0:
320,192,135740,1,0,0:0:0:0:
448,192,135740,1,0,0:0:0:0:
448,192,135847,1,0,0:0:0:0:
320,192,135847,1,0,0:0:0:0:
64,192,135954,1,0,0:0:0:0:
192,192,135954,1,0,0:0:0:0:
448,192,135954,1,0,0:0:0:0:
320,192,135954,1,0,0:0:0:0:
192,192,136061,1,0,0:0:0:0:
64,192,136169,1,0,0:0:0:0:
320,192,136169,1,0,0:0:0:0:
448,192,136169,1,0,0:0:0:0:
192,192,136276,1,0,0:0:0:0:
448,192,136276,1,0,0:0:0:0:
64,192,136383,1,0,0:0:0:0:
192,192,136383,1,0,0:0:0:0:
448,192,136383,1,0,0:0:0:0:
320,192,136383,1,0,0:0:0:0:
64,192,136490,1,0,0:0:0:0:
320,192,136490,1,0,0:0:0:0:
192,192,136597,1,0,0:0:0:0:
448,192,136597,1,0,0:0:0:0:
64,192,136597,1,0,0:0:0:0:
448,192,136704,1,0,0:0:0:0:
192,192,136704,1,0,0:0:0:0:
64,192,136811,1,0,0:0:0:0:
192,192,136811,1,0,0:0:0:0:
320,192,136811,1,0,0:0:0:0:
448,192,136811,1,0,0:0:0:0:
64,192,136919,1,0,0:0:0:0:
320,192,136919,1,0,0:0:0:0:
320,192,137026,1,0,0:0:0:0:
448,192,137026,1,0,0:0:0:0:
192,192,137026,1,0,0:0:0:0:
64,192,137133,1,0,0:0:0:0:
448,192,137133,1,0,0:0:0:0:
64,192,137240,1,0,0:0:0:0:
448,192,137240,1,0,0:0:0:0:
320,192,137240,1,0,0:0:0:0:
192,192,137240,1,0,0:0:0:0:
320,192,137347,1,0,0:0:0:0:
192,192,137347,1,0,0:0:0:0:
64,192,137454,1,0,0:0:0:0:
320,192,137454,1,0,0:0:0:0:
448,192,137454,1,0,0:0:0:0:
64,192,137561,1,0,0:0:0:0:
320,192,137669,1,0,0:0:0:0:
192,192,137669,1,0,0:0:0:0:
448,192,137776,1,0,0:0:0:0:
64,192,137776,1,0,0:0:0:0:
320,192,137883,1,0,0:0:0:0:
192,192,137883,1,0,0:0:0:0:
448,192,137990,1,0,0:0:0:0:
64,192,137990,1,0,0:0:0:0:
320,192,138097,128,0,138311:0:0:0:0:
192,192,138097,128,0,138311:0:0:0:0:
64,192,138311,128,0,138526:0:0:0:0:
448,192,138311,128,0,138526:0:0:0:0:
192,192,138526,1,0,0:0:0:0:
320,192,138526,1,0,0:0:0:0:
448,192,138561,1,0,0:0:0:0:
64,192,138597,1,0,0:0:0:0:
192,192,138633,1,0,0:0:0:0:
320,192,138669,1,0,0:0:0:0:
448,192,138704,1,0,0:0:0:0:
320,192,138740,1,0,0:0:0:0:
192,192,138776,1,0,0:0:0:0:
64,192,138811,1,0,0:0:0:0:
448,192,138847,1,0,0:0:0:0:
320,192,138847,1,0,0:0:0:0:
192,192,138883,1,0,0:0:0:0:
64,192,138919,1,0,0:0:0:0:
320,192,138954,1,0,0:0:0:0:
448,192,138990,1,0,0:0:0:0:
192,192,139026,1,0,0:0:0:0:
64,192,139061,1,0,0:0:0:0:
448,192,139097,1,0,0:0:0:0:
320,192,139133,1,0,0:0:0:0:
192,192,139169,1,0,0:0:0:0:
64,192,139169,1,0,0:0:0:0:
448,192,139204,1,0,0:0:0:0:
320,192,139240,1,0,0:0:0:0:
192,192,139276,1,0,0:0:0:0:
448,192,139311,1,0,0:0:0:0:
64,192,139347,1,0,0:0:0:0:
192,192,139383,1,0,0:0:0:0:
320,192,139383,1,0,0:0:0:0:
448,192,139419,1,0,0:0:0:0:
64,192,139454,1,0,0:0:0:0:
192,192,139490,1,0,0:0:0:0:
320,192,139526,1,0,0:0:0:0:
448,192,139561,1,0,0:0:0:0:
64,192,139597,1,0,0:0:0:0:
192,192,139633,1,0,0:0:0:0:
320,192,139669,1,0,0:0:0:0:
448,192,139704,1,0,0:0:0:0:
320,192,139740,1,0,0:0:0:0:
192,192,139776,1,0,0:0:0:0:
64,192,139811,1,0,0:0:0:0:
448,192,139811,1,0,0:0:0:0:
320,192,139847,1,0,0:0:0:0:
192,192,139883,1,0,0:0:0:0:
64,192,139919,1,0,0:0:0:0:
192,192,139954,1,0,0:0:0:0:
320,192,139990,1,0,0:0:0:0:
448,192,140026,1,0,0:0:0:0:
64,192,140061,1,0,0:0:0:0:
192,192,140097,1,0,0:0:0:0:
320,192,140133,1,0,0:0:0:0:
448,192,140169,1,0,0:0:0:0:
320,192,140204,1,0,0:0:0:0:
64,192,140240,1,0,0:0:0:0:
192,192,140240,1,0,0:0:0:0:
448,192,140276,1,0,0:0:0:0:
320,192,140311,1,0,0:0:0:0:
192,192,140347,1,0,0:0:0:0:
64,192,140383,1,0,0:0:0:0:
192,192,140419,1,0,0:0:0:0:
320,192,140454,1,0,0:0:0:0:
448,192,140490,1,0,0:0:0:0:
64,192,140526,1,0,0:0:0:0:
192,192,140561,1,0,0:0:0:0:
448,192,140561,1,0,0:0:0:0:
320,192,140597,1,0,0:0:0:0:
192,192,140633,1,0,0:0:0:0:
64,192,140669,1,0,0:0:0:0:
320,192,140704,1,0,0:0:0:0:
448,192,140740,1,0,0:0:0:0:
64,192,140776,1,0,0:0:0:0:
192,192,140811,1,0,0:0:0:0:
320,192,140847,1,0,0:0:0:0:
448,192,140883,1,0,0:0:0:0:
64,192,140883,1,0,0:0:0:0:
192,192,140919,1,0,0:0:0:0:
320,192,140954,1,0,0:0:0:0:
448,192,140990,1,0,0:0:0:0:
192,192,141026,1,0,0:0:0:0:
64,192,141061,1,0,0:0:0:0:
192,192,141097,1,0,0:0:0:0:
448,192,141097,128,0,141311:0:0:0:0:
192,192,141204,1,0,0:0:0:0:
320,192,141311,128,0,141419:0:0:0:0:
64,192,141311,1,0,0:0:0:0:
448,192,141419,128,0,141633:0:0:0:0:
64,192,141419,1,0,0:0:0:0:
192,192,141526,1,0,0:0:0:0:
64,192,141633,128,0,141954:0:0:0:0:
192,192,141633,1,0,0:0:0:0:
320,192,141740,1,0,0:0:0:0:
320,192,141847,1,0,0:0:0:0:
192,192,141954,1,0,0:0:0:0:
320,192,141954,1,0,0:0:0:0:
448,192,141990,1,0,0:0:0:0:
64,192,142026,1,0,0:0:0:0:
192,192,142061,1,0,0:0:0:0:
320,192,142097,1,0,0:0:0:0:
448,192,142133,1,0,0:0:0:0:
320,192,142169,1,0,0:0:0:0:
192,192,142204,1,0,0:0:0:0:
64,192,142240,1,0,0:0:0:0:
448,192,142276,1,0,0:0:0:0:
320,192,142276,1,0,0:0:0:0:
192,192,142311,1,0,0:0:0:0:
64,192,142347,1,0,0:0:0:0:
320,192,142383,1,0,0:0:0:0:
448,192,142419,1,0,0:0:0:0:
192,192,142454,1,0,0:0:0:0:
64,192,142490,1,0,0:0:0:0:
448,192,142526,1,0,0:0:0:0:
320,192,142561,1,0,0:0:0:0:
192,192,142597,1,0,0:0:0:0:
64,192,142597,1,0,0:0:0:0:
448,192,142633,1,0,0:0:0:0:
320,192,142669,1,0,0:0:0:0:
192,192,142704,1,0,0:0:0:0:
448,192,142740,1,0,0:0:0:0:
64,192,142776,1,0,0:0:0:0:
192,192,142811,1,0,0:0:0:0:
320,192,142811,1,0,0:0:0:0:
448,192,142847,1,0,0:0:0:0:
64,192,142883,1,0,0:0:0:0:
192,192,142919,1,0,0:0:0:0:
320,192,142954,1,0,0:0:0:0:
448,192,142990,1,0,0:0:0:0:
64,192,143026,1,0,0:0:0:0:
192,192,143061,1,0,0:0:0:0:
320,192,143097,1,0,0:0:0:0:
448,192,143133,1,0,0:0:0:0:
320,192,143169,1,0,0:0:0:0:
192,192,143204,1,0,0:0:0:0:
64,192,143240,1,0,0:0:0:0:
448,192,143240,1,0,0:0:0:0:
320,192,143276,1,0,0:0:0:0:
192,192,143311,1,0,0:0:0:0:
64,192,143347,1,0,0:0:0:0:
192,192,143383,1,0,0:0:0:0:
320,192,143419,1,0,0:0:0:0:
448,192,143454,1,0,0:0:0:0:
64,192,143490,1,0,0:0:0:0:
192,192,143526,1,0,0:0:0:0:
320,192,143561,1,0,0:0:0:0:
448,192,143597,1,0,0:0:0:0:
320,192,143633,1,0,0:0:0:0:
64,192,143669,1,0,0:0:0:0:
192,192,143669,1,0,0:0:0:0:
448,192,143704,1,0,0:0:0:0:
320,192,143740,1,0,0:0:0:0:
192,192,143776,1,0,0:0:0:0:
64,192,143811,1,0,0:0:0:0:
192,192,143847,1,0,0:0:0:0:
320,192,143883,1,0,0:0:0:0:
448,192,143919,1,0,0:0:0:0:
64,192,143954,1,0,0:0:0:0:
192,192,143990,1,0,0:0:0:0:
448,192,143990,1,0,0:0:0:0:
320,192,144026,1,0,0:0:0:0:
192,192,144061,1,0,0:0:0:0:
64,192,144097,1,0,0:0:0:0:
320,192,144133,1,0,0:0:0:0:
448,192,144169,1,0,0:0:0:0:
64,192,144204,1,0,0:0:0:0:
192,192,144240,1,0,0:0:0:0:
320,192,144276,1,0,0:0:0:0:
448,192,144311,1,0,0:0:0:0:
64,192,144311,1,0,0:0:0:0:
192,192,144347,1,0,0:0:0:0:
320,192,144383,1,0,0:0:0:0:
448,192,144419,1,0,0:0:0:0:
192,192,144454,1,0,0:0:0:0:
64,192,144490,1,0,0:0:0:0:
448,192,144526,1,0,0:0:0:0:
320,192,144526,1,0,0:0:0:0:
320,192,144633,1,0,0:0:0:0:
448,192,144633,1,0,0:0:0:0:
448,192,144740,1,0,0:0:0:0:
64,192,144740,1,0,0:0:0:0:
192,192,144776,1,0,0:0:0:0:
320,192,144811,1,0,0:0:0:0:
448,192,144847,1,0,0:0:0:0:
192,192,144883,1,0,0:0:0:0:
64,192,144919,1,0,0:0:0:0:
320,192,144954,1,0,0:0:0:0:
448,192,144990,1,0,0:0:0:0:
192,192,145026,1,0,0:0:0:0:
64,192,145061,1,0,0:0:0:0:
320,192,145097,1,0,0:0:0:0:
448,192,145133,1,0,0:0:0:0:
192,192,145169,1,0,0:0:0:0:
64,192,145169,1,0,0:0:0:0:
64,192,145276,1,0,0:0:0:0:
320,192,145383,1,0,0:0:0:0:
192,192,145383,1,0,0:0:0:0:
64,192,145419,1,0,0:0:0:0:
448,192,145454,1,0,0:0:0:0:
320,192,145490,1,0,0:0:0:0:
192,192,145526,1,0,0:0:0:0:
64,192,145561,1,0,0:0:0:0:
192,192,145597,1,0,0:0:0:0:
320,192,145633,1,0,0:0:0:0:
448,192,145669,1,0,0:0:0:0:
64,192,145704,1,0,0:0:0:0:
192,192,145704,1,0,0:0:0:0:
320,192,145740,1,0,0:0:0:0:
448,192,145776,1,0,0:0:0:0:
192,192,145811,1,0,0:0:0:0:
64,192,145847,1,0,0:0:0:0:
320,192,145883,1,0,0:0:0:0:
448,192,145919,1,0,0:0:0:0:
64,192,145954,1,0,0:0:0:0:
192,192,145990,1,0,0:0:0:0:
320,192,146026,1,0,0:0:0:0:
448,192,146026,1,0,0:0:0:0:
64,192,146061,1,0,0:0:0:0:
192,192,146097,1,0,0:0:0:0:
320,192,146133,1,0,0:0:0:0:
64,192,146169,1,0,0:0:0:0:
448,192,146204,1,0,0:0:0:0:
320,192,146240,1,0,0:0:0:0:
192,192,146240,1,0,0:0:0:0:
64,192,146276,1,0,0:0:0:0:
448,192,146311,1,0,0:0:0:0:
320,192,146347,1,0,0:0:0:0:
192,192,146383,1,0,0:0:0:0:
64,192,146419,1,0,0:0:0:0:
448,192,146454,1,0,0:0:0:0:
320,192,146490,1,0,0:0:0:0:
192,192,146526,1,0,0:0:0:0:
64,192,146561,1,0,0:0:0:0:
192,192,146597,1,0,0:0:0:0:
320,192,146633,1,0,0:0:0:0:
448,192,146669,1,0,0:0:0:0:
64,192,146669,1,0,0:0:0:0:
192,192,146704,1,0,0:0:0:0:
320,192,146740,1,0,0:0:0:0:
448,192,146776,1,0,0:0:0:0:
320,192,146811,1,0,0:0:0:0:
192,192,146847,1,0,0:0:0:0:
64,192,146883,1,0,0:0:0:0:
448,192,146919,1,0,0:0:0:0:
320,192,146954,1,0,0:0:0:0:
192,192,146990,1,0,0:0:0:0:
64,192,147026,1,0,0:0:0:0:
192,192,147061,1,0,0:0:0:0:
448,192,147097,1,0,0:0:0:0:
320,192,147097,1,0,0:0:0:0:
64,192,147133,1,0,0:0:0:0:
192,192,147169,1,0,0:0:0:0:
320,192,147204,1,0,0:0:0:0:
448,192,147240,1,0,0:0:0:0:
320,192,147276,1,0,0:0:0:0:
192,192,147311,1,0,0:0:0:0:
64,192,147347,1,0,0:0:0:0:
448,192,147383,1,0,0:0:0:0:
320,192,147419,1,0,0:0:0:0:
64,192,147419,1,0,0:0:0:0:
192,192,147454,1,0,0:0:0:0:
320,192,147490,1,0,0:0:0:0:
448,192,147526,1,0,0:0:0:0:
192,192,147561,1,0,0:0:0:0:
64,192,147597,1,0,0:0:0:0:
448,192,147633,1,0,0:0:0:0:
320,192,147669,1,0,0:0:0:0:
192,192,147704,1,0,0:0:0:0:
64,192,147740,1,0,0:0:0:0:
448,192,147740,1,0,0:0:0:0:
320,192,147776,1,0,0:0:0:0:
192,192,147811,1,0,0:0:0:0:
64,192,147847,1,0,0:0:0:0:
320,192,147883,1,0,0:0:0:0:
448,192,147919,1,0,0:0:0:0:
64,192,147954,128,0,148169:0:0:0:0:
320,192,147954,1,0,0:0:0:0:
320,192,148061,1,0,0:0:0:0:
448,192,148169,1,0,0:0:0:0:
192,192,148169,128,0,148276:0:0:0:0:
64,192,148276,128,0,148490:0:0:0:0:
448,192,148276,1,0,0:0:0:0:
320,192,148383,1,0,0:0:0:0:
448,192,148490,128,0,148811:0:0:0:0:
320,192,148490,1,0,0:0:0:0:
192,192,148597,1,0,0:0:0:0:
192,192,148704,1,0,0:0:0:0:
320,192,148811,1,0,0:0:0:0:
192,192,148811,1,0,0:0:0:0:
64,192,148847,1,0,0:0:0:0:
448,192,148883,1,0,0:0:0:0:
320,192,148919,1,0,0:0:0:0:
192,192,148954,1,0,0:0:0:0:
64,192,148990,1,0,0:0:0:0:
192,192,149026,1,0,0:0:0:0:
320,192,149061,1,0,0:0:0:0:
448,192,149097,1,0,0:0:0:0:
64,192,149133,1,0,0:0:0:0:
192,192,149133,1,0,0:0:0:0:
320,192,149169,1,0,0:0:0:0:
448,192,149204,1,0,0:0:0:0:
192,192,149240,1,0,0:0:0:0:
64,192,149276,1,0,0:0:0:0:
320,192,149311,1,0,0:0:0:0:
448,192,149347,1,0,0:0:0:0:
64,192,149383,1,0,0:0:0:0:
192,192,149419,1,0,0:0:0:0:
320,192,149454,1,0,0:0:0:0:
448,192,149454,1,0,0:0:0:0:
64,192,149490,1,0,0:0:0:0:
192,192,149526,1,0,0:0:0:0:
320,192,149561,1,0,0:0:0:0:
64,192,149597,1,0,0:0:0:0:
448,192,149633,1,0,0:0:0:0:
320,192,149669,1,0,0:0:0:0:
192,192,149669,1,0,0:0:0:0:
64,192,149704,1,0,0:0:0:0:
448,192,149740,1,0,0:0:0:0:
320,192,149776,1,0,0:0:0:0:
192,192,149811,1,0,0:0:0:0:
64,192,149847,1,0,0:0:0:0:
448,192,149883,1,0,0:0:0:0:
320,192,149919,1,0,0:0:0:0:
192,192,149954,1,0,0:0:0:0:
64,192,149990,1,0,0:0:0:0:
192,192,150026,1,0,0:0:0:0:
320,192,150061,1,0,0:0:0:0:
448,192,150097,1,0,0:0:0:0:
64,192,150097,1,0,0:0:0:0:
192,192,150133,1,0,0:0:0:0:
320,192,150169,1,0,0:0:0:0:
448,192,150204,1,0,0:0:0:0:
320,192,150240,1,0,0:0:0:0:
192,192,150276,1,0,0:0:0:0:
64,192,150311,1,0,0:0:0:0:
448,192,150347,1,0,0:0:0:0:
320,192,150383,1,0,0:0:0:0:
192,192,150419,1,0,0:0:0:0:
64,192,150454,1,0,0:0:0:0:
192,192,150490,1,0,0:0:0:0:
448,192,150526,1,0,0:0:0:0:
320,192,150526,1,0,0:0:0:0:
64,192,150561,1,0,0:0:0:0:
192,192,150597,1,0,0:0:0:0:
320,192,150633,1,0,0:0:0:0:
448,192,150669,1,0,0:0:0:0:
320,192,150704,1,0,0:0:0:0:
192,192,150740,1,0,0:0:0:0:
64,192,150776,1,0,0:0:0:0:
448,192,150811,1,0,0:0:0:0:
320,192,150847,1,0,0:0:0:0:
64,192,150847,1,0,0:0:0:0:
192,192,150883,1,0,0:0:0:0:
320,192,150919,1,0,0:0:0:0:
448,192,150954,1,0,0:0:0:0:
192,192,150990,1,0,0:0:0:0:
64,192,151026,1,0,0:0:0:0:
448,192,151061,1,0,0:0:0:0:
320,192,151097,1,0,0:0:0:0:
192,192,151133,1,0,0:0:0:0:
64,192,151169,1,0,0:0:0:0:
448,192,151169,1,0,0:0:0:0:
320,192,151204,1,0,0:0:0:0:
192,192,151240,1,0,0:0:0:0:
64,192,151276,1,0,0:0:0:0:
320,192,151311,1,0,0:0:0:0:
448,192,151347,1,0,0:0:0:0:
64,192,151383,1,0,0:0:0:0:
192,192,151383,1,0,0:0:0:0:
192,192,151490,1,0,0:0:0:0:
64,192,151490,1,0,0:0:0:0:
448,192,151597,1,0,0:0:0:0:
64,192,151597,1,0,0:0:0:0:
320,192,151633,1,0,0:0:0:0:
192,192,151669,1,0,0:0:0:0:
64,192,151704,1,0,0:0:0:0:
320,192,151740,1,0,0:0:0:0:
448,192,151776,1,0,0:0:0:0:
192,192,151811,1,0,0:0:0:0:
64,192,151847,1,0,0:0:0:0:
320,192,151883,1,0,0:0:0:0:
448,192,151919,1,0,0:0:0:0:
192,192,151954,1,0,0:0:0:0:
64,192,151990,1,0,0:0:0:0:
448,192,152026,1,0,0:0:0:0:
320,192,152026,1,0,0:0:0:0:
448,192,152133,1,0,0:0:0:0:
64,192,152240,1,0,0:0:0:0:
448,192,152240,1,0,0:0:0:0:
192,192,152240,128,0,153097:0:0:0:0:
320,192,152240,128,0,152526:0:0:0:0:
448,192,152526,128,0,152811:0:0:0:0:
64,192,152811,128,0,153097:0:0:0:0:
448,192,153097,128,0,153954:0:0:0:0:
320,192,153097,128,0,153204:0:0:0:0:
320,192,153311,128,0,153419:0:0:0:0:
192,192,153526,128,0,153633:0:0:0:0:
192,192,153740,128,0,153847:0:0:0:0:
64,192,153954,128,0,154240:0:0:0:0:
320,192,153954,128,0,154240:0:0:0:0:
192,192,154240,128,0,154526:0:0:0:0:
448,192,154240,128,0,154526:0:0:0:0:
320,192,154526,128,0,154811:0:0:0:0:
64,192,154526,128,0,154811:0:0:0:0:
