osu file format v14

[General]
AudioFilename: audio130.mp3
AudioLeadIn: 0
PreviewTime: -1
Countdown: 0
SampleSet: Normal
StackLeniency: 0.7
Mode: 3
LetterboxInBreaks: 0
SpecialStyle: 0
WidescreenStoryboard: 0

[Editor]
Bookmarks: 83409
DistanceSpacing: 1.3
BeatDivisor: 3
GridSize: 4
TimelineZoom: 0.9

[Metadata]
Title:Coco Jambo
TitleUnicode:Coco Jambo
Artist:Mr. President
ArtistUnicode:Mr. President
Creator:LordTimeWaste
Version:Coco Jambo [1,3x Rate]
Source:
Tags:
BeatmapID:1737302
BeatmapSetID:823841

[Difficulty]
HPDrainRate:8
CircleSize:4
OverallDifficulty:8
ApproachRate:5
SliderMultiplier:1.4
SliderTickRate:1

[Events]
//Background and Video events
0,0,"pBPcDpeDb8HfN6a6nMTcmR.jpg",0,0
//Break Periods
//Storyboard Layer 0 (Background)
//Storyboard Layer 1 (Fail)
//Storyboard Layer 2 (Pass)
//Storyboard Layer 3 (Foreground)
//Storyboard Sound Samples

[TimingPoints]
1486,461.538461538462,4,1,0,20,1,0

[HitObjects]
320,192,1486,5,0,0:0:0:0:
64,192,1486,1,0,0:0:0:0:
320,192,1602,1,0,0:0:0:0:
192,192,1717,1,0,0:0:0:0:
448,192,1717,1,0,0:0:0:0:
192,192,1832,1,0,0:0:0:0:
64,192,1948,1,0,0:0:0:0:
448,192,1948,1,0,0:0:0:0:
320,192,1948,1,0,0:0:0:0:
64,192,2063,1,0,0:0:0:0:
448,192,2178,1,0,0:0:0:0:
192,192,2178,1,0,0:0:0:0:
448,192,2294,1,0,0:0:0:0:
320,192,2409,1,0,0:0:0:0:
192,192,2409,1,0,0:0:0:0:
320,192,2525,1,0,0:0:0:0:
64,192,2640,1,0,0:0:0:0:
448,192,2640,1,0,0:0:0:0:
64,192,2755,1,0,0:0:0:0:
192,192,2871,1,0,0:0:0:0:
448,192,2871,1,0,0:0:0:0:
320,192,2871,1,0,0:0:0:0:
192,192,2986,1,0,0:0:0:0:
448,192,3102,1,0,0:0:0:0:
64,192,3102,1,0,0:0:0:0:
448,192,3217,1,0,0:0:0:0:
192,192,3332,1,0,0:0:0:0:
320,192,3332,1,0,0:0:0:0:
192,192,3448,1,0,0:0:0:0:
320,192,3563,1,0,0:0:0:0:
64,192,3563,1,0,0:0:0:0:
320,192,3678,1,0,0:0:0:0:
192,192,3794,1,0,0:0:0:0:
448,192,3794,1,0,0:0:0:0:
64,192,3794,1,0,0:0:0:0:
448,192,3909,1,0,0:0:0:0:
64,192,4025,1,0,0:0:0:0:
320,192,4025,1,0,0:0:0:0:
64,192,4140,1,0,0:0:0:0:
192,192,4255,1,0,0:0:0:0:
448,192,4255,1,0,0:0:0:0:
448,192,4371,1,0,0:0:0:0:
320,192,4486,1,0,0:0:0:0:
64,192,4486,1,0,0:0:0:0:
320,192,4602,1,0,0:0:0:0:
64,192,4717,1,0,0:0:0:0:
448,192,4717,1,0,0:0:0:0:
192,192,4717,1,0,0:0:0:0:
64,192,4832,1,0,0:0:0:0:
192,192,4948,1,0,0:0:0:0:
320,192,4948,1,0,0:0:0:0:
192,192,5063,1,0,0:0:0:0:
448,192,5178,1,0,0:0:0:0:
64,192,5178,1,0,0:0:0:0:
320,192,5217,1,0,0:0:0:0:
192,192,5255,1,0,0:0:0:0:
64,192,5294,1,0,0:0:0:0:
192,192,5332,1,0,0:0:0:0:
320,192,5371,1,0,0:0:0:0:
448,192,5409,1,0,0:0:0:0:
192,192,5448,1,0,0:0:0:0:
64,192,5486,1,0,0:0:0:0:
448,192,5525,1,0,0:0:0:0:
320,192,5525,1,0,0:0:0:0:
192,192,5563,1,0,0:0:0:0:
64,192,5602,1,0,0:0:0:0:
320,192,5640,1,0,0:0:0:0:
448,192,5678,1,0,0:0:0:0:
192,192,5717,1,0,0:0:0:0:
64,192,5755,1,0,0:0:0:0:
448,192,5794,1,0,0:0:0:0:
320,192,5832,1,0,0:0:0:0:
192,192,5871,1,0,0:0:0:0:
64,192,5871,1,0,0:0:0:0:
448,192,5909,1,0,0:0:0:0:
320,192,5948,1,0,0:0:0:0:
192,192,5986,1,0,0:0:0:0:
448,192,6025,1,0,0:0:0:0:
64,192,6063,1,0,0:0:0:0:
192,192,6102,1,0,0:0:0:0:
320,192,6102,1,0,0:0:0:0:
448,192,6140,1,0,0:0:0:0:
64,192,6178,1,0,0:0:0:0:
192,192,6217,1,0,0:0:0:0:
320,192,6255,1,0,0:0:0:0:
448,192,6294,1,0,0:0:0:0:
64,192,6332,1,0,0:0:0:0:
192,192,6371,1,0,0:0:0:0:
320,192,6409,1,0,0:0:0:0:
448,192,6448,1,0,0:0:0:0:
320,192,6486,1,0,0:0:0:0:
192,192,6525,1,0,0:0:0:0:
64,192,6563,1,0,0:0:0:0:
448,192,6563,1,0,0:0:0:0:
320,192,6602,1,0,0:0:0:0:
192,192,6640,1,0,0:0:0:0:
64,192,6678,1,0,0:0:0:0:
192,192,6717,1,0,0:0:0:0:
320,192,6755,1,0,0:0:0:0:
448,192,6794,1,0,0:0:0:0:
64,192,6832,1,0,0:0:0:0:
192,192,6871,1,0,0:0:0:0:
320,192,6909,1,0,0:0:0:0:
448,192,6948,1,0,0:0:0:0:
320,192,6986,1,0,0:0:0:0:
64,192,7025,1,0,0:0:0:0:
192,192,7025,1,0,0:0:0:0:
448,192,7063,1,0,0:0:0:0:
320,192,7102,1,0,0:0:0:0:
192,192,7140,1,0,0:0:0:0:
64,192,7178,1,0,0:0:0:0:
192,192,7217,1,0,0:0:0:0:
320,192,7255,1,0,0:0:0:0:
448,192,7294,1,0,0:0:0:0:
64,192,7332,1,0,0:0:0:0:
192,192,7371,1,0,0:0:0:0:
448,192,7371,1,0,0:0:0:0:
320,192,7409,1,0,0:0:0:0:
192,192,7448,1,0,0:0:0:0:
64,192,7486,1,0,0:0:0:0:
320,192,7525,1,0,0:0:0:0:
448,192,7563,1,0,0:0:0:0:
64,192,7602,1,0,0:0:0:0:
192,192,7640,1,0,0:0:0:0:
320,192,7678,1,0,0:0:0:0:
448,192,7717,1,0,0:0:0:0:
64,192,7717,1,0,0:0:0:0:
192,192,7755,1,0,0:0:0:0:
320,192,7794,1,0,0:0:0:0:
448,192,7832,1,0,0:0:0:0:
192,192,7871,1,0,0:0:0:0:
320,192,7909,1,0,0:0:0:0:
448,192,7948,1,0,0:0:0:0:
64,192,7948,1,0,0:0:0:0:
64,192,8063,1,0,0:0:0:0:
192,192,8178,1,0,0:0:0:0:
448,192,8178,1,0,0:0:0:0:
448,192,8294,1,0,0:0:0:0:
64,192,8409,1,0,0:0:0:0:
320,192,8409,1,0,0:0:0:0:
192,192,8409,1,0,0:0:0:0:
192,192,8525,1,0,0:0:0:0:
320,192,8640,1,0,0:0:0:0:
448,192,8640,1,0,0:0:0:0:
320,192,8755,1,0,0:0:0:0:
64,192,8871,1,0,0:0:0:0:
192,192,8871,1,0,0:0:0:0:
320,192,8871,1,0,0:0:0:0:
448,192,8871,1,0,0:0:0:0:
192,192,8986,1,0,0:0:0:0:
64,192,9102,1,0,0:0:0:0:
320,192,9102,1,0,0:0:0:0:
448,192,9102,1,0,0:0:0:0:
448,192,9217,1,0,0:0:0:0:
192,192,9217,1,0,0:0:0:0:
64,192,9332,1,0,0:0:0:0:
192,192,9332,1,0,0:0:0:0:
320,192,9332,1,0,0:0:0:0:
448,192,9332,1,0,0:0:0:0:
320,192,9448,1,0,0:0:0:0:
192,192,9563,1,0,0:0:0:0:
448,192,9563,1,0,0:0:0:0:
64,192,9563,1,0,0:0:0:0:
64,192,9678,1,0,0:0:0:0:
192,192,9794,1,0,0:0:0:0:
320,192,9794,1,0,0:0:0:0:
448,192,9794,1,0,0:0:0:0:
64,192,9794,1,0,0:0:0:0:
320,192,9909,1,0,0:0:0:0:
192,192,10025,1,0,0:0:0:0:
64,192,10025,1,0,0:0:0:0:
448,192,10025,1,0,0:0:0:0:
64,192,10140,1,0,0:0:0:0:
192,192,10140,1,0,0:0:0:0:
64,192,10255,1,0,0:0:0:0:
192,192,10255,1,0,0:0:0:0:
320,192,10255,1,0,0:0:0:0:
448,192,10255,1,0,0:0:0:0:
320,192,10371,1,0,0:0:0:0:
448,192,10486,1,0,0:0:0:0:
192,192,10486,1,0,0:0:0:0:
64,192,10486,1,0,0:0:0:0:
448,192,10602,1,0,0:0:0:0:
448,192,10717,1,0,0:0:0:0:
320,192,10717,1,0,0:0:0:0:
192,192,10717,1,0,0:0:0:0:
64,192,10717,1,0,0:0:0:0:
320,192,10832,1,0,0:0:0:0:
448,192,10948,1,0,0:0:0:0:
192,192,10948,1,0,0:0:0:0:
64,192,10948,1,0,0:0:0:0:
64,192,11063,1,0,0:0:0:0:
320,192,11063,1,0,0:0:0:0:
448,192,11178,1,0,0:0:0:0:
320,192,11178,1,0,0:0:0:0:
192,192,11178,1,0,0:0:0:0:
64,192,11178,1,0,0:0:0:0:
192,192,11294,1,0,0:0:0:0:
320,192,11409,1,0,0:0:0:0:
64,192,11409,1,0,0:0:0:0:
448,192,11409,1,0,0:0:0:0:
448,192,11525,1,0,0:0:0:0:
320,192,11640,1,0,0:0:0:0:
192,192,11640,1,0,0:0:0:0:
64,192,11640,1,0,0:0:0:0:
448,192,11640,1,0,0:0:0:0:
192,192,11755,1,0,0:0:0:0:
320,192,11871,1,0,0:0:0:0:
448,192,11871,1,0,0:0:0:0:
64,192,11871,1,0,0:0:0:0:
448,192,11986,1,0,0:0:0:0:
320,192,11986,1,0,0:0:0:0:
448,192,12102,1,0,0:0:0:0:
320,192,12102,1,0,0:0:0:0:
192,192,12102,1,0,0:0:0:0:
64,192,12102,1,0,0:0:0:0:
192,192,12217,1,0,0:0:0:0:
64,192,12332,1,0,0:0:0:0:
320,192,12332,1,0,0:0:0:0:
448,192,12332,1,0,0:0:0:0:
64,192,12448,1,0,0:0:0:0:
448,192,12563,1,0,0:0:0:0:
192,192,12563,1,0,0:0:0:0:
320,192,12602,1,0,0:0:0:0:
64,192,12640,1,0,0:0:0:0:
192,192,12678,1,0,0:0:0:0:
320,192,12717,1,0,0:0:0:0:
448,192,12755,1,0,0:0:0:0:
320,192,12794,1,0,0:0:0:0:
192,192,12832,1,0,0:0:0:0:
64,192,12871,1,0,0:0:0:0:
448,192,12909,1,0,0:0:0:0:
320,192,12909,1,0,0:0:0:0:
192,192,12948,1,0,0:0:0:0:
64,192,12986,1,0,0:0:0:0:
320,192,13025,1,0,0:0:0:0:
448,192,13063,1,0,0:0:0:0:
192,192,13102,1,0,0:0:0:0:
64,192,13140,1,0,0:0:0:0:
448,192,13178,1,0,0:0:0:0:
320,192,13217,1,0,0:0:0:0:
192,192,13255,1,0,0:0:0:0:
64,192,13255,1,0,0:0:0:0:
448,192,13294,1,0,0:0:0:0:
320,192,13332,1,0,0:0:0:0:
192,192,13371,1,0,0:0:0:0:
448,192,13409,1,0,0:0:0:0:
64,192,13448,1,0,0:0:0:0:
192,192,13486,1,0,0:0:0:0:
320,192,13486,1,0,0:0:0:0:
448,192,13525,1,0,0:0:0:0:
64,192,13563,1,0,0:0:0:0:
192,192,13602,1,0,0:0:0:0:
320,192,13640,1,0,0:0:0:0:
448,192,13678,1,0,0:0:0:0:
64,192,13717,1,0,0:0:0:0:
192,192,13755,1,0,0:0:0:0:
320,192,13794,1,0,0:0:0:0:
448,192,13832,1,0,0:0:0:0:
320,192,13871,1,0,0:0:0:0:
192,192,13909,1,0,0:0:0:0:
64,192,13948,1,0,0:0:0:0:
448,192,13948,1,0,0:0:0:0:
320,192,13986,1,0,0:0:0:0:
192,192,14025,1,0,0:0:0:0:
64,192,14063,1,0,0:0:0:0:
192,192,14102,1,0,0:0:0:0:
320,192,14140,1,0,0:0:0:0:
448,192,14178,1,0,0:0:0:0:
64,192,14217,1,0,0:0:0:0:
192,192,14255,1,0,0:0:0:0:
320,192,14294,1,0,0:0:0:0:
448,192,14332,1,0,0:0:0:0:
320,192,14371,1,0,0:0:0:0:
64,192,14409,1,0,0:0:0:0:
192,192,14409,1,0,0:0:0:0:
448,192,14448,1,0,0:0:0:0:
320,192,14486,1,0,0:0:0:0:
192,192,14525,1,0,0:0:0:0:
64,192,14563,1,0,0:0:0:0:
192,192,14602,1,0,0:0:0:0:
320,192,14640,1,0,0:0:0:0:
448,192,14678,1,0,0:0:0:0:
64,192,14717,1,0,0:0:0:0:
192,192,14755,1,0,0:0:0:0:
448,192,14755,1,0,0:0:0:0:
320,192,14794,1,0,0:0:0:0:
192,192,14832,1,0,0:0:0:0:
64,192,14871,1,0,0:0:0:0:
320,192,14909,1,0,0:0:0:0:
448,192,14948,1,0,0:0:0:0:
64,192,14986,1,0,0:0:0:0:
192,192,15025,1,0,0:0:0:0:
320,192,15063,1,0,0:0:0:0:
448,192,15102,1,0,0:0:0:0:
64,192,15102,1,0,0:0:0:0:
192,192,15140,1,0,0:0:0:0:
320,192,15178,1,0,0:0:0:0:
448,192,15217,1,0,0:0:0:0:
192,192,15255,1,0,0:0:0:0:
320,192,15294,1,0,0:0:0:0:
448,192,15332,1,0,0:0:0:0:
64,192,15332,1,0,0:0:0:0:
192,192,15448,1,0,0:0:0:0:
320,192,15448,1,0,0:0:0:0:
64,192,15563,1,0,0:0:0:0:
448,192,15563,1,0,0:0:0:0:
192,192,15678,1,0,0:0:0:0:
320,192,15678,1,0,0:0:0:0:
64,192,15794,128,0,16025:0:0:0:0:
448,192,15794,128,0,16025:0:0:0:0:
192,192,16025,128,0,16255:0:0:0:0:
320,192,16025,128,0,16255:0:0:0:0:
64,192,16255,1,0,0:0:0:0:
448,192,16255,1,0,0:0:0:0:
64,192,16371,1,0,0:0:0:0:
192,192,16486,1,0,0:0:0:0:
320,192,16486,1,0,0:0:0:0:
448,192,16486,1,0,0:0:0:0:
64,192,16602,1,0,0:0:0:0:
320,192,16602,1,0,0:0:0:0:
64,192,16717,1,0,0:0:0:0:
320,192,16717,1,0,0:0:0:0:
448,192,16717,1,0,0:0:0:0:
192,192,16717,1,0,0:0:0:0:
192,192,16832,1,0,0:0:0:0:
192,192,16948,1,0,0:0:0:0:
320,192,16948,1,0,0:0:0:0:
448,192,16948,1,0,0:0:0:0:
320,192,17063,1,0,0:0:0:0:
448,192,17063,1,0,0:0:0:0:
192,192,17178,1,0,0:0:0:0:
64,192,17178,1,0,0:0:0:0:
320,192,17178,1,0,0:0:0:0:
448,192,17178,1,0,0:0:0:0:
64,192,17294,1,0,0:0:0:0:
192,192,17409,1,0,0:0:0:0:
320,192,17409,1,0,0:0:0:0:
448,192,17409,1,0,0:0:0:0:
320,192,17525,1,0,0:0:0:0:
64,192,17525,1,0,0:0:0:0:
192,192,17640,1,0,0:0:0:0:
320,192,17640,1,0,0:0:0:0:
448,192,17640,1,0,0:0:0:0:
64,192,17640,1,0,0:0:0:0:
192,192,17755,1,0,0:0:0:0:
64,192,17871,1,0,0:0:0:0:
320,192,17871,1,0,0:0:0:0:
448,192,17871,1,0,0:0:0:0:
320,192,17986,1,0,0:0:0:0:
448,192,18102,1,0,0:0:0:0:
64,192,18102,1,0,0:0:0:0:
192,192,18102,1,0,0:0:0:0:
320,192,18102,1,0,0:0:0:0:
448,192,18217,1,0,0:0:0:0:
64,192,18332,1,0,0:0:0:0:
320,192,18332,1,0,0:0:0:0:
192,192,18332,1,0,0:0:0:0:
448,192,18448,1,0,0:0:0:0:
64,192,18448,1,0,0:0:0:0:
192,192,18563,1,0,0:0:0:0:
320,192,18563,1,0,0:0:0:0:
448,192,18563,1,0,0:0:0:0:
64,192,18563,1,0,0:0:0:0:
320,192,18678,1,0,0:0:0:0:
192,192,18794,1,0,0:0:0:0:
320,192,18794,1,0,0:0:0:0:
64,192,18794,1,0,0:0:0:0:
192,192,18909,1,0,0:0:0:0:
64,192,18909,1,0,0:0:0:0:
64,192,19025,1,0,0:0:0:0:
192,192,19025,1,0,0:0:0:0:
320,192,19025,1,0,0:0:0:0:
448,192,19025,1,0,0:0:0:0:
320,192,19140,1,0,0:0:0:0:
64,192,19255,1,0,0:0:0:0:
192,192,19255,1,0,0:0:0:0:
448,192,19255,1,0,0:0:0:0:
320,192,19371,1,0,0:0:0:0:
64,192,19371,1,0,0:0:0:0:
64,192,19486,1,0,0:0:0:0:
192,192,19486,1,0,0:0:0:0:
320,192,19486,1,0,0:0:0:0:
448,192,19486,1,0,0:0:0:0:
192,192,19602,1,0,0:0:0:0:
64,192,19717,1,0,0:0:0:0:
320,192,19717,1,0,0:0:0:0:
448,192,19717,1,0,0:0:0:0:
320,192,19832,1,0,0:0:0:0:
64,192,19948,1,0,0:0:0:0:
192,192,19948,1,0,0:0:0:0:
448,192,19948,1,0,0:0:0:0:
320,192,19948,1,0,0:0:0:0:
192,192,20063,1,0,0:0:0:0:
64,192,20178,1,0,0:0:0:0:
320,192,20178,1,0,0:0:0:0:
448,192,20178,1,0,0:0:0:0:
448,192,20294,1,0,0:0:0:0:
192,192,20294,1,0,0:0:0:0:
448,192,20409,1,0,0:0:0:0:
320,192,20409,1,0,0:0:0:0:
192,192,20409,1,0,0:0:0:0:
64,192,20409,1,0,0:0:0:0:
192,192,20525,1,0,0:0:0:0:
64,192,20640,1,0,0:0:0:0:
320,192,20640,1,0,0:0:0:0:
448,192,20640,1,0,0:0:0:0:
448,192,20755,1,0,0:0:0:0:
320,192,20755,1,0,0:0:0:0:
64,192,20871,1,0,0:0:0:0:
192,192,20871,1,0,0:0:0:0:
448,192,20871,1,0,0:0:0:0:
320,192,20871,1,0,0:0:0:0:
192,192,20986,1,0,0:0:0:0:
64,192,21102,1,0,0:0:0:0:
320,192,21102,1,0,0:0:0:0:
448,192,21102,1,0,0:0:0:0:
192,192,21217,1,0,0:0:0:0:
448,192,21217,1,0,0:0:0:0:
64,192,21332,1,0,0:0:0:0:
192,192,21332,1,0,0:0:0:0:
448,192,21332,1,0,0:0:0:0:
320,192,21332,1,0,0:0:0:0:
64,192,21448,1,0,0:0:0:0:
320,192,21448,1,0,0:0:0:0:
192,192,21563,1,0,0:0:0:0:
448,192,21563,1,0,0:0:0:0:
64,192,21563,1,0,0:0:0:0:
448,192,21678,1,0,0:0:0:0:
192,192,21678,1,0,0:0:0:0:
64,192,21794,1,0,0:0:0:0:
192,192,21794,1,0,0:0:0:0:
320,192,21794,1,0,0:0:0:0:
448,192,21794,1,0,0:0:0:0:
64,192,21909,1,0,0:0:0:0:
320,192,21909,1,0,0:0:0:0:
320,192,22025,1,0,0:0:0:0:
448,192,22025,1,0,0:0:0:0:
192,192,22025,1,0,0:0:0:0:
64,192,22140,1,0,0:0:0:0:
448,192,22140,1,0,0:0:0:0:
64,192,22255,1,0,0:0:0:0:
448,192,22255,1,0,0:0:0:0:
320,192,22255,1,0,0:0:0:0:
192,192,22255,1,0,0:0:0:0:
320,192,22371,1,0,0:0:0:0:
192,192,22371,1,0,0:0:0:0:
64,192,22486,1,0,0:0:0:0:
320,192,22486,1,0,0:0:0:0:
448,192,22486,1,0,0:0:0:0:
64,192,22602,1,0,0:0:0:0:
192,192,22602,1,0,0:0:0:0:
320,192,22717,1,0,0:0:0:0:
448,192,22717,1,0,0:0:0:0:
320,192,22832,1,0,0:0:0:0:
448,192,22832,1,0,0:0:0:0:
320,192,22948,1,0,0:0:0:0:
448,192,22948,1,0,0:0:0:0:
320,192,23063,1,0,0:0:0:0:
448,192,23063,1,0,0:0:0:0:
64,192,23178,1,0,0:0:0:0:
192,192,23178,1,0,0:0:0:0:
64,192,23294,1,0,0:0:0:0:
192,192,23294,1,0,0:0:0:0:
64,192,23409,1,0,0:0:0:0:
192,192,23409,1,0,0:0:0:0:
64,192,23525,1,0,0:0:0:0:
192,192,23525,1,0,0:0:0:0:
448,192,23640,1,0,0:0:0:0:
64,192,23640,1,0,0:0:0:0:
320,192,23640,1,0,0:0:0:0:
192,192,23640,1,0,0:0:0:0:
448,192,23755,1,0,0:0:0:0:
320,192,23871,1,0,0:0:0:0:
192,192,23871,1,0,0:0:0:0:
64,192,23871,1,0,0:0:0:0:
448,192,23986,1,0,0:0:0:0:
192,192,23986,1,0,0:0:0:0:
448,192,24102,1,0,0:0:0:0:
192,192,24102,1,0,0:0:0:0:
64,192,24102,1,0,0:0:0:0:
320,192,24102,1,0,0:0:0:0:
320,192,24217,1,0,0:0:0:0:
320,192,24332,1,0,0:0:0:0:
192,192,24332,1,0,0:0:0:0:
64,192,24332,1,0,0:0:0:0:
192,192,24448,1,0,0:0:0:0:
64,192,24448,1,0,0:0:0:0:
320,192,24563,1,0,0:0:0:0:
448,192,24563,1,0,0:0:0:0:
192,192,24563,1,0,0:0:0:0:
64,192,24563,1,0,0:0:0:0:
448,192,24678,1,0,0:0:0:0:
320,192,24794,1,0,0:0:0:0:
192,192,24794,1,0,0:0:0:0:
64,192,24794,1,0,0:0:0:0:
192,192,24909,1,0,0:0:0:0:
448,192,24909,1,0,0:0:0:0:
320,192,25025,1,0,0:0:0:0:
192,192,25025,1,0,0:0:0:0:
64,192,25025,1,0,0:0:0:0:
448,192,25025,1,0,0:0:0:0:
320,192,25140,1,0,0:0:0:0:
448,192,25255,1,0,0:0:0:0:
192,192,25255,1,0,0:0:0:0:
64,192,25255,1,0,0:0:0:0:
192,192,25371,1,0,0:0:0:0:
64,192,25486,1,0,0:0:0:0:
448,192,25486,1,0,0:0:0:0:
320,192,25486,1,0,0:0:0:0:
192,192,25486,1,0,0:0:0:0:
64,192,25602,1,0,0:0:0:0:
448,192,25717,1,0,0:0:0:0:
192,192,25717,1,0,0:0:0:0:
320,192,25717,1,0,0:0:0:0:
64,192,25832,1,0,0:0:0:0:
448,192,25832,1,0,0:0:0:0:
320,192,25948,1,0,0:0:0:0:
192,192,25948,1,0,0:0:0:0:
64,192,25948,1,0,0:0:0:0:
448,192,25948,1,0,0:0:0:0:
192,192,26063,1,0,0:0:0:0:
320,192,26178,1,0,0:0:0:0:
192,192,26178,1,0,0:0:0:0:
448,192,26178,1,0,0:0:0:0:
320,192,26294,1,0,0:0:0:0:
448,192,26294,1,0,0:0:0:0:
448,192,26409,1,0,0:0:0:0:
320,192,26409,1,0,0:0:0:0:
192,192,26409,1,0,0:0:0:0:
64,192,26409,1,0,0:0:0:0:
192,192,26525,1,0,0:0:0:0:
448,192,26640,1,0,0:0:0:0:
320,192,26640,1,0,0:0:0:0:
64,192,26640,1,0,0:0:0:0:
192,192,26755,1,0,0:0:0:0:
448,192,26755,1,0,0:0:0:0:
448,192,26871,1,0,0:0:0:0:
320,192,26871,1,0,0:0:0:0:
192,192,26871,1,0,0:0:0:0:
64,192,26871,1,0,0:0:0:0:
320,192,26986,1,0,0:0:0:0:
448,192,27102,1,0,0:0:0:0:
192,192,27102,1,0,0:0:0:0:
64,192,27102,1,0,0:0:0:0:
192,192,27217,1,0,0:0:0:0:
448,192,27332,1,0,0:0:0:0:
320,192,27332,1,0,0:0:0:0:
64,192,27332,1,0,0:0:0:0:
192,192,27332,1,0,0:0:0:0:
320,192,27448,1,0,0:0:0:0:
448,192,27563,1,0,0:0:0:0:
192,192,27563,1,0,0:0:0:0:
64,192,27563,1,0,0:0:0:0:
64,192,27678,1,0,0:0:0:0:
320,192,27678,1,0,0:0:0:0:
64,192,27794,1,0,0:0:0:0:
192,192,27794,1,0,0:0:0:0:
320,192,27794,1,0,0:0:0:0:
448,192,27794,1,0,0:0:0:0:
320,192,27909,1,0,0:0:0:0:
448,192,28025,1,0,0:0:0:0:
192,192,28025,1,0,0:0:0:0:
64,192,28025,1,0,0:0:0:0:
64,192,28140,1,0,0:0:0:0:
192,192,28140,1,0,0:0:0:0:
448,192,28255,1,0,0:0:0:0:
320,192,28255,1,0,0:0:0:0:
64,192,28255,1,0,0:0:0:0:
192,192,28255,1,0,0:0:0:0:
320,192,28371,1,0,0:0:0:0:
448,192,28486,1,0,0:0:0:0:
192,192,28486,1,0,0:0:0:0:
64,192,28486,1,0,0:0:0:0:
320,192,28602,1,0,0:0:0:0:
64,192,28602,1,0,0:0:0:0:
448,192,28717,1,0,0:0:0:0:
320,192,28717,1,0,0:0:0:0:
64,192,28717,1,0,0:0:0:0:
192,192,28717,1,0,0:0:0:0:
448,192,28832,1,0,0:0:0:0:
192,192,28832,1,0,0:0:0:0:
320,192,28948,1,0,0:0:0:0:
64,192,28948,1,0,0:0:0:0:
448,192,28948,1,0,0:0:0:0:
64,192,29063,1,0,0:0:0:0:
320,192,29063,1,0,0:0:0:0:
448,192,29178,1,0,0:0:0:0:
320,192,29178,1,0,0:0:0:0:
192,192,29178,1,0,0:0:0:0:
64,192,29178,1,0,0:0:0:0:
448,192,29294,1,0,0:0:0:0:
192,192,29294,1,0,0:0:0:0:
192,192,29409,1,0,0:0:0:0:
64,192,29409,1,0,0:0:0:0:
320,192,29409,1,0,0:0:0:0:
448,192,29525,1,0,0:0:0:0:
64,192,29525,1,0,0:0:0:0:
448,192,29640,1,0,0:0:0:0:
64,192,29640,1,0,0:0:0:0:
192,192,29640,1,0,0:0:0:0:
320,192,29640,1,0,0:0:0:0:
192,192,29755,1,0,0:0:0:0:
320,192,29755,1,0,0:0:0:0:
448,192,29871,1,0,0:0:0:0:
192,192,29871,1,0,0:0:0:0:
64,192,29871,1,0,0:0:0:0:
448,192,29986,1,0,0:0:0:0:
192,192,30102,1,0,0:0:0:0:
320,192,30102,1,0,0:0:0:0:
64,192,30217,1,0,0:0:0:0:
448,192,30217,1,0,0:0:0:0:
192,192,30332,1,0,0:0:0:0:
320,192,30332,1,0,0:0:0:0:
64,192,30448,1,0,0:0:0:0:
448,192,30448,1,0,0:0:0:0:
192,192,30563,128,0,30794:0:0:0:0:
320,192,30563,128,0,30794:0:0:0:0:
448,192,30794,128,0,31025:0:0:0:0:
64,192,30794,128,0,31025:0:0:0:0:
192,192,31025,1,0,0:0:0:0:
320,192,31025,1,0,0:0:0:0:
320,192,31140,1,0,0:0:0:0:
64,192,31140,1,0,0:0:0:0:
192,192,31255,1,0,0:0:0:0:
448,192,31255,1,0,0:0:0:0:
192,192,31371,1,0,0:0:0:0:
64,192,31371,1,0,0:0:0:0:
320,192,31371,1,0,0:0:0:0:
64,192,31486,1,0,0:0:0:0:
320,192,31486,1,0,0:0:0:0:
448,192,31486,1,0,0:0:0:0:
192,192,31486,1,0,0:0:0:0:
320,192,31602,1,0,0:0:0:0:
192,192,31717,1,0,0:0:0:0:
64,192,31717,1,0,0:0:0:0:
448,192,31717,1,0,0:0:0:0:
192,192,31832,1,0,0:0:0:0:
320,192,31832,1,0,0:0:0:0:
448,192,31832,1,0,0:0:0:0:
64,192,31948,1,0,0:0:0:0:
320,192,31948,1,0,0:0:0:0:
192,192,31948,1,0,0:0:0:0:
64,192,32063,1,0,0:0:0:0:
192,192,32178,1,0,0:0:0:0:
320,192,32178,1,0,0:0:0:0:
448,192,32178,1,0,0:0:0:0:
64,192,32294,1,0,0:0:0:0:
320,192,32294,1,0,0:0:0:0:
448,192,32294,1,0,0:0:0:0:
64,192,32409,1,0,0:0:0:0:
192,192,32409,1,0,0:0:0:0:
448,192,32409,1,0,0:0:0:0:
192,192,32525,1,0,0:0:0:0:
64,192,32640,1,0,0:0:0:0:
320,192,32640,1,0,0:0:0:0:
448,192,32640,1,0,0:0:0:0:
320,192,32755,1,0,0:0:0:0:
64,192,32871,1,0,0:0:0:0:
192,192,32871,1,0,0:0:0:0:
448,192,32871,1,0,0:0:0:0:
320,192,32986,1,0,0:0:0:0:
192,192,32986,1,0,0:0:0:0:
64,192,32986,1,0,0:0:0:0:
448,192,33102,1,0,0:0:0:0:
320,192,33102,1,0,0:0:0:0:
192,192,33102,1,0,0:0:0:0:
64,192,33217,1,0,0:0:0:0:
448,192,33217,1,0,0:0:0:0:
320,192,33217,1,0,0:0:0:0:
64,192,33332,1,0,0:0:0:0:
192,192,33332,1,0,0:0:0:0:
448,192,33332,1,0,0:0:0:0:
320,192,33448,1,0,0:0:0:0:
192,192,33448,1,0,0:0:0:0:
64,192,33448,1,0,0:0:0:0:
448,192,33563,1,0,0:0:0:0:
320,192,33563,1,0,0:0:0:0:
192,192,33563,1,0,0:0:0:0:
64,192,33678,1,0,0:0:0:0:
320,192,33678,1,0,0:0:0:0:
448,192,33678,1,0,0:0:0:0:
192,192,33794,1,0,0:0:0:0:
64,192,33794,1,0,0:0:0:0:
448,192,33794,1,0,0:0:0:0:
192,192,33909,1,0,0:0:0:0:
64,192,34025,1,0,0:0:0:0:
320,192,34025,1,0,0:0:0:0:
448,192,34025,1,0,0:0:0:0:
192,192,34140,1,0,0:0:0:0:
64,192,34140,1,0,0:0:0:0:
320,192,34140,1,0,0:0:0:0:
448,192,34255,1,0,0:0:0:0:
192,192,34255,1,0,0:0:0:0:
64,192,34255,1,0,0:0:0:0:
448,192,34371,1,0,0:0:0:0:
192,192,34486,1,0,0:0:0:0:
320,192,34486,1,0,0:0:0:0:
64,192,34486,1,0,0:0:0:0:
320,192,34602,1,0,0:0:0:0:
448,192,34602,1,0,0:0:0:0:
192,192,34602,1,0,0:0:0:0:
64,192,34717,1,0,0:0:0:0:
192,192,34717,1,0,0:0:0:0:
448,192,34717,1,0,0:0:0:0:
320,192,34832,1,0,0:0:0:0:
64,192,34832,1,0,0:0:0:0:
448,192,34832,1,0,0:0:0:0:
320,192,34948,1,0,0:0:0:0:
192,192,34948,1,0,0:0:0:0:
320,192,35063,1,0,0:0:0:0:
64,192,35063,1,0,0:0:0:0:
192,192,35063,1,0,0:0:0:0:
64,192,35178,1,0,0:0:0:0:
192,192,35178,1,0,0:0:0:0:
320,192,35178,1,0,0:0:0:0:
448,192,35178,1,0,0:0:0:0:
64,192,35294,1,0,0:0:0:0:
448,192,35294,1,0,0:0:0:0:
192,192,35294,1,0,0:0:0:0:
320,192,35409,1,0,0:0:0:0:
448,192,35409,1,0,0:0:0:0:
64,192,35525,1,0,0:0:0:0:
320,192,35525,1,0,0:0:0:0:
192,192,35525,1,0,0:0:0:0:
192,192,35640,1,0,0:0:0:0:
448,192,35640,1,0,0:0:0:0:
64,192,35640,1,0,0:0:0:0:
320,192,35755,1,0,0:0:0:0:
448,192,35755,1,0,0:0:0:0:
64,192,35755,1,0,0:0:0:0:
192,192,35871,1,0,0:0:0:0:
320,192,35871,1,0,0:0:0:0:
64,192,35986,1,0,0:0:0:0:
192,192,35986,1,0,0:0:0:0:
448,192,35986,1,0,0:0:0:0:
320,192,36102,1,0,0:0:0:0:
64,192,36102,1,0,0:0:0:0:
192,192,36102,1,0,0:0:0:0:
448,192,36102,1,0,0:0:0:0:
320,192,36217,1,0,0:0:0:0:
192,192,36332,1,0,0:0:0:0:
64,192,36332,1,0,0:0:0:0:
64,192,36448,1,0,0:0:0:0:
320,192,36448,1,0,0:0:0:0:
448,192,36448,1,0,0:0:0:0:
192,192,36563,1,0,0:0:0:0:
320,192,36563,1,0,0:0:0:0:
448,192,36563,1,0,0:0:0:0:
64,192,36678,1,0,0:0:0:0:
192,192,36678,1,0,0:0:0:0:
448,192,36678,1,0,0:0:0:0:
320,192,36794,1,0,0:0:0:0:
64,192,36794,1,0,0:0:0:0:
192,192,36794,1,0,0:0:0:0:
448,192,36909,1,0,0:0:0:0:
320,192,36909,1,0,0:0:0:0:
64,192,36909,1,0,0:0:0:0:
192,192,37025,1,0,0:0:0:0:
448,192,37025,1,0,0:0:0:0:
320,192,37025,1,0,0:0:0:0:
64,192,37140,1,0,0:0:0:0:
192,192,37140,1,0,0:0:0:0:
448,192,37140,1,0,0:0:0:0:
320,192,37255,1,0,0:0:0:0:
64,192,37255,1,0,0:0:0:0:
192,192,37255,1,0,0:0:0:0:
448,192,37371,1,0,0:0:0:0:
320,192,37371,1,0,0:0:0:0:
64,192,37371,1,0,0:0:0:0:
192,192,37486,1,0,0:0:0:0:
448,192,37486,1,0,0:0:0:0:
320,192,37486,1,0,0:0:0:0:
192,192,37602,1,0,0:0:0:0:
64,192,37717,1,0,0:0:0:0:
320,192,37717,1,0,0:0:0:0:
448,192,37717,1,0,0:0:0:0:
192,192,37832,1,0,0:0:0:0:
64,192,37832,1,0,0:0:0:0:
448,192,37832,1,0,0:0:0:0:
320,192,37948,1,0,0:0:0:0:
192,192,37948,1,0,0:0:0:0:
64,192,37948,1,0,0:0:0:0:
320,192,38063,1,0,0:0:0:0:
192,192,38178,1,0,0:0:0:0:
64,192,38178,1,0,0:0:0:0:
448,192,38178,1,0,0:0:0:0:
320,192,38294,1,0,0:0:0:0:
448,192,38294,1,0,0:0:0:0:
192,192,38294,1,0,0:0:0:0:
64,192,38409,1,0,0:0:0:0:
320,192,38409,1,0,0:0:0:0:
448,192,38409,1,0,0:0:0:0:
192,192,38409,1,0,0:0:0:0:
64,192,38525,1,0,0:0:0:0:
320,192,38640,1,0,0:0:0:0:
192,192,38640,1,0,0:0:0:0:
448,192,38640,1,0,0:0:0:0:
320,192,38755,1,0,0:0:0:0:
448,192,38755,1,0,0:0:0:0:
192,192,38871,1,0,0:0:0:0:
64,192,38871,1,0,0:0:0:0:
320,192,38871,1,0,0:0:0:0:
192,192,38986,1,0,0:0:0:0:
64,192,39102,1,0,0:0:0:0:
448,192,39102,1,0,0:0:0:0:
448,192,39217,1,0,0:0:0:0:
320,192,39217,1,0,0:0:0:0:
192,192,39217,1,0,0:0:0:0:
64,192,39332,1,0,0:0:0:0:
320,192,39332,1,0,0:0:0:0:
192,192,39332,1,0,0:0:0:0:
64,192,39448,1,0,0:0:0:0:
448,192,39563,1,0,0:0:0:0:
320,192,39563,1,0,0:0:0:0:
192,192,39563,1,0,0:0:0:0:
320,192,39678,1,0,0:0:0:0:
64,192,39678,1,0,0:0:0:0:
192,192,39678,1,0,0:0:0:0:
448,192,39794,1,0,0:0:0:0:
320,192,39794,1,0,0:0:0:0:
192,192,39794,1,0,0:0:0:0:
64,192,39794,1,0,0:0:0:0:
448,192,39909,1,0,0:0:0:0:
64,192,39909,1,0,0:0:0:0:
192,192,39909,1,0,0:0:0:0:
192,192,40025,1,0,0:0:0:0:
320,192,40025,1,0,0:0:0:0:
320,192,40140,1,0,0:0:0:0:
64,192,40140,1,0,0:0:0:0:
448,192,40140,1,0,0:0:0:0:
192,192,40255,1,0,0:0:0:0:
64,192,40255,1,0,0:0:0:0:
448,192,40255,1,0,0:0:0:0:
320,192,40371,1,0,0:0:0:0:
192,192,40371,1,0,0:0:0:0:
64,192,40371,1,0,0:0:0:0:
448,192,40486,1,0,0:0:0:0:
320,192,40486,1,0,0:0:0:0:
192,192,40486,1,0,0:0:0:0:
64,192,40602,1,0,0:0:0:0:
320,192,40602,1,0,0:0:0:0:
448,192,40602,1,0,0:0:0:0:
192,192,40717,1,0,0:0:0:0:
64,192,40717,1,0,0:0:0:0:
448,192,40717,1,0,0:0:0:0:
192,192,40832,1,0,0:0:0:0:
320,192,40948,1,0,0:0:0:0:
448,192,40948,1,0,0:0:0:0:
64,192,41063,1,0,0:0:0:0:
320,192,41063,1,0,0:0:0:0:
448,192,41063,1,0,0:0:0:0:
192,192,41178,1,0,0:0:0:0:
64,192,41178,1,0,0:0:0:0:
448,192,41178,1,0,0:0:0:0:
320,192,41294,1,0,0:0:0:0:
192,192,41294,1,0,0:0:0:0:
64,192,41294,1,0,0:0:0:0:
320,192,41409,1,0,0:0:0:0:
448,192,41409,1,0,0:0:0:0:
192,192,41525,1,0,0:0:0:0:
64,192,41525,1,0,0:0:0:0:
448,192,41525,1,0,0:0:0:0:
64,192,41640,1,0,0:0:0:0:
192,192,41640,1,0,0:0:0:0:
320,192,41640,1,0,0:0:0:0:
448,192,41640,1,0,0:0:0:0:
320,192,41755,1,0,0:0:0:0:
192,192,41755,1,0,0:0:0:0:
64,192,41755,1,0,0:0:0:0:
320,192,41871,1,0,0:0:0:0:
448,192,41871,1,0,0:0:0:0:
448,192,41986,1,0,0:0:0:0:
64,192,42102,1,0,0:0:0:0:
192,192,42102,1,0,0:0:0:0:
320,192,42102,1,0,0:0:0:0:
448,192,42217,1,0,0:0:0:0:
320,192,42217,1,0,0:0:0:0:
192,192,42217,1,0,0:0:0:0:
64,192,42332,1,0,0:0:0:0:
192,192,42332,1,0,0:0:0:0:
64,192,42448,1,0,0:0:0:0:
320,192,42448,1,0,0:0:0:0:
448,192,42448,1,0,0:0:0:0:
64,192,42563,1,0,0:0:0:0:
192,192,42563,1,0,0:0:0:0:
320,192,42563,1,0,0:0:0:0:
448,192,42563,1,0,0:0:0:0:
192,192,42678,1,0,0:0:0:0:
320,192,42794,1,0,0:0:0:0:
448,192,42794,1,0,0:0:0:0:
192,192,42909,1,0,0:0:0:0:
64,192,42909,1,0,0:0:0:0:
448,192,42909,1,0,0:0:0:0:
64,192,43025,1,0,0:0:0:0:
192,192,43025,1,0,0:0:0:0:
320,192,43025,1,0,0:0:0:0:
448,192,43025,1,0,0:0:0:0:
320,192,43140,1,0,0:0:0:0:
64,192,43140,1,0,0:0:0:0:
192,192,43140,1,0,0:0:0:0:
448,192,43255,1,0,0:0:0:0:
320,192,43255,1,0,0:0:0:0:
192,192,43255,1,0,0:0:0:0:
64,192,43371,1,0,0:0:0:0:
448,192,43371,1,0,0:0:0:0:
320,192,43371,1,0,0:0:0:0:
192,192,43486,1,0,0:0:0:0:
64,192,43486,1,0,0:0:0:0:
448,192,43486,1,0,0:0:0:0:
192,192,43602,1,0,0:0:0:0:
320,192,43717,1,0,0:0:0:0:
448,192,43717,1,0,0:0:0:0:
64,192,43717,1,0,0:0:0:0:
320,192,43832,1,0,0:0:0:0:
192,192,43948,1,0,0:0:0:0:
320,192,43948,1,0,0:0:0:0:
64,192,44063,1,0,0:0:0:0:
448,192,44178,1,0,0:0:0:0:
320,192,44178,1,0,0:0:0:0:
320,192,44294,1,0,0:0:0:0:
192,192,44294,1,0,0:0:0:0:
448,192,44294,1,0,0:0:0:0:
64,192,44409,1,0,0:0:0:0:
192,192,44409,1,0,0:0:0:0:
320,192,44409,1,0,0:0:0:0:
192,192,44525,1,0,0:0:0:0:
64,192,44640,1,0,0:0:0:0:
320,192,44640,1,0,0:0:0:0:
448,192,44640,1,0,0:0:0:0:
320,192,44755,1,0,0:0:0:0:
64,192,44871,1,0,0:0:0:0:
192,192,44871,1,0,0:0:0:0:
448,192,44871,1,0,0:0:0:0:
448,192,44986,1,0,0:0:0:0:
64,192,45102,1,0,0:0:0:0:
192,192,45102,1,0,0:0:0:0:
320,192,45102,1,0,0:0:0:0:
64,192,45217,1,0,0:0:0:0:
448,192,45332,128,0,45563:0:0:0:0:
64,192,45332,128,0,45563:0:0:0:0:
320,192,45563,128,0,45794:0:0:0:0:
192,192,45563,128,0,45794:0:0:0:0:
448,192,45794,1,0,0:0:0:0:
64,192,45794,1,0,0:0:0:0:
448,192,45909,1,0,0:0:0:0:
320,192,46025,1,0,0:0:0:0:
192,192,46025,1,0,0:0:0:0:
64,192,46025,1,0,0:0:0:0:
448,192,46140,1,0,0:0:0:0:
192,192,46140,1,0,0:0:0:0:
448,192,46255,1,0,0:0:0:0:
192,192,46255,1,0,0:0:0:0:
64,192,46255,1,0,0:0:0:0:
320,192,46255,1,0,0:0:0:0:
320,192,46371,1,0,0:0:0:0:
320,192,46486,1,0,0:0:0:0:
192,192,46486,1,0,0:0:0:0:
64,192,46486,1,0,0:0:0:0:
192,192,46602,1,0,0:0:0:0:
64,192,46602,1,0,0:0:0:0:
320,192,46717,1,0,0:0:0:0:
448,192,46717,1,0,0:0:0:0:
192,192,46717,1,0,0:0:0:0:
64,192,46717,1,0,0:0:0:0:
448,192,46832,1,0,0:0:0:0:
320,192,46948,1,0,0:0:0:0:
192,192,46948,1,0,0:0:0:0:
64,192,46948,1,0,0:0:0:0:
192,192,47063,1,0,0:0:0:0:
448,192,47063,1,0,0:0:0:0:
320,192,47178,1,0,0:0:0:0:
192,192,47178,1,0,0:0:0:0:
64,192,47178,1,0,0:0:0:0:
448,192,47178,1,0,0:0:0:0:
320,192,47294,1,0,0:0:0:0:
448,192,47409,1,0,0:0:0:0:
192,192,47409,1,0,0:0:0:0:
64,192,47409,1,0,0:0:0:0:
192,192,47525,1,0,0:0:0:0:
64,192,47640,1,0,0:0:0:0:
448,192,47640,1,0,0:0:0:0:
320,192,47640,1,0,0:0:0:0:
192,192,47640,1,0,0:0:0:0:
64,192,47755,1,0,0:0:0:0:
448,192,47871,1,0,0:0:0:0:
192,192,47871,1,0,0:0:0:0:
320,192,47871,1,0,0:0:0:0:
64,192,47986,1,0,0:0:0:0:
448,192,47986,1,0,0:0:0:0:
320,192,48102,1,0,0:0:0:0:
192,192,48102,1,0,0:0:0:0:
64,192,48102,1,0,0:0:0:0:
448,192,48102,1,0,0:0:0:0:
192,192,48217,1,0,0:0:0:0:
320,192,48332,1,0,0:0:0:0:
192,192,48332,1,0,0:0:0:0:
448,192,48332,1,0,0:0:0:0:
320,192,48448,1,0,0:0:0:0:
448,192,48448,1,0,0:0:0:0:
448,192,48563,1,0,0:0:0:0:
320,192,48563,1,0,0:0:0:0:
192,192,48563,1,0,0:0:0:0:
64,192,48563,1,0,0:0:0:0:
192,192,48678,1,0,0:0:0:0:
448,192,48794,1,0,0:0:0:0:
320,192,48794,1,0,0:0:0:0:
64,192,48794,1,0,0:0:0:0:
192,192,48909,1,0,0:0:0:0:
448,192,48909,1,0,0:0:0:0:
448,192,49025,1,0,0:0:0:0:
320,192,49025,1,0,0:0:0:0:
192,192,49025,1,0,0:0:0:0:
64,192,49025,1,0,0:0:0:0:
320,192,49140,1,0,0:0:0:0:
448,192,49255,1,0,0:0:0:0:
192,192,49255,1,0,0:0:0:0:
64,192,49255,1,0,0:0:0:0:
192,192,49371,1,0,0:0:0:0:
448,192,49486,1,0,0:0:0:0:
320,192,49486,1,0,0:0:0:0:
64,192,49486,1,0,0:0:0:0:
192,192,49486,1,0,0:0:0:0:
320,192,49602,1,0,0:0:0:0:
448,192,49717,1,0,0:0:0:0:
192,192,49717,1,0,0:0:0:0:
64,192,49717,1,0,0:0:0:0:
64,192,49832,1,0,0:0:0:0:
320,192,49832,1,0,0:0:0:0:
64,192,49948,1,0,0:0:0:0:
192,192,49948,1,0,0:0:0:0:
320,192,49948,1,0,0:0:0:0:
448,192,49948,1,0,0:0:0:0:
320,192,50063,1,0,0:0:0:0:
448,192,50178,1,0,0:0:0:0:
192,192,50178,1,0,0:0:0:0:
64,192,50178,1,0,0:0:0:0:
64,192,50294,1,0,0:0:0:0:
192,192,50294,1,0,0:0:0:0:
448,192,50409,1,0,0:0:0:0:
320,192,50409,1,0,0:0:0:0:
64,192,50409,1,0,0:0:0:0:
192,192,50409,1,0,0:0:0:0:
320,192,50525,1,0,0:0:0:0:
448,192,50640,1,0,0:0:0:0:
192,192,50640,1,0,0:0:0:0:
64,192,50640,1,0,0:0:0:0:
320,192,50755,1,0,0:0:0:0:
64,192,50755,1,0,0:0:0:0:
448,192,50871,1,0,0:0:0:0:
320,192,50871,1,0,0:0:0:0:
64,192,50871,1,0,0:0:0:0:
192,192,50871,1,0,0:0:0:0:
448,192,50986,1,0,0:0:0:0:
192,192,50986,1,0,0:0:0:0:
320,192,51102,1,0,0:0:0:0:
64,192,51102,1,0,0:0:0:0:
448,192,51102,1,0,0:0:0:0:
64,192,51217,1,0,0:0:0:0:
320,192,51217,1,0,0:0:0:0:
448,192,51332,1,0,0:0:0:0:
320,192,51332,1,0,0:0:0:0:
192,192,51332,1,0,0:0:0:0:
64,192,51332,1,0,0:0:0:0:
448,192,51448,1,0,0:0:0:0:
192,192,51448,1,0,0:0:0:0:
192,192,51563,1,0,0:0:0:0:
64,192,51563,1,0,0:0:0:0:
320,192,51563,1,0,0:0:0:0:
448,192,51678,1,0,0:0:0:0:
64,192,51678,1,0,0:0:0:0:
448,192,51794,1,0,0:0:0:0:
64,192,51794,1,0,0:0:0:0:
192,192,51794,1,0,0:0:0:0:
320,192,51794,1,0,0:0:0:0:
192,192,51909,1,0,0:0:0:0:
320,192,51909,1,0,0:0:0:0:
448,192,52025,1,0,0:0:0:0:
192,192,52025,1,0,0:0:0:0:
64,192,52025,1,0,0:0:0:0:
448,192,52140,1,0,0:0:0:0:
320,192,52140,1,0,0:0:0:0:
192,192,52255,1,0,0:0:0:0:
64,192,52255,1,0,0:0:0:0:
192,192,52371,1,0,0:0:0:0:
64,192,52371,1,0,0:0:0:0:
192,192,52486,1,0,0:0:0:0:
64,192,52486,1,0,0:0:0:0:
192,192,52602,1,0,0:0:0:0:
64,192,52602,1,0,0:0:0:0:
448,192,52717,1,0,0:0:0:0:
320,192,52717,1,0,0:0:0:0:
448,192,52832,1,0,0:0:0:0:
320,192,52832,1,0,0:0:0:0:
448,192,52948,1,0,0:0:0:0:
320,192,52948,1,0,0:0:0:0:
448,192,53063,1,0,0:0:0:0:
320,192,53063,1,0,0:0:0:0:
64,192,53178,1,0,0:0:0:0:
448,192,53178,1,0,0:0:0:0:
192,192,53178,1,0,0:0:0:0:
320,192,53178,1,0,0:0:0:0:
64,192,53294,1,0,0:0:0:0:
192,192,53409,1,0,0:0:0:0:
320,192,53409,1,0,0:0:0:0:
448,192,53409,1,0,0:0:0:0:
64,192,53525,1,0,0:0:0:0:
320,192,53525,1,0,0:0:0:0:
64,192,53640,1,0,0:0:0:0:
320,192,53640,1,0,0:0:0:0:
448,192,53640,1,0,0:0:0:0:
192,192,53640,1,0,0:0:0:0:
192,192,53755,1,0,0:0:0:0:
192,192,53871,1,0,0:0:0:0:
320,192,53871,1,0,0:0:0:0:
448,192,53871,1,0,0:0:0:0:
320,192,53986,1,0,0:0:0:0:
448,192,53986,1,0,0:0:0:0:
192,192,54102,1,0,0:0:0:0:
64,192,54102,1,0,0:0:0:0:
320,192,54102,1,0,0:0:0:0:
448,192,54102,1,0,0:0:0:0:
64,192,54217,1,0,0:0:0:0:
192,192,54332,1,0,0:0:0:0:
320,192,54332,1,0,0:0:0:0:
448,192,54332,1,0,0:0:0:0:
320,192,54448,1,0,0:0:0:0:
64,192,54448,1,0,0:0:0:0:
192,192,54563,1,0,0:0:0:0:
320,192,54563,1,0,0:0:0:0:
448,192,54563,1,0,0:0:0:0:
64,192,54563,1,0,0:0:0:0:
192,192,54678,1,0,0:0:0:0:
64,192,54794,1,0,0:0:0:0:
320,192,54794,1,0,0:0:0:0:
448,192,54794,1,0,0:0:0:0:
320,192,54909,1,0,0:0:0:0:
448,192,55025,1,0,0:0:0:0:
64,192,55025,1,0,0:0:0:0:
192,192,55025,1,0,0:0:0:0:
320,192,55025,1,0,0:0:0:0:
448,192,55140,1,0,0:0:0:0:
64,192,55255,1,0,0:0:0:0:
320,192,55255,1,0,0:0:0:0:
192,192,55255,1,0,0:0:0:0:
448,192,55371,1,0,0:0:0:0:
64,192,55371,1,0,0:0:0:0:
192,192,55486,1,0,0:0:0:0:
320,192,55486,1,0,0:0:0:0:
448,192,55486,1,0,0:0:0:0:
64,192,55486,1,0,0:0:0:0:
320,192,55602,1,0,0:0:0:0:
192,192,55717,1,0,0:0:0:0:
320,192,55717,1,0,0:0:0:0:
64,192,55717,1,0,0:0:0:0:
192,192,55832,1,0,0:0:0:0:
64,192,55832,1,0,0:0:0:0:
64,192,55948,1,0,0:0:0:0:
192,192,55948,1,0,0:0:0:0:
320,192,55948,1,0,0:0:0:0:
448,192,55948,1,0,0:0:0:0:
320,192,56063,1,0,0:0:0:0:
64,192,56178,1,0,0:0:0:0:
192,192,56178,1,0,0:0:0:0:
448,192,56178,1,0,0:0:0:0:
320,192,56294,1,0,0:0:0:0:
64,192,56294,1,0,0:0:0:0:
64,192,56409,1,0,0:0:0:0:
192,192,56409,1,0,0:0:0:0:
320,192,56409,1,0,0:0:0:0:
448,192,56409,1,0,0:0:0:0:
192,192,56525,1,0,0:0:0:0:
64,192,56640,1,0,0:0:0:0:
320,192,56640,1,0,0:0:0:0:
448,192,56640,1,0,0:0:0:0:
320,192,56755,1,0,0:0:0:0:
64,192,56871,1,0,0:0:0:0:
192,192,56871,1,0,0:0:0:0:
448,192,56871,1,0,0:0:0:0:
320,192,56871,1,0,0:0:0:0:
192,192,56986,1,0,0:0:0:0:
64,192,57102,1,0,0:0:0:0:
320,192,57102,1,0,0:0:0:0:
448,192,57102,1,0,0:0:0:0:
448,192,57217,1,0,0:0:0:0:
192,192,57217,1,0,0:0:0:0:
448,192,57332,1,0,0:0:0:0:
320,192,57332,1,0,0:0:0:0:
192,192,57332,1,0,0:0:0:0:
64,192,57332,1,0,0:0:0:0:
192,192,57448,1,0,0:0:0:0:
64,192,57563,1,0,0:0:0:0:
320,192,57563,1,0,0:0:0:0:
448,192,57563,1,0,0:0:0:0:
448,192,57678,1,0,0:0:0:0:
320,192,57678,1,0,0:0:0:0:
64,192,57794,1,0,0:0:0:0:
192,192,57794,1,0,0:0:0:0:
448,192,57794,1,0,0:0:0:0:
320,192,57794,1,0,0:0:0:0:
192,192,57909,1,0,0:0:0:0:
64,192,58025,1,0,0:0:0:0:
320,192,58025,1,0,0:0:0:0:
448,192,58025,1,0,0:0:0:0:
192,192,58140,1,0,0:0:0:0:
448,192,58140,1,0,0:0:0:0:
64,192,58255,1,0,0:0:0:0:
192,192,58255,1,0,0:0:0:0:
448,192,58255,1,0,0:0:0:0:
320,192,58255,1,0,0:0:0:0:
64,192,58371,1,0,0:0:0:0:
320,192,58371,1,0,0:0:0:0:
192,192,58486,1,0,0:0:0:0:
448,192,58486,1,0,0:0:0:0:
64,192,58486,1,0,0:0:0:0:
448,192,58602,1,0,0:0:0:0:
192,192,58602,1,0,0:0:0:0:
64,192,58717,1,0,0:0:0:0:
192,192,58717,1,0,0:0:0:0:
320,192,58717,1,0,0:0:0:0:
448,192,58717,1,0,0:0:0:0:
64,192,58832,1,0,0:0:0:0:
320,192,58832,1,0,0:0:0:0:
320,192,58948,1,0,0:0:0:0:
448,192,58948,1,0,0:0:0:0:
192,192,58948,1,0,0:0:0:0:
64,192,59063,1,0,0:0:0:0:
448,192,59063,1,0,0:0:0:0:
64,192,59178,1,0,0:0:0:0:
448,192,59178,1,0,0:0:0:0:
320,192,59178,1,0,0:0:0:0:
192,192,59178,1,0,0:0:0:0:
320,192,59294,1,0,0:0:0:0:
192,192,59294,1,0,0:0:0:0:
64,192,59409,1,0,0:0:0:0:
320,192,59409,1,0,0:0:0:0:
448,192,59409,1,0,0:0:0:0:
64,192,59525,1,0,0:0:0:0:
320,192,59640,1,0,0:0:0:0:
192,192,59640,1,0,0:0:0:0:
448,192,59755,1,0,0:0:0:0:
64,192,59755,1,0,0:0:0:0:
320,192,59871,1,0,0:0:0:0:
192,192,59871,1,0,0:0:0:0:
448,192,59986,1,0,0:0:0:0:
64,192,59986,1,0,0:0:0:0:
320,192,60102,128,0,60332:0:0:0:0:
192,192,60102,128,0,60332:0:0:0:0:
64,192,60332,128,0,60563:0:0:0:0:
448,192,60332,128,0,60563:0:0:0:0:
192,192,60563,1,0,0:0:0:0:
320,192,60563,1,0,0:0:0:0:
448,192,60602,1,0,0:0:0:0:
64,192,60640,1,0,0:0:0:0:
192,192,60678,1,0,0:0:0:0:
320,192,60717,1,0,0:0:0:0:
448,192,60755,1,0,0:0:0:0:
320,192,60794,1,0,0:0:0:0:
192,192,60832,1,0,0:0:0:0:
64,192,60871,1,0,0:0:0:0:
448,192,60909,1,0,0:0:0:0:
320,192,60909,1,0,0:0:0:0:
192,192,60948,1,0,0:0:0:0:
64,192,60986,1,0,0:0:0:0:
320,192,61025,1,0,0:0:0:0:
448,192,61063,1,0,0:0:0:0:
192,192,61102,1,0,0:0:0:0:
64,192,61140,1,0,0:0:0:0:
448,192,61178,1,0,0:0:0:0:
320,192,61217,1,0,0:0:0:0:
192,192,61255,1,0,0:0:0:0:
64,192,61255,1,0,0:0:0:0:
448,192,61294,1,0,0:0:0:0:
320,192,61332,1,0,0:0:0:0:
192,192,61371,1,0,0:0:0:0:
448,192,61409,1,0,0:0:0:0:
64,192,61448,1,0,0:0:0:0:
192,192,61486,1,0,0:0:0:0:
320,192,61486,1,0,0:0:0:0:
448,192,61525,1,0,0:0:0:0:
64,192,61563,1,0,0:0:0:0:
192,192,61602,1,0,0:0:0:0:
320,192,61640,1,0,0:0:0:0:
448,192,61678,1,0,0:0:0:0:
64,192,61717,1,0,0:0:0:0:
192,192,61755,1,0,0:0:0:0:
320,192,61794,1,0,0:0:0:0:
448,192,61832,1,0,0:0:0:0:
320,192,61871,1,0,0:0:0:0:
192,192,61909,1,0,0:0:0:0:
64,192,61948,1,0,0:0:0:0:
448,192,61948,1,0,0:0:0:0:
320,192,61986,1,0,0:0:0:0:
192,192,62025,1,0,0:0:0:0:
64,192,62063,1,0,0:0:0:0:
192,192,62102,1,0,0:0:0:0:
320,192,62140,1,0,0:0:0:0:
448,192,62178,1,0,0:0:0:0:
64,192,62217,1,0,0:0:0:0:
192,192,62255,1,0,0:0:0:0:
320,192,62294,1,0,0:0:0:0:
448,192,62332,1,0,0:0:0:0:
320,192,62371,1,0,0:0:0:0:
64,192,62409,1,0,0:0:0:0:
192,192,62409,1,0,0:0:0:0:
448,192,62448,1,0,0:0:0:0:
320,192,62486,1,0,0:0:0:0:
192,192,62525,1,0,0:0:0:0:
64,192,62563,1,0,0:0:0:0:
192,192,62602,1,0,0:0:0:0:
320,192,62640,1,0,0:0:0:0:
448,192,62678,1,0,0:0:0:0:
64,192,62717,1,0,0:0:0:0:
192,192,62755,1,0,0:0:0:0:
448,192,62755,1,0,0:0:0:0:
320,192,62794,1,0,0:0:0:0:
192,192,62832,1,0,0:0:0:0:
64,192,62871,1,0,0:0:0:0:
320,192,62909,1,0,0:0:0:0:
448,192,62948,1,0,0:0:0:0:
64,192,62986,1,0,0:0:0:0:
192,192,63025,1,0,0:0:0:0:
320,192,63063,1,0,0:0:0:0:
448,192,63102,1,0,0:0:0:0:
64,192,63102,1,0,0:0:0:0:
192,192,63140,1,0,0:0:0:0:
320,192,63178,1,0,0:0:0:0:
448,192,63217,1,0,0:0:0:0:
192,192,63255,1,0,0:0:0:0:
320,192,63294,1,0,0:0:0:0:
448,192,63332,1,0,0:0:0:0:
64,192,63332,1,0,0:0:0:0:
64,192,63448,1,0,0:0:0:0:
192,192,63563,1,0,0:0:0:0:
320,192,63563,1,0,0:0:0:0:
320,192,63678,1,0,0:0:0:0:
448,192,63678,1,0,0:0:0:0:
64,192,63794,1,0,0:0:0:0:
192,192,63794,1,0,0:0:0:0:
448,192,63794,1,0,0:0:0:0:
192,192,63909,1,0,0:0:0:0:
64,192,64025,1,0,0:0:0:0:
320,192,64025,1,0,0:0:0:0:
64,192,64140,1,0,0:0:0:0:
192,192,64255,1,0,0:0:0:0:
320,192,64255,1,0,0:0:0:0:
448,192,64294,1,0,0:0:0:0:
64,192,64332,1,0,0:0:0:0:
192,192,64371,1,0,0:0:0:0:
320,192,64409,1,0,0:0:0:0:
448,192,64448,1,0,0:0:0:0:
320,192,64486,1,0,0:0:0:0:
192,192,64525,1,0,0:0:0:0:
64,192,64563,1,0,0:0:0:0:
448,192,64602,1,0,0:0:0:0:
320,192,64602,1,0,0:0:0:0:
192,192,64640,1,0,0:0:0:0:
64,192,64678,1,0,0:0:0:0:
320,192,64717,1,0,0:0:0:0:
448,192,64755,1,0,0:0:0:0:
192,192,64794,1,0,0:0:0:0:
64,192,64832,1,0,0:0:0:0:
448,192,64871,1,0,0:0:0:0:
320,192,64909,1,0,0:0:0:0:
192,192,64948,1,0,0:0:0:0:
64,192,64948,1,0,0:0:0:0:
448,192,64986,1,0,0:0:0:0:
320,192,65025,1,0,0:0:0:0:
192,192,65063,1,0,0:0:0:0:
448,192,65102,1,0,0:0:0:0:
64,192,65140,1,0,0:0:0:0:
192,192,65178,1,0,0:0:0:0:
320,192,65178,1,0,0:0:0:0:
448,192,65217,1,0,0:0:0:0:
64,192,65255,1,0,0:0:0:0:
192,192,65294,1,0,0:0:0:0:
320,192,65332,1,0,0:0:0:0:
448,192,65371,1,0,0:0:0:0:
64,192,65409,1,0,0:0:0:0:
192,192,65448,1,0,0:0:0:0:
320,192,65486,1,0,0:0:0:0:
448,192,65525,1,0,0:0:0:0:
320,192,65563,1,0,0:0:0:0:
192,192,65602,1,0,0:0:0:0:
64,192,65640,1,0,0:0:0:0:
448,192,65640,1,0,0:0:0:0:
320,192,65678,1,0,0:0:0:0:
192,192,65717,1,0,0:0:0:0:
64,192,65755,1,0,0:0:0:0:
192,192,65794,1,0,0:0:0:0:
320,192,65832,1,0,0:0:0:0:
448,192,65871,1,0,0:0:0:0:
64,192,65909,1,0,0:0:0:0:
192,192,65948,1,0,0:0:0:0:
320,192,65986,1,0,0:0:0:0:
448,192,66025,1,0,0:0:0:0:
320,192,66063,1,0,0:0:0:0:
64,192,66102,1,0,0:0:0:0:
192,192,66102,1,0,0:0:0:0:
448,192,66140,1,0,0:0:0:0:
320,192,66178,1,0,0:0:0:0:
192,192,66217,1,0,0:0:0:0:
64,192,66255,1,0,0:0:0:0:
192,192,66294,1,0,0:0:0:0:
320,192,66332,1,0,0:0:0:0:
448,192,66371,1,0,0:0:0:0:
64,192,66409,1,0,0:0:0:0:
192,192,66448,1,0,0:0:0:0:
448,192,66448,1,0,0:0:0:0:
320,192,66486,1,0,0:0:0:0:
192,192,66525,1,0,0:0:0:0:
64,192,66563,1,0,0:0:0:0:
320,192,66602,1,0,0:0:0:0:
448,192,66640,1,0,0:0:0:0:
64,192,66678,1,0,0:0:0:0:
192,192,66717,1,0,0:0:0:0:
320,192,66755,1,0,0:0:0:0:
448,192,66794,1,0,0:0:0:0:
64,192,66794,1,0,0:0:0:0:
192,192,66832,1,0,0:0:0:0:
320,192,66871,1,0,0:0:0:0:
448,192,66909,1,0,0:0:0:0:
192,192,66948,1,0,0:0:0:0:
64,192,66986,1,0,0:0:0:0:
448,192,67025,1,0,0:0:0:0:
320,192,67025,1,0,0:0:0:0:
320,192,67140,1,0,0:0:0:0:
448,192,67255,1,0,0:0:0:0:
64,192,67255,1,0,0:0:0:0:
192,192,67294,1,0,0:0:0:0:
320,192,67332,1,0,0:0:0:0:
448,192,67371,1,0,0:0:0:0:
192,192,67409,1,0,0:0:0:0:
64,192,67448,1,0,0:0:0:0:
448,192,67486,1,0,0:0:0:0:
320,192,67525,1,0,0:0:0:0:
192,192,67563,1,0,0:0:0:0:
64,192,67602,1,0,0:0:0:0:
320,192,67640,1,0,0:0:0:0:
192,192,67678,1,0,0:0:0:0:
64,192,67717,1,0,0:0:0:0:
448,192,67717,1,0,0:0:0:0:
448,192,67832,1,0,0:0:0:0:
192,192,67948,1,0,0:0:0:0:
320,192,67948,1,0,0:0:0:0:
448,192,67986,1,0,0:0:0:0:
64,192,68025,1,0,0:0:0:0:
192,192,68063,1,0,0:0:0:0:
320,192,68102,1,0,0:0:0:0:
448,192,68140,1,0,0:0:0:0:
320,192,68178,1,0,0:0:0:0:
192,192,68217,1,0,0:0:0:0:
64,192,68255,1,0,0:0:0:0:
448,192,68294,1,0,0:0:0:0:
320,192,68294,1,0,0:0:0:0:
192,192,68332,1,0,0:0:0:0:
64,192,68371,1,0,0:0:0:0:
320,192,68409,1,0,0:0:0:0:
448,192,68448,1,0,0:0:0:0:
192,192,68486,1,0,0:0:0:0:
64,192,68525,1,0,0:0:0:0:
448,192,68563,1,0,0:0:0:0:
320,192,68602,1,0,0:0:0:0:
192,192,68640,1,0,0:0:0:0:
64,192,68640,1,0,0:0:0:0:
448,192,68678,1,0,0:0:0:0:
320,192,68717,1,0,0:0:0:0:
192,192,68755,1,0,0:0:0:0:
448,192,68794,1,0,0:0:0:0:
64,192,68832,1,0,0:0:0:0:
192,192,68871,1,0,0:0:0:0:
320,192,68871,1,0,0:0:0:0:
448,192,68909,1,0,0:0:0:0:
64,192,68948,1,0,0:0:0:0:
192,192,68986,1,0,0:0:0:0:
320,192,69025,1,0,0:0:0:0:
448,192,69063,1,0,0:0:0:0:
64,192,69102,1,0,0:0:0:0:
192,192,69140,1,0,0:0:0:0:
320,192,69178,1,0,0:0:0:0:
448,192,69217,1,0,0:0:0:0:
320,192,69255,1,0,0:0:0:0:
192,192,69294,1,0,0:0:0:0:
64,192,69332,1,0,0:0:0:0:
448,192,69332,1,0,0:0:0:0:
320,192,69371,1,0,0:0:0:0:
192,192,69409,1,0,0:0:0:0:
64,192,69448,1,0,0:0:0:0:
192,192,69486,1,0,0:0:0:0:
320,192,69525,1,0,0:0:0:0:
448,192,69563,1,0,0:0:0:0:
64,192,69602,1,0,0:0:0:0:
192,192,69640,1,0,0:0:0:0:
320,192,69678,1,0,0:0:0:0:
448,192,69717,1,0,0:0:0:0:
320,192,69755,1,0,0:0:0:0:
64,192,69794,1,0,0:0:0:0:
192,192,69794,1,0,0:0:0:0:
448,192,69832,1,0,0:0:0:0:
320,192,69871,1,0,0:0:0:0:
192,192,69909,1,0,0:0:0:0:
64,192,69948,1,0,0:0:0:0:
192,192,69986,1,0,0:0:0:0:
320,192,70025,1,0,0:0:0:0:
448,192,70063,1,0,0:0:0:0:
64,192,70102,1,0,0:0:0:0:
192,192,70140,1,0,0:0:0:0:
448,192,70140,1,0,0:0:0:0:
320,192,70178,1,0,0:0:0:0:
192,192,70217,1,0,0:0:0:0:
64,192,70255,1,0,0:0:0:0:
320,192,70294,1,0,0:0:0:0:
448,192,70332,1,0,0:0:0:0:
64,192,70371,1,0,0:0:0:0:
192,192,70409,1,0,0:0:0:0:
320,192,70448,1,0,0:0:0:0:
448,192,70486,1,0,0:0:0:0:
64,192,70486,1,0,0:0:0:0:
192,192,70525,1,0,0:0:0:0:
320,192,70563,1,0,0:0:0:0:
448,192,70602,1,0,0:0:0:0:
192,192,70640,1,0,0:0:0:0:
320,192,70678,1,0,0:0:0:0:
448,192,70717,1,0,0:0:0:0:
64,192,70717,1,0,0:0:0:0:
192,192,70717,1,0,0:0:0:0:
64,192,70832,1,0,0:0:0:0:
192,192,70948,1,0,0:0:0:0:
448,192,70948,1,0,0:0:0:0:
192,192,71063,1,0,0:0:0:0:
320,192,71063,1,0,0:0:0:0:
64,192,71178,1,0,0:0:0:0:
320,192,71178,1,0,0:0:0:0:
448,192,71178,1,0,0:0:0:0:
64,192,71294,1,0,0:0:0:0:
192,192,71409,1,0,0:0:0:0:
448,192,71409,1,0,0:0:0:0:
448,192,71525,1,0,0:0:0:0:
192,192,71640,1,0,0:0:0:0:
320,192,71640,1,0,0:0:0:0:
448,192,71678,1,0,0:0:0:0:
64,192,71717,1,0,0:0:0:0:
192,192,71755,1,0,0:0:0:0:
320,192,71794,1,0,0:0:0:0:
448,192,71832,1,0,0:0:0:0:
320,192,71871,1,0,0:0:0:0:
192,192,71909,1,0,0:0:0:0:
64,192,71948,1,0,0:0:0:0:
448,192,71986,1,0,0:0:0:0:
320,192,71986,1,0,0:0:0:0:
192,192,72025,1,0,0:0:0:0:
64,192,72063,1,0,0:0:0:0:
320,192,72102,1,0,0:0:0:0:
448,192,72140,1,0,0:0:0:0:
192,192,72178,1,0,0:0:0:0:
64,192,72217,1,0,0:0:0:0:
448,192,72255,1,0,0:0:0:0:
320,192,72294,1,0,0:0:0:0:
192,192,72332,1,0,0:0:0:0:
64,192,72332,1,0,0:0:0:0:
448,192,72371,1,0,0:0:0:0:
320,192,72409,1,0,0:0:0:0:
192,192,72448,1,0,0:0:0:0:
448,192,72486,1,0,0:0:0:0:
64,192,72525,1,0,0:0:0:0:
192,192,72563,1,0,0:0:0:0:
320,192,72563,1,0,0:0:0:0:
448,192,72602,1,0,0:0:0:0:
64,192,72640,1,0,0:0:0:0:
192,192,72678,1,0,0:0:0:0:
320,192,72717,1,0,0:0:0:0:
448,192,72755,1,0,0:0:0:0:
64,192,72794,1,0,0:0:0:0:
192,192,72832,1,0,0:0:0:0:
320,192,72871,1,0,0:0:0:0:
448,192,72909,1,0,0:0:0:0:
320,192,72948,1,0,0:0:0:0:
192,192,72986,1,0,0:0:0:0:
64,192,73025,1,0,0:0:0:0:
448,192,73025,1,0,0:0:0:0:
320,192,73063,1,0,0:0:0:0:
192,192,73102,1,0,0:0:0:0:
64,192,73140,1,0,0:0:0:0:
192,192,73178,1,0,0:0:0:0:
320,192,73217,1,0,0:0:0:0:
448,192,73255,1,0,0:0:0:0:
64,192,73294,1,0,0:0:0:0:
192,192,73332,1,0,0:0:0:0:
320,192,73371,1,0,0:0:0:0:
448,192,73409,1,0,0:0:0:0:
320,192,73448,1,0,0:0:0:0:
64,192,73486,1,0,0:0:0:0:
192,192,73486,1,0,0:0:0:0:
448,192,73525,1,0,0:0:0:0:
320,192,73563,1,0,0:0:0:0:
192,192,73602,1,0,0:0:0:0:
64,192,73640,1,0,0:0:0:0:
192,192,73678,1,0,0:0:0:0:
320,192,73717,1,0,0:0:0:0:
448,192,73755,1,0,0:0:0:0:
64,192,73794,1,0,0:0:0:0:
192,192,73832,1,0,0:0:0:0:
448,192,73832,1,0,0:0:0:0:
320,192,73871,1,0,0:0:0:0:
192,192,73909,1,0,0:0:0:0:
64,192,73948,1,0,0:0:0:0:
320,192,73986,1,0,0:0:0:0:
448,192,74025,1,0,0:0:0:0:
64,192,74063,1,0,0:0:0:0:
192,192,74102,1,0,0:0:0:0:
320,192,74140,1,0,0:0:0:0:
448,192,74178,1,0,0:0:0:0:
64,192,74178,1,0,0:0:0:0:
192,192,74217,1,0,0:0:0:0:
320,192,74255,1,0,0:0:0:0:
448,192,74294,1,0,0:0:0:0:
192,192,74332,1,0,0:0:0:0:
64,192,74371,1,0,0:0:0:0:
448,192,74409,1,0,0:0:0:0:
320,192,74409,1,0,0:0:0:0:
320,192,74525,1,0,0:0:0:0:
448,192,74640,1,0,0:0:0:0:
64,192,74640,1,0,0:0:0:0:
192,192,74678,1,0,0:0:0:0:
320,192,74717,1,0,0:0:0:0:
448,192,74755,1,0,0:0:0:0:
192,192,74794,1,0,0:0:0:0:
64,192,74832,1,0,0:0:0:0:
448,192,74871,1,0,0:0:0:0:
320,192,74909,1,0,0:0:0:0:
192,192,74948,1,0,0:0:0:0:
64,192,74986,1,0,0:0:0:0:
320,192,75025,1,0,0:0:0:0:
192,192,75063,1,0,0:0:0:0:
448,192,75102,128,0,75332:0:0:0:0:
64,192,75102,128,0,75332:0:0:0:0:
320,192,75332,1,0,0:0:0:0:
192,192,75332,1,0,0:0:0:0:
320,192,75448,1,0,0:0:0:0:
448,192,75563,1,0,0:0:0:0:
192,192,75563,1,0,0:0:0:0:
64,192,75563,1,0,0:0:0:0:
64,192,75678,1,0,0:0:0:0:
192,192,75678,1,0,0:0:0:0:
448,192,75794,1,0,0:0:0:0:
192,192,75794,1,0,0:0:0:0:
64,192,75794,1,0,0:0:0:0:
320,192,75794,1,0,0:0:0:0:
320,192,75909,1,0,0:0:0:0:
320,192,76025,1,0,0:0:0:0:
192,192,76025,1,0,0:0:0:0:
64,192,76025,1,0,0:0:0:0:
192,192,76140,1,0,0:0:0:0:
64,192,76140,1,0,0:0:0:0:
320,192,76255,1,0,0:0:0:0:
448,192,76255,1,0,0:0:0:0:
192,192,76255,1,0,0:0:0:0:
64,192,76255,1,0,0:0:0:0:
448,192,76371,1,0,0:0:0:0:
320,192,76486,1,0,0:0:0:0:
192,192,76486,1,0,0:0:0:0:
64,192,76486,1,0,0:0:0:0:
192,192,76602,1,0,0:0:0:0:
448,192,76602,1,0,0:0:0:0:
320,192,76717,1,0,0:0:0:0:
192,192,76717,1,0,0:0:0:0:
64,192,76717,1,0,0:0:0:0:
448,192,76717,1,0,0:0:0:0:
320,192,76832,1,0,0:0:0:0:
448,192,76948,1,0,0:0:0:0:
192,192,76948,1,0,0:0:0:0:
64,192,76948,1,0,0:0:0:0:
192,192,77063,1,0,0:0:0:0:
64,192,77178,1,0,0:0:0:0:
448,192,77178,1,0,0:0:0:0:
320,192,77178,1,0,0:0:0:0:
192,192,77178,1,0,0:0:0:0:
64,192,77294,1,0,0:0:0:0:
448,192,77409,1,0,0:0:0:0:
192,192,77409,1,0,0:0:0:0:
320,192,77409,1,0,0:0:0:0:
64,192,77525,1,0,0:0:0:0:
448,192,77525,1,0,0:0:0:0:
320,192,77640,1,0,0:0:0:0:
192,192,77640,1,0,0:0:0:0:
64,192,77640,1,0,0:0:0:0:
448,192,77640,1,0,0:0:0:0:
192,192,77755,1,0,0:0:0:0:
320,192,77871,1,0,0:0:0:0:
192,192,77871,1,0,0:0:0:0:
448,192,77871,1,0,0:0:0:0:
320,192,77986,1,0,0:0:0:0:
448,192,77986,1,0,0:0:0:0:
448,192,78102,1,0,0:0:0:0:
320,192,78102,1,0,0:0:0:0:
192,192,78102,1,0,0:0:0:0:
64,192,78102,1,0,0:0:0:0:
192,192,78217,1,0,0:0:0:0:
448,192,78332,1,0,0:0:0:0:
320,192,78332,1,0,0:0:0:0:
64,192,78332,1,0,0:0:0:0:
192,192,78448,1,0,0:0:0:0:
448,192,78448,1,0,0:0:0:0:
448,192,78563,1,0,0:0:0:0:
320,192,78563,1,0,0:0:0:0:
192,192,78563,1,0,0:0:0:0:
64,192,78563,1,0,0:0:0:0:
320,192,78678,1,0,0:0:0:0:
448,192,78794,1,0,0:0:0:0:
192,192,78794,1,0,0:0:0:0:
64,192,78794,1,0,0:0:0:0:
192,192,78909,1,0,0:0:0:0:
448,192,79025,1,0,0:0:0:0:
320,192,79025,1,0,0:0:0:0:
64,192,79025,1,0,0:0:0:0:
192,192,79025,128,0,79053:0:0:0:0:
320,192,79140,128,0,79168:0:0:0:0:
192,192,79255,1,0,0:0:0:0:
64,192,79255,1,0,0:0:0:0:
448,192,79255,128,0,79284:0:0:0:0:
64,192,79371,1,0,0:0:0:0:
320,192,79371,128,0,79399:0:0:0:0:
192,192,79486,1,0,0:0:0:0:
320,192,79486,1,0,0:0:0:0:
448,192,79486,1,0,0:0:0:0:
64,192,79486,128,0,79515:0:0:0:0:
320,192,79602,128,0,79630:0:0:0:0:
448,192,79717,1,0,0:0:0:0:
64,192,79717,1,0,0:0:0:0:
192,192,79717,128,0,79745:0:0:0:0:
192,192,79832,1,0,0:0:0:0:
64,192,79832,128,0,79861:0:0:0:0:
320,192,79948,1,0,0:0:0:0:
64,192,79948,1,0,0:0:0:0:
192,192,79948,1,0,0:0:0:0:
448,192,79948,128,0,79976:0:0:0:0:
320,192,80063,128,0,80092:0:0:0:0:
448,192,80178,1,0,0:0:0:0:
64,192,80178,1,0,0:0:0:0:
192,192,80178,128,0,80207:0:0:0:0:
320,192,80294,1,0,0:0:0:0:
64,192,80294,128,0,80322:0:0:0:0:
320,192,80409,1,0,0:0:0:0:
64,192,80409,1,0,0:0:0:0:
192,192,80409,1,0,0:0:0:0:
448,192,80409,128,0,80438:0:0:0:0:
448,192,80525,1,0,0:0:0:0:
192,192,80525,128,0,80553:0:0:0:0:
64,192,80640,1,0,0:0:0:0:
448,192,80640,1,0,0:0:0:0:
320,192,80640,128,0,80668:0:0:0:0:
320,192,80755,1,0,0:0:0:0:
64,192,80755,128,0,80784:0:0:0:0:
448,192,80871,1,0,0:0:0:0:
320,192,80871,1,0,0:0:0:0:
64,192,80871,1,0,0:0:0:0:
192,192,80871,128,0,80899:0:0:0:0:
192,192,80986,1,0,0:0:0:0:
448,192,80986,128,0,81015:0:0:0:0:
192,192,81102,1,0,0:0:0:0:
64,192,81102,1,0,0:0:0:0:
320,192,81102,128,0,81130:0:0:0:0:
448,192,81217,1,0,0:0:0:0:
64,192,81217,128,0,81245:0:0:0:0:
64,192,81332,1,0,0:0:0:0:
192,192,81332,1,0,0:0:0:0:
320,192,81332,1,0,0:0:0:0:
448,192,81332,128,0,81361:0:0:0:0:
192,192,81448,1,0,0:0:0:0:
320,192,81448,128,0,81476:0:0:0:0:
448,192,81563,1,0,0:0:0:0:
64,192,81563,1,0,0:0:0:0:
192,192,81563,128,0,81592:0:0:0:0:
448,192,81678,128,0,81707:0:0:0:0:
192,192,81794,1,0,0:0:0:0:
320,192,81794,1,0,0:0:0:0:
448,192,81794,1,0,0:0:0:0:
64,192,81794,128,0,81822:0:0:0:0:
192,192,81909,128,0,81938:0:0:0:0:
448,192,82025,128,0,82053:0:0:0:0:
320,192,82140,128,0,82168:0:0:0:0:
448,192,82255,1,0,0:0:0:0:
64,192,82255,128,0,82284:0:0:0:0:
64,192,82371,128,0,82399:0:0:0:0:
320,192,82486,128,0,82515:0:0:0:0:
320,192,82602,128,0,82630:0:0:0:0:
64,192,82717,1,0,0:0:0:0:
448,192,82717,1,0,0:0:0:0:
192,192,82717,1,0,0:0:0:0:
320,192,82717,1,0,0:0:0:0:
64,192,82832,1,0,0:0:0:0:
192,192,82832,1,0,0:0:0:0:
192,192,82948,1,0,0:0:0:0:
320,192,82948,1,0,0:0:0:0:
448,192,82948,1,0,0:0:0:0:
64,192,83063,1,0,0:0:0:0:
320,192,83063,1,0,0:0:0:0:
448,192,83063,1,0,0:0:0:0:
64,192,83178,1,0,0:0:0:0:
448,192,83178,1,0,0:0:0:0:
192,192,83178,1,0,0:0:0:0:
192,192,83294,1,0,0:0:0:0:
64,192,83294,1,0,0:0:0:0:
320,192,83294,1,0,0:0:0:0:
192,192,83409,1,0,0:0:0:0:
320,192,83409,1,0,0:0:0:0:
448,192,83409,1,0,0:0:0:0:
320,192,83525,1,0,0:0:0:0:
448,192,83525,1,0,0:0:0:0:
64,192,83525,1,0,0:0:0:0:
192,192,83640,1,0,0:0:0:0:
64,192,83640,1,0,0:0:0:0:
448,192,83640,1,0,0:0:0:0:
64,192,83755,1,0,0:0:0:0:
192,192,83871,1,0,0:0:0:0:
320,192,83871,1,0,0:0:0:0:
448,192,83871,1,0,0:0:0:0:
320,192,83986,1,0,0:0:0:0:
64,192,83986,1,0,0:0:0:0:
448,192,83986,1,0,0:0:0:0:
192,192,84102,1,0,0:0:0:0:
448,192,84102,1,0,0:0:0:0:
64,192,84102,1,0,0:0:0:0:
192,192,84217,1,0,0:0:0:0:
64,192,84332,1,0,0:0:0:0:
320,192,84332,1,0,0:0:0:0:
448,192,84332,1,0,0:0:0:0:
448,192,84448,1,0,0:0:0:0:
192,192,84448,1,0,0:0:0:0:
64,192,84448,1,0,0:0:0:0:
64,192,84563,1,0,0:0:0:0:
192,192,84563,1,0,0:0:0:0:
320,192,84563,1,0,0:0:0:0:
448,192,84678,1,0,0:0:0:0:
320,192,84678,1,0,0:0:0:0:
192,192,84678,1,0,0:0:0:0:
448,192,84794,1,0,0:0:0:0:
64,192,84794,1,0,0:0:0:0:
320,192,84794,1,0,0:0:0:0:
448,192,84909,1,0,0:0:0:0:
64,192,84909,1,0,0:0:0:0:
192,192,84909,1,0,0:0:0:0:
192,192,85025,1,0,0:0:0:0:
320,192,85025,1,0,0:0:0:0:
64,192,85025,1,0,0:0:0:0:
320,192,85140,1,0,0:0:0:0:
448,192,85140,1,0,0:0:0:0:
192,192,85140,1,0,0:0:0:0:
192,192,85255,1,0,0:0:0:0:
320,192,85255,1,0,0:0:0:0:
64,192,85255,1,0,0:0:0:0:
192,192,85371,1,0,0:0:0:0:
64,192,85371,1,0,0:0:0:0:
448,192,85371,1,0,0:0:0:0:
64,192,85486,1,0,0:0:0:0:
320,192,85486,1,0,0:0:0:0:
448,192,85486,1,0,0:0:0:0:
320,192,85602,1,0,0:0:0:0:
192,192,85602,1,0,0:0:0:0:
448,192,85602,1,0,0:0:0:0:
64,192,85717,1,0,0:0:0:0:
320,192,85717,1,0,0:0:0:0:
448,192,85717,1,0,0:0:0:0:
192,192,85832,1,0,0:0:0:0:
64,192,85832,1,0,0:0:0:0:
448,192,85832,1,0,0:0:0:0:
64,192,85948,1,0,0:0:0:0:
192,192,85948,1,0,0:0:0:0:
320,192,85948,1,0,0:0:0:0:
192,192,86063,1,0,0:0:0:0:
64,192,86178,1,0,0:0:0:0:
320,192,86178,1,0,0:0:0:0:
448,192,86178,1,0,0:0:0:0:
448,192,86294,1,0,0:0:0:0:
192,192,86294,1,0,0:0:0:0:
64,192,86294,1,0,0:0:0:0:
64,192,86409,1,0,0:0:0:0:
192,192,86409,1,0,0:0:0:0:
320,192,86409,1,0,0:0:0:0:
192,192,86525,1,0,0:0:0:0:
64,192,86525,1,0,0:0:0:0:
448,192,86525,1,0,0:0:0:0:
64,192,86640,1,0,0:0:0:0:
320,192,86640,1,0,0:0:0:0:
448,192,86640,1,0,0:0:0:0:
448,192,86755,1,0,0:0:0:0:
192,192,86755,1,0,0:0:0:0:
320,192,86755,1,0,0:0:0:0:
448,192,86871,1,0,0:0:0:0:
320,192,86871,1,0,0:0:0:0:
64,192,86871,1,0,0:0:0:0:
64,192,86986,1,0,0:0:0:0:
192,192,87102,1,0,0:0:0:0:
320,192,87102,1,0,0:0:0:0:
448,192,87102,1,0,0:0:0:0:
448,192,87217,1,0,0:0:0:0:
320,192,87217,1,0,0:0:0:0:
64,192,87217,1,0,0:0:0:0:
192,192,87332,1,0,0:0:0:0:
448,192,87332,1,0,0:0:0:0:
320,192,87332,1,0,0:0:0:0:
192,192,87448,1,0,0:0:0:0:
64,192,87563,1,0,0:0:0:0:
320,192,87563,1,0,0:0:0:0:
448,192,87563,1,0,0:0:0:0:
192,192,87678,1,0,0:0:0:0:
448,192,87678,1,0,0:0:0:0:
320,192,87678,1,0,0:0:0:0:
64,192,87794,1,0,0:0:0:0:
192,192,87794,1,0,0:0:0:0:
448,192,87794,1,0,0:0:0:0:
64,192,87909,1,0,0:0:0:0:
320,192,87909,1,0,0:0:0:0:
192,192,87909,1,0,0:0:0:0:
192,192,88025,1,0,0:0:0:0:
448,192,88025,1,0,0:0:0:0:
64,192,88025,1,0,0:0:0:0:
448,192,88140,1,0,0:0:0:0:
192,192,88140,1,0,0:0:0:0:
320,192,88140,1,0,0:0:0:0:
64,192,88255,1,0,0:0:0:0:
320,192,88255,1,0,0:0:0:0:
448,192,88255,1,0,0:0:0:0:
64,192,88371,1,0,0:0:0:0:
320,192,88371,1,0,0:0:0:0:
320,192,88486,1,0,0:0:0:0:
448,192,88486,1,0,0:0:0:0:
192,192,88486,1,0,0:0:0:0:
64,192,88602,1,0,0:0:0:0:
448,192,88602,1,0,0:0:0:0:
192,192,88602,1,0,0:0:0:0:
448,192,88717,1,0,0:0:0:0:
320,192,88717,1,0,0:0:0:0:
192,192,88717,1,0,0:0:0:0:
320,192,88832,1,0,0:0:0:0:
192,192,88832,1,0,0:0:0:0:
64,192,88832,1,0,0:0:0:0:
64,192,88948,1,0,0:0:0:0:
320,192,88948,1,0,0:0:0:0:
448,192,88948,1,0,0:0:0:0:
64,192,89063,1,0,0:0:0:0:
192,192,89063,1,0,0:0:0:0:
320,192,89178,1,0,0:0:0:0:
448,192,89178,1,0,0:0:0:0:
192,192,89178,1,0,0:0:0:0:
320,192,89294,1,0,0:0:0:0:
448,192,89294,1,0,0:0:0:0:
64,192,89294,1,0,0:0:0:0:
192,192,89409,1,0,0:0:0:0:
448,192,89409,1,0,0:0:0:0:
64,192,89409,1,0,0:0:0:0:
320,192,89525,1,0,0:0:0:0:
192,192,89525,1,0,0:0:0:0:
64,192,89525,1,0,0:0:0:0:
192,192,89640,1,0,0:0:0:0:
320,192,89640,1,0,0:0:0:0:
448,192,89640,1,0,0:0:0:0:
64,192,89755,1,0,0:0:0:0:
448,192,89755,1,0,0:0:0:0:
64,192,89871,1,0,0:0:0:0:
192,192,89871,1,0,0:0:0:0:
320,192,89871,1,0,0:0:0:0:
192,192,89986,1,0,0:0:0:0:
448,192,89986,1,0,0:0:0:0:
448,192,90102,1,0,0:0:0:0:
64,192,90102,1,0,0:0:0:0:
192,192,90102,1,0,0:0:0:0:
448,192,90217,1,0,0:0:0:0:
320,192,90217,1,0,0:0:0:0:
64,192,90217,1,0,0:0:0:0:
320,192,90332,1,0,0:0:0:0:
192,192,90332,1,0,0:0:0:0:
448,192,90332,1,0,0:0:0:0:
448,192,90448,1,0,0:0:0:0:
192,192,90448,1,0,0:0:0:0:
64,192,90448,1,0,0:0:0:0:
192,192,90563,1,0,0:0:0:0:
64,192,90563,1,0,0:0:0:0:
320,192,90563,1,0,0:0:0:0:
320,192,90678,1,0,0:0:0:0:
448,192,90678,1,0,0:0:0:0:
320,192,90794,1,0,0:0:0:0:
192,192,90794,1,0,0:0:0:0:
64,192,90794,1,0,0:0:0:0:
192,192,90909,1,0,0:0:0:0:
64,192,90909,1,0,0:0:0:0:
448,192,90909,1,0,0:0:0:0:
320,192,91025,1,0,0:0:0:0:
448,192,91025,1,0,0:0:0:0:
64,192,91025,1,0,0:0:0:0:
448,192,91140,1,0,0:0:0:0:
192,192,91140,1,0,0:0:0:0:
320,192,91140,1,0,0:0:0:0:
320,192,91255,1,0,0:0:0:0:
192,192,91255,1,0,0:0:0:0:
64,192,91255,1,0,0:0:0:0:
192,192,91371,1,0,0:0:0:0:
448,192,91371,1,0,0:0:0:0:
320,192,91371,1,0,0:0:0:0:
320,192,91486,1,0,0:0:0:0:
64,192,91486,1,0,0:0:0:0:
448,192,91486,1,0,0:0:0:0:
320,192,91602,1,0,0:0:0:0:
192,192,91602,1,0,0:0:0:0:
448,192,91717,1,0,0:0:0:0:
192,192,91717,1,0,0:0:0:0:
64,192,91717,1,0,0:0:0:0:
192,192,91832,1,0,0:0:0:0:
320,192,91832,1,0,0:0:0:0:
64,192,91948,1,0,0:0:0:0:
448,192,91948,1,0,0:0:0:0:
320,192,91948,1,0,0:0:0:0:
64,192,92063,1,0,0:0:0:0:
448,192,92178,1,0,0:0:0:0:
192,192,92178,1,0,0:0:0:0:
320,192,92178,1,0,0:0:0:0:
64,192,92294,1,0,0:0:0:0:
448,192,92294,1,0,0:0:0:0:
320,192,92294,1,0,0:0:0:0:
192,192,92409,1,0,0:0:0:0:
64,192,92409,1,0,0:0:0:0:
448,192,92409,1,0,0:0:0:0:
192,192,92525,1,0,0:0:0:0:
320,192,92525,1,0,0:0:0:0:
64,192,92525,1,0,0:0:0:0:
320,192,92640,1,0,0:0:0:0:
192,192,92640,1,0,0:0:0:0:
448,192,92640,1,0,0:0:0:0:
64,192,92755,1,0,0:0:0:0:
448,192,92755,1,0,0:0:0:0:
320,192,92871,1,0,0:0:0:0:
192,192,92871,1,0,0:0:0:0:
64,192,92871,1,0,0:0:0:0:
192,192,92986,1,0,0:0:0:0:
64,192,92986,1,0,0:0:0:0:
448,192,92986,1,0,0:0:0:0:
448,192,93102,1,0,0:0:0:0:
320,192,93102,1,0,0:0:0:0:
64,192,93102,1,0,0:0:0:0:
192,192,93217,1,0,0:0:0:0:
448,192,93217,1,0,0:0:0:0:
320,192,93217,1,0,0:0:0:0:
320,192,93332,1,0,0:0:0:0:
192,192,93332,1,0,0:0:0:0:
64,192,93332,1,0,0:0:0:0:
320,192,93448,1,0,0:0:0:0:
448,192,93563,1,0,0:0:0:0:
192,192,93563,1,0,0:0:0:0:
64,192,93563,1,0,0:0:0:0:
192,192,93678,1,0,0:0:0:0:
320,192,93678,1,0,0:0:0:0:
448,192,93794,1,0,0:0:0:0:
320,192,93794,1,0,0:0:0:0:
64,192,93794,1,0,0:0:0:0:
320,192,93909,1,0,0:0:0:0:
448,192,94025,1,0,0:0:0:0:
192,192,94025,1,0,0:0:0:0:
64,192,94025,1,0,0:0:0:0:
64,192,94140,1,0,0:0:0:0:
320,192,94140,1,0,0:0:0:0:
448,192,94140,1,0,0:0:0:0:
192,192,94255,1,0,0:0:0:0:
320,192,94255,1,0,0:0:0:0:
448,192,94255,1,0,0:0:0:0:
320,192,94371,1,0,0:0:0:0:
448,192,94486,1,0,0:0:0:0:
192,192,94486,1,0,0:0:0:0:
64,192,94486,1,0,0:0:0:0:
64,192,94602,1,0,0:0:0:0:
192,192,94602,1,0,0:0:0:0:
320,192,94602,1,0,0:0:0:0:
448,192,94717,1,0,0:0:0:0:
320,192,94717,1,0,0:0:0:0:
192,192,94717,1,0,0:0:0:0:
320,192,94832,1,0,0:0:0:0:
448,192,94948,1,0,0:0:0:0:
192,192,94948,1,0,0:0:0:0:
64,192,94948,1,0,0:0:0:0:
320,192,95063,1,0,0:0:0:0:
64,192,95063,1,0,0:0:0:0:
448,192,95178,1,0,0:0:0:0:
320,192,95178,1,0,0:0:0:0:
192,192,95178,1,0,0:0:0:0:
448,192,95294,1,0,0:0:0:0:
192,192,95294,1,0,0:0:0:0:
320,192,95409,1,0,0:0:0:0:
64,192,95409,1,0,0:0:0:0:
448,192,95409,1,0,0:0:0:0:
64,192,95525,1,0,0:0:0:0:
320,192,95525,1,0,0:0:0:0:
448,192,95640,1,0,0:0:0:0:
192,192,95640,1,0,0:0:0:0:
64,192,95640,1,0,0:0:0:0:
448,192,95755,1,0,0:0:0:0:
320,192,95755,1,0,0:0:0:0:
64,192,95755,1,0,0:0:0:0:
192,192,95871,1,0,0:0:0:0:
448,192,95871,1,0,0:0:0:0:
320,192,95871,1,0,0:0:0:0:
448,192,95986,1,0,0:0:0:0:
64,192,95986,1,0,0:0:0:0:
320,192,95986,1,0,0:0:0:0:
448,192,96102,1,0,0:0:0:0:
64,192,96102,1,0,0:0:0:0:
192,192,96102,1,0,0:0:0:0:
192,192,96217,1,0,0:0:0:0:
448,192,96332,1,0,0:0:0:0:
320,192,96332,1,0,0:0:0:0:
64,192,96332,1,0,0:0:0:0:
320,192,96448,1,0,0:0:0:0:
192,192,96563,1,0,0:0:0:0:
448,192,96563,1,0,0:0:0:0:
64,192,96563,1,0,0:0:0:0:
448,192,96678,1,0,0:0:0:0:
192,192,96794,1,0,0:0:0:0:
320,192,96794,1,0,0:0:0:0:
64,192,96794,1,0,0:0:0:0:
64,192,96909,1,0,0:0:0:0:
320,192,96909,1,0,0:0:0:0:
448,192,97025,128,0,97255:0:0:0:0:
64,192,97025,128,0,97255:0:0:0:0:
320,192,97255,128,0,97486:0:0:0:0:
192,192,97255,128,0,97486:0:0:0:0:
448,192,97486,1,0,0:0:0:0:
64,192,97486,1,0,0:0:0:0:
448,192,97602,1,0,0:0:0:0:
320,192,97717,1,0,0:0:0:0:
192,192,97717,1,0,0:0:0:0:
64,192,97717,1,0,0:0:0:0:
448,192,97832,1,0,0:0:0:0:
192,192,97832,1,0,0:0:0:0:
448,192,97948,1,0,0:0:0:0:
192,192,97948,1,0,0:0:0:0:
64,192,97948,1,0,0:0:0:0:
320,192,97948,1,0,0:0:0:0:
320,192,98063,1,0,0:0:0:0:
320,192,98178,1,0,0:0:0:0:
192,192,98178,1,0,0:0:0:0:
64,192,98178,1,0,0:0:0:0:
192,192,98294,1,0,0:0:0:0:
64,192,98294,1,0,0:0:0:0:
320,192,98409,1,0,0:0:0:0:
448,192,98409,1,0,0:0:0:0:
192,192,98409,1,0,0:0:0:0:
64,192,98409,1,0,0:0:0:0:
448,192,98525,1,0,0:0:0:0:
320,192,98640,1,0,0:0:0:0:
192,192,98640,1,0,0:0:0:0:
64,192,98640,1,0,0:0:0:0:
192,192,98755,1,0,0:0:0:0:
448,192,98755,1,0,0:0:0:0:
320,192,98871,1,0,0:0:0:0:
192,192,98871,1,0,0:0:0:0:
64,192,98871,1,0,0:0:0:0:
448,192,98871,1,0,0:0:0:0:
320,192,98986,1,0,0:0:0:0:
448,192,99102,1,0,0:0:0:0:
192,192,99102,1,0,0:0:0:0:
64,192,99102,1,0,0:0:0:0:
192,192,99217,1,0,0:0:0:0:
64,192,99332,1,0,0:0:0:0:
448,192,99332,1,0,0:0:0:0:
320,192,99332,1,0,0:0:0:0:
192,192,99332,1,0,0:0:0:0:
64,192,99448,1,0,0:0:0:0:
448,192,99563,1,0,0:0:0:0:
192,192,99563,1,0,0:0:0:0:
320,192,99563,1,0,0:0:0:0:
64,192,99678,1,0,0:0:0:0:
448,192,99678,1,0,0:0:0:0:
320,192,99794,1,0,0:0:0:0:
192,192,99794,1,0,0:0:0:0:
64,192,99794,1,0,0:0:0:0:
448,192,99794,1,0,0:0:0:0:
192,192,99909,1,0,0:0:0:0:
320,192,100025,1,0,0:0:0:0:
192,192,100025,1,0,0:0:0:0:
448,192,100025,1,0,0:0:0:0:
320,192,100140,1,0,0:0:0:0:
448,192,100140,1,0,0:0:0:0:
448,192,100255,1,0,0:0:0:0:
320,192,100255,1,0,0:0:0:0:
192,192,100255,1,0,0:0:0:0:
64,192,100255,1,0,0:0:0:0:
192,192,100371,1,0,0:0:0:0:
448,192,100486,1,0,0:0:0:0:
320,192,100486,1,0,0:0:0:0:
64,192,100486,1,0,0:0:0:0:
192,192,100602,1,0,0:0:0:0:
448,192,100602,1,0,0:0:0:0:
448,192,100717,1,0,0:0:0:0:
320,192,100717,1,0,0:0:0:0:
192,192,100717,1,0,0:0:0:0:
64,192,100717,1,0,0:0:0:0:
320,192,100832,1,0,0:0:0:0:
448,192,100948,1,0,0:0:0:0:
192,192,100948,1,0,0:0:0:0:
64,192,100948,1,0,0:0:0:0:
192,192,101063,1,0,0:0:0:0:
448,192,101178,1,0,0:0:0:0:
320,192,101178,1,0,0:0:0:0:
64,192,101178,1,0,0:0:0:0:
192,192,101178,1,0,0:0:0:0:
320,192,101294,1,0,0:0:0:0:
448,192,101409,1,0,0:0:0:0:
192,192,101409,1,0,0:0:0:0:
64,192,101409,1,0,0:0:0:0:
64,192,101525,1,0,0:0:0:0:
320,192,101525,1,0,0:0:0:0:
64,192,101640,1,0,0:0:0:0:
192,192,101640,1,0,0:0:0:0:
320,192,101640,1,0,0:0:0:0:
448,192,101640,1,0,0:0:0:0:
320,192,101755,1,0,0:0:0:0:
448,192,101871,1,0,0:0:0:0:
192,192,101871,1,0,0:0:0:0:
64,192,101871,1,0,0:0:0:0:
64,192,101986,1,0,0:0:0:0:
192,192,101986,1,0,0:0:0:0:
448,192,102102,1,0,0:0:0:0:
320,192,102102,1,0,0:0:0:0:
64,192,102102,1,0,0:0:0:0:
192,192,102102,1,0,0:0:0:0:
320,192,102217,1,0,0:0:0:0:
448,192,102332,1,0,0:0:0:0:
192,192,102332,1,0,0:0:0:0:
64,192,102332,1,0,0:0:0:0:
320,192,102448,1,0,0:0:0:0:
64,192,102448,1,0,0:0:0:0:
448,192,102563,1,0,0:0:0:0:
320,192,102563,1,0,0:0:0:0:
64,192,102563,1,0,0:0:0:0:
192,192,102563,1,0,0:0:0:0:
448,192,102678,1,0,0:0:0:0:
192,192,102678,1,0,0:0:0:0:
320,192,102794,1,0,0:0:0:0:
64,192,102794,1,0,0:0:0:0:
448,192,102794,1,0,0:0:0:0:
64,192,102909,1,0,0:0:0:0:
320,192,102909,1,0,0:0:0:0:
448,192,103025,1,0,0:0:0:0:
320,192,103025,1,0,0:0:0:0:
192,192,103025,1,0,0:0:0:0:
64,192,103025,1,0,0:0:0:0:
448,192,103140,1,0,0:0:0:0:
192,192,103140,1,0,0:0:0:0:
192,192,103255,1,0,0:0:0:0:
64,192,103255,1,0,0:0:0:0:
320,192,103255,1,0,0:0:0:0:
448,192,103371,1,0,0:0:0:0:
64,192,103371,1,0,0:0:0:0:
448,192,103486,1,0,0:0:0:0:
64,192,103486,1,0,0:0:0:0:
192,192,103486,1,0,0:0:0:0:
320,192,103486,1,0,0:0:0:0:
192,192,103602,1,0,0:0:0:0:
320,192,103602,1,0,0:0:0:0:
448,192,103717,1,0,0:0:0:0:
192,192,103717,1,0,0:0:0:0:
64,192,103717,1,0,0:0:0:0:
448,192,103832,1,0,0:0:0:0:
320,192,103832,1,0,0:0:0:0:
192,192,103948,1,0,0:0:0:0:
64,192,103948,1,0,0:0:0:0:
192,192,104063,1,0,0:0:0:0:
64,192,104063,1,0,0:0:0:0:
192,192,104178,1,0,0:0:0:0:
64,192,104178,1,0,0:0:0:0:
192,192,104294,1,0,0:0:0:0:
64,192,104294,1,0,0:0:0:0:
448,192,104409,1,0,0:0:0:0:
320,192,104409,1,0,0:0:0:0:
448,192,104525,1,0,0:0:0:0:
320,192,104525,1,0,0:0:0:0:
448,192,104640,1,0,0:0:0:0:
320,192,104640,1,0,0:0:0:0:
448,192,104755,1,0,0:0:0:0:
320,192,104755,1,0,0:0:0:0:
64,192,104871,1,0,0:0:0:0:
448,192,104871,1,0,0:0:0:0:
192,192,104871,1,0,0:0:0:0:
320,192,104871,1,0,0:0:0:0:
64,192,104986,1,0,0:0:0:0:
192,192,105102,1,0,0:0:0:0:
320,192,105102,1,0,0:0:0:0:
448,192,105102,1,0,0:0:0:0:
64,192,105217,1,0,0:0:0:0:
320,192,105217,1,0,0:0:0:0:
64,192,105332,1,0,0:0:0:0:
320,192,105332,1,0,0:0:0:0:
448,192,105332,1,0,0:0:0:0:
192,192,105332,1,0,0:0:0:0:
192,192,105448,1,0,0:0:0:0:
192,192,105563,1,0,0:0:0:0:
320,192,105563,1,0,0:0:0:0:
448,192,105563,1,0,0:0:0:0:
320,192,105678,1,0,0:0:0:0:
448,192,105678,1,0,0:0:0:0:
192,192,105794,1,0,0:0:0:0:
64,192,105794,1,0,0:0:0:0:
320,192,105794,1,0,0:0:0:0:
448,192,105794,1,0,0:0:0:0:
64,192,105909,1,0,0:0:0:0:
192,192,106025,1,0,0:0:0:0:
320,192,106025,1,0,0:0:0:0:
448,192,106025,1,0,0:0:0:0:
320,192,106140,1,0,0:0:0:0:
64,192,106140,1,0,0:0:0:0:
192,192,106255,1,0,0:0:0:0:
320,192,106255,1,0,0:0:0:0:
448,192,106255,1,0,0:0:0:0:
64,192,106255,1,0,0:0:0:0:
192,192,106371,1,0,0:0:0:0:
64,192,106486,1,0,0:0:0:0:
320,192,106486,1,0,0:0:0:0:
448,192,106486,1,0,0:0:0:0:
320,192,106602,1,0,0:0:0:0:
448,192,106717,1,0,0:0:0:0:
64,192,106717,1,0,0:0:0:0:
192,192,106717,1,0,0:0:0:0:
320,192,106717,1,0,0:0:0:0:
448,192,106832,1,0,0:0:0:0:
64,192,106948,1,0,0:0:0:0:
320,192,106948,1,0,0:0:0:0:
192,192,106948,1,0,0:0:0:0:
448,192,107063,1,0,0:0:0:0:
64,192,107063,1,0,0:0:0:0:
192,192,107178,1,0,0:0:0:0:
320,192,107178,1,0,0:0:0:0:
448,192,107178,1,0,0:0:0:0:
64,192,107178,1,0,0:0:0:0:
320,192,107294,1,0,0:0:0:0:
192,192,107409,1,0,0:0:0:0:
320,192,107409,1,0,0:0:0:0:
64,192,107409,1,0,0:0:0:0:
192,192,107525,1,0,0:0:0:0:
64,192,107525,1,0,0:0:0:0:
64,192,107640,1,0,0:0:0:0:
192,192,107640,1,0,0:0:0:0:
320,192,107640,1,0,0:0:0:0:
448,192,107640,1,0,0:0:0:0:
320,192,107755,1,0,0:0:0:0:
64,192,107871,1,0,0:0:0:0:
192,192,107871,1,0,0:0:0:0:
448,192,107871,1,0,0:0:0:0:
320,192,107986,1,0,0:0:0:0:
64,192,107986,1,0,0:0:0:0:
64,192,108102,1,0,0:0:0:0:
192,192,108102,1,0,0:0:0:0:
320,192,108102,1,0,0:0:0:0:
448,192,108102,1,0,0:0:0:0:
192,192,108217,1,0,0:0:0:0:
64,192,108332,1,0,0:0:0:0:
320,192,108332,1,0,0:0:0:0:
448,192,108332,1,0,0:0:0:0:
320,192,108448,1,0,0:0:0:0:
64,192,108563,1,0,0:0:0:0:
192,192,108563,1,0,0:0:0:0:
448,192,108563,1,0,0:0:0:0:
320,192,108563,1,0,0:0:0:0:
192,192,108678,1,0,0:0:0:0:
64,192,108794,1,0,0:0:0:0:
320,192,108794,1,0,0:0:0:0:
448,192,108794,1,0,0:0:0:0:
448,192,108909,1,0,0:0:0:0:
192,192,108909,1,0,0:0:0:0:
448,192,109025,1,0,0:0:0:0:
320,192,109025,1,0,0:0:0:0:
192,192,109025,1,0,0:0:0:0:
64,192,109025,1,0,0:0:0:0:
192,192,109140,1,0,0:0:0:0:
64,192,109255,1,0,0:0:0:0:
320,192,109255,1,0,0:0:0:0:
448,192,109255,1,0,0:0:0:0:
448,192,109371,1,0,0:0:0:0:
320,192,109371,1,0,0:0:0:0:
64,192,109486,1,0,0:0:0:0:
192,192,109486,1,0,0:0:0:0:
448,192,109486,1,0,0:0:0:0:
320,192,109486,1,0,0:0:0:0:
192,192,109602,1,0,0:0:0:0:
64,192,109717,1,0,0:0:0:0:
320,192,109717,1,0,0:0:0:0:
448,192,109717,1,0,0:0:0:0:
192,192,109832,1,0,0:0:0:0:
448,192,109832,1,0,0:0:0:0:
64,192,109948,1,0,0:0:0:0:
192,192,109948,1,0,0:0:0:0:
448,192,109948,1,0,0:0:0:0:
320,192,109948,1,0,0:0:0:0:
64,192,110063,1,0,0:0:0:0:
320,192,110063,1,0,0:0:0:0:
192,192,110178,1,0,0:0:0:0:
448,192,110178,1,0,0:0:0:0:
64,192,110178,1,0,0:0:0:0:
448,192,110294,1,0,0:0:0:0:
192,192,110294,1,0,0:0:0:0:
64,192,110409,1,0,0:0:0:0:
192,192,110409,1,0,0:0:0:0:
320,192,110409,1,0,0:0:0:0:
448,192,110409,1,0,0:0:0:0:
64,192,110525,1,0,0:0:0:0:
320,192,110525,1,0,0:0:0:0:
320,192,110640,1,0,0:0:0:0:
448,192,110640,1,0,0:0:0:0:
192,192,110640,1,0,0:0:0:0:
64,192,110755,1,0,0:0:0:0:
448,192,110755,1,0,0:0:0:0:
64,192,110871,1,0,0:0:0:0:
448,192,110871,1,0,0:0:0:0:
320,192,110871,1,0,0:0:0:0:
192,192,110871,1,0,0:0:0:0:
320,192,110986,1,0,0:0:0:0:
192,192,110986,1,0,0:0:0:0:
64,192,111102,1,0,0:0:0:0:
320,192,111102,1,0,0:0:0:0:
448,192,111102,1,0,0:0:0:0:
64,192,111217,1,0,0:0:0:0:
320,192,111332,1,0,0:0:0:0:
192,192,111332,1,0,0:0:0:0:
448,192,111448,1,0,0:0:0:0:
64,192,111448,1,0,0:0:0:0:
320,192,111563,1,0,0:0:0:0:
192,192,111563,1,0,0:0:0:0:
448,192,111678,1,0,0:0:0:0:
64,192,111678,1,0,0:0:0:0:
320,192,111794,128,0,112025:0:0:0:0:
192,192,111794,128,0,112025:0:0:0:0:
64,192,112025,128,0,112255:0:0:0:0:
448,192,112025,128,0,112255:0:0:0:0:
192,192,112255,1,0,0:0:0:0:
320,192,112255,1,0,0:0:0:0:
448,192,112294,1,0,0:0:0:0:
64,192,112332,1,0,0:0:0:0:
192,192,112371,1,0,0:0:0:0:
320,192,112409,1,0,0:0:0:0:
448,192,112448,1,0,0:0:0:0:
320,192,112486,1,0,0:0:0:0:
192,192,112525,1,0,0:0:0:0:
64,192,112563,1,0,0:0:0:0:
448,192,112602,1,0,0:0:0:0:
320,192,112602,1,0,0:0:0:0:
192,192,112640,1,0,0:0:0:0:
64,192,112678,1,0,0:0:0:0:
320,192,112717,1,0,0:0:0:0:
448,192,112755,1,0,0:0:0:0:
192,192,112794,1,0,0:0:0:0:
64,192,112832,1,0,0:0:0:0:
448,192,112871,1,0,0:0:0:0:
320,192,112909,1,0,0:0:0:0:
192,192,112948,1,0,0:0:0:0:
64,192,112948,1,0,0:0:0:0:
448,192,112986,1,0,0:0:0:0:
320,192,113025,1,0,0:0:0:0:
192,192,113063,1,0,0:0:0:0:
448,192,113102,1,0,0:0:0:0:
64,192,113140,1,0,0:0:0:0:
192,192,113178,1,0,0:0:0:0:
320,192,113178,1,0,0:0:0:0:
448,192,113217,1,0,0:0:0:0:
64,192,113255,1,0,0:0:0:0:
192,192,113294,1,0,0:0:0:0:
320,192,113332,1,0,0:0:0:0:
448,192,113371,1,0,0:0:0:0:
64,192,113409,1,0,0:0:0:0:
192,192,113448,1,0,0:0:0:0:
320,192,113486,1,0,0:0:0:0:
448,192,113525,1,0,0:0:0:0:
320,192,113563,1,0,0:0:0:0:
192,192,113602,1,0,0:0:0:0:
64,192,113640,1,0,0:0:0:0:
448,192,113640,1,0,0:0:0:0:
320,192,113678,1,0,0:0:0:0:
192,192,113717,1,0,0:0:0:0:
64,192,113755,1,0,0:0:0:0:
192,192,113794,1,0,0:0:0:0:
320,192,113832,1,0,0:0:0:0:
448,192,113871,1,0,0:0:0:0:
64,192,113909,1,0,0:0:0:0:
192,192,113948,1,0,0:0:0:0:
320,192,113986,1,0,0:0:0:0:
448,192,114025,1,0,0:0:0:0:
320,192,114063,1,0,0:0:0:0:
64,192,114102,1,0,0:0:0:0:
192,192,114102,1,0,0:0:0:0:
448,192,114140,1,0,0:0:0:0:
320,192,114178,1,0,0:0:0:0:
192,192,114217,1,0,0:0:0:0:
64,192,114255,1,0,0:0:0:0:
192,192,114294,1,0,0:0:0:0:
320,192,114332,1,0,0:0:0:0:
448,192,114371,1,0,0:0:0:0:
64,192,114409,1,0,0:0:0:0:
192,192,114448,1,0,0:0:0:0:
448,192,114448,1,0,0:0:0:0:
320,192,114486,1,0,0:0:0:0:
192,192,114525,1,0,0:0:0:0:
64,192,114563,1,0,0:0:0:0:
320,192,114602,1,0,0:0:0:0:
448,192,114640,1,0,0:0:0:0:
64,192,114678,1,0,0:0:0:0:
192,192,114717,1,0,0:0:0:0:
320,192,114755,1,0,0:0:0:0:
448,192,114794,1,0,0:0:0:0:
64,192,114794,1,0,0:0:0:0:
192,192,114832,1,0,0:0:0:0:
320,192,114871,1,0,0:0:0:0:
448,192,114909,1,0,0:0:0:0:
192,192,114948,1,0,0:0:0:0:
320,192,114986,1,0,0:0:0:0:
448,192,115025,1,0,0:0:0:0:
64,192,115025,1,0,0:0:0:0:
64,192,115140,1,0,0:0:0:0:
192,192,115255,1,0,0:0:0:0:
320,192,115255,1,0,0:0:0:0:
320,192,115371,1,0,0:0:0:0:
448,192,115371,1,0,0:0:0:0:
64,192,115486,1,0,0:0:0:0:
192,192,115486,1,0,0:0:0:0:
448,192,115486,1,0,0:0:0:0:
192,192,115602,1,0,0:0:0:0:
64,192,115717,1,0,0:0:0:0:
320,192,115717,1,0,0:0:0:0:
64,192,115832,1,0,0:0:0:0:
192,192,115948,1,0,0:0:0:0:
320,192,115948,1,0,0:0:0:0:
448,192,115986,1,0,0:0:0:0:
64,192,116025,1,0,0:0:0:0:
192,192,116063,1,0,0:0:0:0:
320,192,116102,1,0,0:0:0:0:
448,192,116140,1,0,0:0:0:0:
320,192,116178,1,0,0:0:0:0:
192,192,116217,1,0,0:0:0:0:
64,192,116255,1,0,0:0:0:0:
448,192,116294,1,0,0:0:0:0:
320,192,116294,1,0,0:0:0:0:
192,192,116332,1,0,0:0:0:0:
64,192,116371,1,0,0:0:0:0:
320,192,116409,1,0,0:0:0:0:
448,192,116448,1,0,0:0:0:0:
192,192,116486,1,0,0:0:0:0:
64,192,116525,1,0,0:0:0:0:
448,192,116563,1,0,0:0:0:0:
320,192,116602,1,0,0:0:0:0:
192,192,116640,1,0,0:0:0:0:
64,192,116640,1,0,0:0:0:0:
448,192,116678,1,0,0:0:0:0:
320,192,116717,1,0,0:0:0:0:
192,192,116755,1,0,0:0:0:0:
448,192,116794,1,0,0:0:0:0:
64,192,116832,1,0,0:0:0:0:
192,192,116871,1,0,0:0:0:0:
320,192,116871,1,0,0:0:0:0:
448,192,116909,1,0,0:0:0:0:
64,192,116948,1,0,0:0:0:0:
192,192,116986,1,0,0:0:0:0:
320,192,117025,1,0,0:0:0:0:
448,192,117063,1,0,0:0:0:0:
64,192,117102,1,0,0:0:0:0:
192,192,117140,1,0,0:0:0:0:
320,192,117178,1,0,0:0:0:0:
448,192,117217,1,0,0:0:0:0:
320,192,117255,1,0,0:0:0:0:
192,192,117294,1,0,0:0:0:0:
64,192,117332,1,0,0:0:0:0:
448,192,117332,1,0,0:0:0:0:
320,192,117371,1,0,0:0:0:0:
192,192,117409,1,0,0:0:0:0:
64,192,117448,1,0,0:0:0:0:
192,192,117486,1,0,0:0:0:0:
320,192,117525,1,0,0:0:0:0:
448,192,117563,1,0,0:0:0:0:
64,192,117602,1,0,0:0:0:0:
192,192,117640,1,0,0:0:0:0:
320,192,117678,1,0,0:0:0:0:
448,192,117717,1,0,0:0:0:0:
320,192,117755,1,0,0:0:0:0:
64,192,117794,1,0,0:0:0:0:
192,192,117794,1,0,0:0:0:0:
448,192,117832,1,0,0:0:0:0:
320,192,117871,1,0,0:0:0:0:
192,192,117909,1,0,0:0:0:0:
64,192,117948,1,0,0:0:0:0:
192,192,117986,1,0,0:0:0:0:
320,192,118025,1,0,0:0:0:0:
448,192,118063,1,0,0:0:0:0:
64,192,118102,1,0,0:0:0:0:
192,192,118140,1,0,0:0:0:0:
448,192,118140,1,0,0:0:0:0:
320,192,118178,1,0,0:0:0:0:
192,192,118217,1,0,0:0:0:0:
64,192,118255,1,0,0:0:0:0:
320,192,118294,1,0,0:0:0:0:
448,192,118332,1,0,0:0:0:0:
64,192,118371,1,0,0:0:0:0:
192,192,118409,1,0,0:0:0:0:
320,192,118448,1,0,0:0:0:0:
448,192,118486,1,0,0:0:0:0:
64,192,118486,1,0,0:0:0:0:
192,192,118525,1,0,0:0:0:0:
320,192,118563,1,0,0:0:0:0:
448,192,118602,1,0,0:0:0:0:
192,192,118640,1,0,0:0:0:0:
64,192,118678,1,0,0:0:0:0:
448,192,118717,1,0,0:0:0:0:
320,192,118717,1,0,0:0:0:0:
320,192,118832,1,0,0:0:0:0:
448,192,118832,1,0,0:0:0:0:
320,192,118948,1,0,0:0:0:0:
448,192,118948,1,0,0:0:0:0:
320,192,119063,1,0,0:0:0:0:
448,192,119063,1,0,0:0:0:0:
192,192,119178,1,0,0:0:0:0:
448,192,119178,1,0,0:0:0:0:
64,192,119178,1,0,0:0:0:0:
192,192,119294,1,0,0:0:0:0:
64,192,119409,1,0,0:0:0:0:
320,192,119409,1,0,0:0:0:0:
448,192,119409,1,0,0:0:0:0:
64,192,119525,1,0,0:0:0:0:
192,192,119640,1,0,0:0:0:0:
320,192,119640,1,0,0:0:0:0:
448,192,119678,1,0,0:0:0:0:
64,192,119717,1,0,0:0:0:0:
192,192,119755,1,0,0:0:0:0:
320,192,119794,1,0,0:0:0:0:
448,192,119832,1,0,0:0:0:0:
320,192,119871,1,0,0:0:0:0:
192,192,119909,1,0,0:0:0:0:
64,192,119948,1,0,0:0:0:0:
448,192,119986,1,0,0:0:0:0:
320,192,120025,1,0,0:0:0:0:
192,192,120063,1,0,0:0:0:0:
64,192,120102,1,0,0:0:0:0:
320,192,120140,1,0,0:0:0:0:
448,192,120178,1,0,0:0:0:0:
192,192,120217,1,0,0:0:0:0:
64,192,120255,1,0,0:0:0:0:
320,192,120294,1,0,0:0:0:0:
192,192,120332,1,0,0:0:0:0:
448,192,120371,1,0,0:0:0:0:
320,192,120409,1,0,0:0:0:0:
192,192,120448,1,0,0:0:0:0:
448,192,120486,1,0,0:0:0:0:
64,192,120525,1,0,0:0:0:0:
192,192,120563,1,0,0:0:0:0:
320,192,120602,1,0,0:0:0:0:
448,192,120640,1,0,0:0:0:0:
64,192,120678,1,0,0:0:0:0:
192,192,120717,1,0,0:0:0:0:
320,192,120755,1,0,0:0:0:0:
192,192,120794,1,0,0:0:0:0:
64,192,120832,1,0,0:0:0:0:
320,192,120871,1,0,0:0:0:0:
448,192,120909,1,0,0:0:0:0:
320,192,120948,1,0,0:0:0:0:
192,192,120986,1,0,0:0:0:0:
64,192,121025,1,0,0:0:0:0:
320,192,121063,1,0,0:0:0:0:
448,192,121102,1,0,0:0:0:0:
64,192,121140,1,0,0:0:0:0:
192,192,121178,1,0,0:0:0:0:
320,192,121217,1,0,0:0:0:0:
448,192,121255,1,0,0:0:0:0:
64,192,121294,1,0,0:0:0:0:
192,192,121332,1,0,0:0:0:0:
320,192,121371,1,0,0:0:0:0:
448,192,121409,1,0,0:0:0:0:
320,192,121448,1,0,0:0:0:0:
64,192,121486,1,0,0:0:0:0:
192,192,121525,1,0,0:0:0:0:
320,192,121563,1,0,0:0:0:0:
448,192,121602,1,0,0:0:0:0:
64,192,121640,1,0,0:0:0:0:
192,192,121678,1,0,0:0:0:0:
320,192,121717,1,0,0:0:0:0:
448,192,121755,1,0,0:0:0:0:
64,192,121794,1,0,0:0:0:0:
192,192,121832,1,0,0:0:0:0:
320,192,121871,1,0,0:0:0:0:
192,192,121909,1,0,0:0:0:0:
64,192,121948,1,0,0:0:0:0:
448,192,121986,1,0,0:0:0:0:
320,192,122025,1,0,0:0:0:0:
64,192,122063,1,0,0:0:0:0:
192,192,122102,1,0,0:0:0:0:
320,192,122140,1,0,0:0:0:0:
64,192,122178,1,0,0:0:0:0:
192,192,122217,1,0,0:0:0:0:
320,192,122255,1,0,0:0:0:0:
448,192,122294,1,0,0:0:0:0:
192,192,122332,1,0,0:0:0:0:
320,192,122371,1,0,0:0:0:0:
448,192,122409,1,0,0:0:0:0:
192,192,122409,1,0,0:0:0:0:
64,192,122409,128,0,122438:0:0:0:0:
64,192,122525,128,0,122553:0:0:0:0:
192,192,122640,128,0,122668:0:0:0:0:
192,192,122755,128,0,122784:0:0:0:0:
320,192,122871,1,0,0:0:0:0:
448,192,122871,128,0,122899:0:0:0:0:
448,192,122986,128,0,123015:0:0:0:0:
320,192,123102,128,0,123130:0:0:0:0:
320,192,123217,128,0,123245:0:0:0:0:
64,192,123332,1,0,0:0:0:0:
320,192,123332,1,0,0:0:0:0:
192,192,123371,1,0,0:0:0:0:
448,192,123409,1,0,0:0:0:0:
320,192,123448,1,0,0:0:0:0:
192,192,123486,1,0,0:0:0:0:
64,192,123525,1,0,0:0:0:0:
320,192,123563,1,0,0:0:0:0:
192,192,123602,1,0,0:0:0:0:
64,192,123640,1,0,0:0:0:0:
448,192,123678,1,0,0:0:0:0:
320,192,123717,1,0,0:0:0:0:
192,192,123755,1,0,0:0:0:0:
64,192,123794,1,0,0:0:0:0:
320,192,123832,1,0,0:0:0:0:
448,192,123871,1,0,0:0:0:0:
192,192,123909,1,0,0:0:0:0:
64,192,123948,1,0,0:0:0:0:
320,192,123986,1,0,0:0:0:0:
192,192,124025,1,0,0:0:0:0:
448,192,124063,1,0,0:0:0:0:
320,192,124102,1,0,0:0:0:0:
192,192,124140,1,0,0:0:0:0:
448,192,124178,1,0,0:0:0:0:
64,192,124217,1,0,0:0:0:0:
192,192,124255,1,0,0:0:0:0:
320,192,124294,1,0,0:0:0:0:
448,192,124332,1,0,0:0:0:0:
64,192,124371,1,0,0:0:0:0:
192,192,124409,1,0,0:0:0:0:
320,192,124448,1,0,0:0:0:0:
192,192,124486,1,0,0:0:0:0:
64,192,124525,1,0,0:0:0:0:
320,192,124563,1,0,0:0:0:0:
448,192,124602,1,0,0:0:0:0:
320,192,124640,1,0,0:0:0:0:
192,192,124678,1,0,0:0:0:0:
64,192,124717,1,0,0:0:0:0:
320,192,124755,1,0,0:0:0:0:
448,192,124794,1,0,0:0:0:0:
64,192,124832,1,0,0:0:0:0:
192,192,124871,1,0,0:0:0:0:
320,192,124909,1,0,0:0:0:0:
448,192,124948,1,0,0:0:0:0:
64,192,124986,1,0,0:0:0:0:
192,192,125025,1,0,0:0:0:0:
320,192,125063,1,0,0:0:0:0:
448,192,125102,1,0,0:0:0:0:
320,192,125140,1,0,0:0:0:0:
64,192,125178,1,0,0:0:0:0:
192,192,125217,1,0,0:0:0:0:
320,192,125255,1,0,0:0:0:0:
448,192,125294,1,0,0:0:0:0:
64,192,125332,1,0,0:0:0:0:
192,192,125371,1,0,0:0:0:0:
320,192,125409,1,0,0:0:0:0:
448,192,125448,1,0,0:0:0:0:
64,192,125486,1,0,0:0:0:0:
192,192,125525,1,0,0:0:0:0:
320,192,125563,1,0,0:0:0:0:
192,192,125602,1,0,0:0:0:0:
64,192,125640,1,0,0:0:0:0:
448,192,125678,1,0,0:0:0:0:
320,192,125717,1,0,0:0:0:0:
64,192,125755,1,0,0:0:0:0:
192,192,125794,1,0,0:0:0:0:
320,192,125832,1,0,0:0:0:0:
64,192,125871,1,0,0:0:0:0:
192,192,125909,1,0,0:0:0:0:
320,192,125948,1,0,0:0:0:0:
448,192,125986,1,0,0:0:0:0:
192,192,126025,1,0,0:0:0:0:
320,192,126063,1,0,0:0:0:0:
64,192,126102,128,0,127025:0:0:0:0:
448,192,126102,128,0,126217:0:0:0:0:
320,192,126217,128,0,126332:0:0:0:0:
192,192,126332,128,0,126448:0:0:0:0:
448,192,126448,128,0,126563:0:0:0:0:
320,192,126563,128,0,126794:0:0:0:0:
448,192,126794,128,0,127025:0:0:0:0:
192,192,127025,1,0,0:0:0:0:
320,192,127025,1,0,0:0:0:0:
320,192,127140,1,0,0:0:0:0:
64,192,127255,1,0,0:0:0:0:
192,192,127255,1,0,0:0:0:0:
192,192,127371,1,0,0:0:0:0:
64,192,127486,1,0,0:0:0:0:
320,192,127486,1,0,0:0:0:0:
448,192,127486,1,0,0:0:0:0:
448,192,127602,1,0,0:0:0:0:
64,192,127717,1,0,0:0:0:0:
192,192,127717,1,0,0:0:0:0:
64,192,127832,1,0,0:0:0:0:
192,192,127948,1,0,0:0:0:0:
320,192,127948,1,0,0:0:0:0:
448,192,127948,1,0,0:0:0:0:
320,192,128063,1,0,0:0:0:0:
192,192,128178,1,0,0:0:0:0:
64,192,128178,1,0,0:0:0:0:
192,192,128294,1,0,0:0:0:0:
320,192,128409,1,0,0:0:0:0:
448,192,128409,1,0,0:0:0:0:
64,192,128409,1,0,0:0:0:0:
320,192,128525,1,0,0:0:0:0:
192,192,128640,1,0,0:0:0:0:
64,192,128640,1,0,0:0:0:0:
448,192,128640,1,0,0:0:0:0:
192,192,128755,1,0,0:0:0:0:
320,192,128871,1,0,0:0:0:0:
448,192,128871,1,0,0:0:0:0:
64,192,128871,1,0,0:0:0:0:
64,192,128986,1,0,0:0:0:0:
192,192,129102,1,0,0:0:0:0:
448,192,129102,1,0,0:0:0:0:
448,192,129217,1,0,0:0:0:0:
64,192,129332,1,0,0:0:0:0:
192,192,129332,1,0,0:0:0:0:
320,192,129332,1,0,0:0:0:0:
192,192,129448,1,0,0:0:0:0:
320,192,129563,1,0,0:0:0:0:
448,192,129563,1,0,0:0:0:0:
320,192,129678,1,0,0:0:0:0:
64,192,129794,1,0,0:0:0:0:
192,192,129794,1,0,0:0:0:0:
448,192,129794,1,0,0:0:0:0:
64,192,129909,1,0,0:0:0:0:
320,192,130025,1,0,0:0:0:0:
192,192,130025,1,0,0:0:0:0:
320,192,130140,1,0,0:0:0:0:
192,192,130255,1,0,0:0:0:0:
64,192,130255,1,0,0:0:0:0:
448,192,130255,1,0,0:0:0:0:
192,192,130371,1,0,0:0:0:0:
320,192,130486,1,0,0:0:0:0:
448,192,130486,1,0,0:0:0:0:
64,192,130486,1,0,0:0:0:0:
448,192,130602,1,0,0:0:0:0:
192,192,130717,1,0,0:0:0:0:
320,192,130717,1,0,0:0:0:0:
64,192,130717,1,0,0:0:0:0:
192,192,130832,1,0,0:0:0:0:
320,192,130948,1,0,0:0:0:0:
448,192,130948,1,0,0:0:0:0:
320,192,131063,1,0,0:0:0:0:
64,192,131178,1,0,0:0:0:0:
192,192,131178,1,0,0:0:0:0:
448,192,131178,1,0,0:0:0:0:
64,192,131294,1,0,0:0:0:0:
320,192,131409,1,0,0:0:0:0:
448,192,131409,1,0,0:0:0:0:
448,192,131525,1,0,0:0:0:0:
64,192,131640,1,0,0:0:0:0:
192,192,131640,1,0,0:0:0:0:
320,192,131640,1,0,0:0:0:0:
192,192,131755,1,0,0:0:0:0:
448,192,131871,1,0,0:0:0:0:
320,192,131871,1,0,0:0:0:0:
320,192,131986,1,0,0:0:0:0:
448,192,132102,1,0,0:0:0:0:
64,192,132102,1,0,0:0:0:0:
192,192,132102,1,0,0:0:0:0:
192,192,132217,1,0,0:0:0:0:
64,192,132332,1,0,0:0:0:0:
448,192,132332,1,0,0:0:0:0:
320,192,132332,1,0,0:0:0:0:
320,192,132448,1,0,0:0:0:0:
448,192,132563,1,0,0:0:0:0:
64,192,132563,1,0,0:0:0:0:
192,192,132563,1,0,0:0:0:0:
448,192,132678,1,0,0:0:0:0:
64,192,132794,1,0,0:0:0:0:
320,192,132794,1,0,0:0:0:0:
64,192,132909,1,0,0:0:0:0:
192,192,133025,1,0,0:0:0:0:
320,192,133025,1,0,0:0:0:0:
448,192,133025,1,0,0:0:0:0:
320,192,133140,1,0,0:0:0:0:
64,192,133255,1,0,0:0:0:0:
192,192,133255,1,0,0:0:0:0:
192,192,133371,1,0,0:0:0:0:
320,192,133486,1,0,0:0:0:0:
448,192,133486,1,0,0:0:0:0:
320,192,133602,1,0,0:0:0:0:
320,192,133717,1,0,0:0:0:0:
320,192,133832,1,0,0:0:0:0:
448,192,133948,128,0,134178:0:0:0:0:
64,192,133948,128,0,134178:0:0:0:0:
320,192,134178,128,0,134409:0:0:0:0:
192,192,134178,128,0,134409:0:0:0:0:
448,192,134409,1,0,0:0:0:0:
64,192,134409,1,0,0:0:0:0:
448,192,134525,1,0,0:0:0:0:
320,192,134640,1,0,0:0:0:0:
192,192,134640,1,0,0:0:0:0:
64,192,134640,1,0,0:0:0:0:
448,192,134755,1,0,0:0:0:0:
192,192,134755,1,0,0:0:0:0:
448,192,134871,1,0,0:0:0:0:
192,192,134871,1,0,0:0:0:0:
64,192,134871,1,0,0:0:0:0:
320,192,134871,1,0,0:0:0:0:
320,192,134986,1,0,0:0:0:0:
320,192,135102,1,0,0:0:0:0:
192,192,135102,1,0,0:0:0:0:
64,192,135102,1,0,0:0:0:0:
192,192,135217,1,0,0:0:0:0:
64,192,135217,1,0,0:0:0:0:
320,192,135332,1,0,0:0:0:0:
448,192,135332,1,0,0:0:0:0:
192,192,135332,1,0,0:0:0:0:
64,192,135332,1,0,0:0:0:0:
448,192,135448,1,0,0:0:0:0:
320,192,135563,1,0,0:0:0:0:
192,192,135563,1,0,0:0:0:0:
64,192,135563,1,0,0:0:0:0:
192,192,135678,1,0,0:0:0:0:
448,192,135678,1,0,0:0:0:0:
320,192,135794,1,0,0:0:0:0:
192,192,135794,1,0,0:0:0:0:
64,192,135794,1,0,0:0:0:0:
448,192,135794,1,0,0:0:0:0:
320,192,135909,1,0,0:0:0:0:
448,192,136025,1,0,0:0:0:0:
192,192,136025,1,0,0:0:0:0:
64,192,136025,1,0,0:0:0:0:
192,192,136140,1,0,0:0:0:0:
64,192,136255,1,0,0:0:0:0:
448,192,136255,1,0,0:0:0:0:
320,192,136255,1,0,0:0:0:0:
192,192,136255,1,0,0:0:0:0:
64,192,136371,1,0,0:0:0:0:
448,192,136486,1,0,0:0:0:0:
192,192,136486,1,0,0:0:0:0:
320,192,136486,1,0,0:0:0:0:
64,192,136602,1,0,0:0:0:0:
448,192,136602,1,0,0:0:0:0:
320,192,136717,1,0,0:0:0:0:
192,192,136717,1,0,0:0:0:0:
64,192,136717,1,0,0:0:0:0:
448,192,136717,1,0,0:0:0:0:
192,192,136832,1,0,0:0:0:0:
320,192,136948,1,0,0:0:0:0:
192,192,136948,1,0,0:0:0:0:
448,192,136948,1,0,0:0:0:0:
320,192,137063,1,0,0:0:0:0:
448,192,137063,1,0,0:0:0:0:
448,192,137178,1,0,0:0:0:0:
320,192,137178,1,0,0:0:0:0:
192,192,137178,1,0,0:0:0:0:
64,192,137178,1,0,0:0:0:0:
192,192,137294,1,0,0:0:0:0:
448,192,137409,1,0,0:0:0:0:
320,192,137409,1,0,0:0:0:0:
64,192,137409,1,0,0:0:0:0:
192,192,137525,1,0,0:0:0:0:
448,192,137525,1,0,0:0:0:0:
448,192,137640,1,0,0:0:0:0:
320,192,137640,1,0,0:0:0:0:
192,192,137640,1,0,0:0:0:0:
64,192,137640,1,0,0:0:0:0:
320,192,137755,1,0,0:0:0:0:
448,192,137871,1,0,0:0:0:0:
192,192,137871,1,0,0:0:0:0:
64,192,137871,1,0,0:0:0:0:
192,192,137986,1,0,0:0:0:0:
448,192,138102,1,0,0:0:0:0:
320,192,138102,1,0,0:0:0:0:
64,192,138102,1,0,0:0:0:0:
192,192,138102,1,0,0:0:0:0:
320,192,138217,1,0,0:0:0:0:
448,192,138332,1,0,0:0:0:0:
192,192,138332,1,0,0:0:0:0:
64,192,138332,1,0,0:0:0:0:
64,192,138448,1,0,0:0:0:0:
320,192,138448,1,0,0:0:0:0:
64,192,138563,1,0,0:0:0:0:
192,192,138563,1,0,0:0:0:0:
320,192,138563,1,0,0:0:0:0:
448,192,138563,1,0,0:0:0:0:
320,192,138678,1,0,0:0:0:0:
448,192,138794,1,0,0:0:0:0:
192,192,138794,1,0,0:0:0:0:
64,192,138794,1,0,0:0:0:0:
64,192,138909,1,0,0:0:0:0:
192,192,138909,1,0,0:0:0:0:
448,192,139025,1,0,0:0:0:0:
320,192,139025,1,0,0:0:0:0:
64,192,139025,1,0,0:0:0:0:
192,192,139025,1,0,0:0:0:0:
320,192,139140,1,0,0:0:0:0:
448,192,139255,1,0,0:0:0:0:
192,192,139255,1,0,0:0:0:0:
64,192,139255,1,0,0:0:0:0:
320,192,139371,1,0,0:0:0:0:
64,192,139371,1,0,0:0:0:0:
448,192,139486,1,0,0:0:0:0:
320,192,139486,1,0,0:0:0:0:
64,192,139486,1,0,0:0:0:0:
192,192,139486,1,0,0:0:0:0:
448,192,139602,1,0,0:0:0:0:
192,192,139602,1,0,0:0:0:0:
320,192,139717,1,0,0:0:0:0:
64,192,139717,1,0,0:0:0:0:
448,192,139717,1,0,0:0:0:0:
64,192,139832,1,0,0:0:0:0:
320,192,139832,1,0,0:0:0:0:
448,192,139948,1,0,0:0:0:0:
320,192,139948,1,0,0:0:0:0:
192,192,139948,1,0,0:0:0:0:
64,192,139948,1,0,0:0:0:0:
448,192,140063,1,0,0:0:0:0:
192,192,140063,1,0,0:0:0:0:
192,192,140178,1,0,0:0:0:0:
64,192,140178,1,0,0:0:0:0:
320,192,140178,1,0,0:0:0:0:
448,192,140294,1,0,0:0:0:0:
64,192,140294,1,0,0:0:0:0:
448,192,140409,1,0,0:0:0:0:
64,192,140409,1,0,0:0:0:0:
192,192,140409,1,0,0:0:0:0:
320,192,140409,1,0,0:0:0:0:
192,192,140525,1,0,0:0:0:0:
320,192,140525,1,0,0:0:0:0:
448,192,140640,1,0,0:0:0:0:
192,192,140640,1,0,0:0:0:0:
64,192,140640,1,0,0:0:0:0:
448,192,140755,1,0,0:0:0:0:
320,192,140755,1,0,0:0:0:0:
192,192,140871,1,0,0:0:0:0:
64,192,140871,1,0,0:0:0:0:
192,192,140986,1,0,0:0:0:0:
64,192,140986,1,0,0:0:0:0:
192,192,141102,1,0,0:0:0:0:
64,192,141102,1,0,0:0:0:0:
192,192,141217,1,0,0:0:0:0:
64,192,141217,1,0,0:0:0:0:
448,192,141332,1,0,0:0:0:0:
320,192,141332,1,0,0:0:0:0:
448,192,141448,1,0,0:0:0:0:
320,192,141448,1,0,0:0:0:0:
448,192,141563,1,0,0:0:0:0:
320,192,141563,1,0,0:0:0:0:
448,192,141678,1,0,0:0:0:0:
320,192,141678,1,0,0:0:0:0:
64,192,141794,1,0,0:0:0:0:
448,192,141794,1,0,0:0:0:0:
192,192,141794,1,0,0:0:0:0:
320,192,141794,1,0,0:0:0:0:
64,192,141909,1,0,0:0:0:0:
192,192,142025,1,0,0:0:0:0:
320,192,142025,1,0,0:0:0:0:
448,192,142025,1,0,0:0:0:0:
64,192,142140,1,0,0:0:0:0:
320,192,142140,1,0,0:0:0:0:
64,192,142255,1,0,0:0:0:0:
320,192,142255,1,0,0:0:0:0:
448,192,142255,1,0,0:0:0:0:
192,192,142255,1,0,0:0:0:0:
192,192,142371,1,0,0:0:0:0:
192,192,142486,1,0,0:0:0:0:
320,192,142486,1,0,0:0:0:0:
448,192,142486,1,0,0:0:0:0:
320,192,142602,1,0,0:0:0:0:
448,192,142602,1,0,0:0:0:0:
192,192,142717,1,0,0:0:0:0:
64,192,142717,1,0,0:0:0:0:
320,192,142717,1,0,0:0:0:0:
448,192,142717,1,0,0:0:0:0:
64,192,142832,1,0,0:0:0:0:
192,192,142948,1,0,0:0:0:0:
320,192,142948,1,0,0:0:0:0:
448,192,142948,1,0,0:0:0:0:
320,192,143063,1,0,0:0:0:0:
64,192,143063,1,0,0:0:0:0:
192,192,143178,1,0,0:0:0:0:
320,192,143178,1,0,0:0:0:0:
448,192,143178,1,0,0:0:0:0:
64,192,143178,1,0,0:0:0:0:
192,192,143294,1,0,0:0:0:0:
64,192,143409,1,0,0:0:0:0:
320,192,143409,1,0,0:0:0:0:
448,192,143409,1,0,0:0:0:0:
320,192,143525,1,0,0:0:0:0:
448,192,143640,1,0,0:0:0:0:
64,192,143640,1,0,0:0:0:0:
192,192,143640,1,0,0:0:0:0:
320,192,143640,1,0,0:0:0:0:
448,192,143755,1,0,0:0:0:0:
64,192,143871,1,0,0:0:0:0:
320,192,143871,1,0,0:0:0:0:
192,192,143871,1,0,0:0:0:0:
448,192,143986,1,0,0:0:0:0:
64,192,143986,1,0,0:0:0:0:
192,192,144102,1,0,0:0:0:0:
320,192,144102,1,0,0:0:0:0:
448,192,144102,1,0,0:0:0:0:
64,192,144102,1,0,0:0:0:0:
320,192,144217,1,0,0:0:0:0:
192,192,144332,1,0,0:0:0:0:
320,192,144332,1,0,0:0:0:0:
64,192,144332,1,0,0:0:0:0:
192,192,144448,1,0,0:0:0:0:
64,192,144448,1,0,0:0:0:0:
64,192,144563,1,0,0:0:0:0:
192,192,144563,1,0,0:0:0:0:
320,192,144563,1,0,0:0:0:0:
448,192,144563,1,0,0:0:0:0:
320,192,144678,1,0,0:0:0:0:
64,192,144794,1,0,0:0:0:0:
192,192,144794,1,0,0:0:0:0:
448,192,144794,1,0,0:0:0:0:
320,192,144909,1,0,0:0:0:0:
64,192,144909,1,0,0:0:0:0:
64,192,145025,1,0,0:0:0:0:
192,192,145025,1,0,0:0:0:0:
320,192,145025,1,0,0:0:0:0:
448,192,145025,1,0,0:0:0:0:
192,192,145140,1,0,0:0:0:0:
64,192,145255,1,0,0:0:0:0:
320,192,145255,1,0,0:0:0:0:
448,192,145255,1,0,0:0:0:0:
320,192,145371,1,0,0:0:0:0:
64,192,145486,1,0,0:0:0:0:
192,192,145486,1,0,0:0:0:0:
448,192,145486,1,0,0:0:0:0:
320,192,145486,1,0,0:0:0:0:
192,192,145602,1,0,0:0:0:0:
64,192,145717,1,0,0:0:0:0:
320,192,145717,1,0,0:0:0:0:
448,192,145717,1,0,0:0:0:0:
448,192,145832,1,0,0:0:0:0:
192,192,145832,1,0,0:0:0:0:
448,192,145948,1,0,0:0:0:0:
320,192,145948,1,0,0:0:0:0:
192,192,145948,1,0,0:0:0:0:
64,192,145948,1,0,0:0:0:0:
192,192,146063,1,0,0:0:0:0:
64,192,146178,1,0,0:0:0:0:
320,192,146178,1,0,0:0:0:0:
448,192,146178,1,0,0:0:0:0:
448,192,146294,1,0,0:0:0:0:
320,192,146294,1,0,0:0:0:0:
64,192,146409,1,0,0:0:0:0:
192,192,146409,1,0,0:0:0:0:
448,192,146409,1,0,0:0:0:0:
320,192,146409,1,0,0:0:0:0:
192,192,146525,1,0,0:0:0:0:
64,192,146640,1,0,0:0:0:0:
320,192,146640,1,0,0:0:0:0:
448,192,146640,1,0,0:0:0:0:
192,192,146755,1,0,0:0:0:0:
448,192,146755,1,0,0:0:0:0:
64,192,146871,1,0,0:0:0:0:
192,192,146871,1,0,0:0:0:0:
448,192,146871,1,0,0:0:0:0:
320,192,146871,1,0,0:0:0:0:
64,192,146986,1,0,0:0:0:0:
320,192,146986,1,0,0:0:0:0:
192,192,147102,1,0,0:0:0:0:
448,192,147102,1,0,0:0:0:0:
64,192,147102,1,0,0:0:0:0:
448,192,147217,1,0,0:0:0:0:
192,192,147217,1,0,0:0:0:0:
64,192,147332,1,0,0:0:0:0:
192,192,147332,1,0,0:0:0:0:
320,192,147332,1,0,0:0:0:0:
448,192,147332,1,0,0:0:0:0:
64,192,147448,1,0,0:0:0:0:
320,192,147448,1,0,0:0:0:0:
320,192,147563,1,0,0:0:0:0:
448,192,147563,1,0,0:0:0:0:
192,192,147563,1,0,0:0:0:0:
64,192,147678,1,0,0:0:0:0:
448,192,147678,1,0,0:0:0:0:
64,192,147794,1,0,0:0:0:0:
448,192,147794,1,0,0:0:0:0:
320,192,147794,1,0,0:0:0:0:
192,192,147794,1,0,0:0:0:0:
320,192,147909,1,0,0:0:0:0:
192,192,147909,1,0,0:0:0:0:
64,192,148025,1,0,0:0:0:0:
320,192,148025,1,0,0:0:0:0:
448,192,148025,1,0,0:0:0:0:
64,192,148140,1,0,0:0:0:0:
320,192,148255,1,0,0:0:0:0:
192,192,148255,1,0,0:0:0:0:
448,192,148371,1,0,0:0:0:0:
64,192,148371,1,0,0:0:0:0:
320,192,148486,1,0,0:0:0:0:
192,192,148486,1,0,0:0:0:0:
448,192,148602,1,0,0:0:0:0:
64,192,148602,1,0,0:0:0:0:
320,192,148717,128,0,148948:0:0:0:0:
192,192,148717,128,0,148948:0:0:0:0:
64,192,148948,128,0,149178:0:0:0:0:
448,192,148948,128,0,149178:0:0:0:0:
192,192,149178,1,0,0:0:0:0:
320,192,149178,1,0,0:0:0:0:
448,192,149217,1,0,0:0:0:0:
64,192,149255,1,0,0:0:0:0:
192,192,149294,1,0,0:0:0:0:
320,192,149332,1,0,0:0:0:0:
448,192,149371,1,0,0:0:0:0:
320,192,149409,1,0,0:0:0:0:
192,192,149448,1,0,0:0:0:0:
64,192,149486,1,0,0:0:0:0:
448,192,149525,1,0,0:0:0:0:
320,192,149525,1,0,0:0:0:0:
192,192,149563,1,0,0:0:0:0:
64,192,149602,1,0,0:0:0:0:
320,192,149640,1,0,0:0:0:0:
448,192,149678,1,0,0:0:0:0:
192,192,149717,1,0,0:0:0:0:
64,192,149755,1,0,0:0:0:0:
448,192,149794,1,0,0:0:0:0:
320,192,149832,1,0,0:0:0:0:
192,192,149871,1,0,0:0:0:0:
64,192,149871,1,0,0:0:0:0:
448,192,149909,1,0,0:0:0:0:
320,192,149948,1,0,0:0:0:0:
192,192,149986,1,0,0:0:0:0:
448,192,150025,1,0,0:0:0:0:
64,192,150063,1,0,0:0:0:0:
192,192,150102,1,0,0:0:0:0:
320,192,150102,1,0,0:0:0:0:
448,192,150140,1,0,0:0:0:0:
64,192,150178,1,0,0:0:0:0:
192,192,150217,1,0,0:0:0:0:
320,192,150255,1,0,0:0:0:0:
448,192,150294,1,0,0:0:0:0:
64,192,150332,1,0,0:0:0:0:
192,192,150371,1,0,0:0:0:0:
320,192,150409,1,0,0:0:0:0:
448,192,150448,1,0,0:0:0:0:
320,192,150486,1,0,0:0:0:0:
192,192,150525,1,0,0:0:0:0:
64,192,150563,1,0,0:0:0:0:
448,192,150563,1,0,0:0:0:0:
320,192,150602,1,0,0:0:0:0:
192,192,150640,1,0,0:0:0:0:
64,192,150678,1,0,0:0:0:0:
192,192,150717,1,0,0:0:0:0:
320,192,150755,1,0,0:0:0:0:
448,192,150794,1,0,0:0:0:0:
64,192,150832,1,0,0:0:0:0:
192,192,150871,1,0,0:0:0:0:
320,192,150909,1,0,0:0:0:0:
448,192,150948,1,0,0:0:0:0:
320,192,150986,1,0,0:0:0:0:
64,192,151025,1,0,0:0:0:0:
192,192,151025,1,0,0:0:0:0:
448,192,151063,1,0,0:0:0:0:
320,192,151102,1,0,0:0:0:0:
192,192,151140,1,0,0:0:0:0:
64,192,151178,1,0,0:0:0:0:
192,192,151217,1,0,0:0:0:0:
320,192,151255,1,0,0:0:0:0:
448,192,151294,1,0,0:0:0:0:
64,192,151332,1,0,0:0:0:0:
192,192,151371,1,0,0:0:0:0:
448,192,151371,1,0,0:0:0:0:
320,192,151409,1,0,0:0:0:0:
192,192,151448,1,0,0:0:0:0:
64,192,151486,1,0,0:0:0:0:
320,192,151525,1,0,0:0:0:0:
448,192,151563,1,0,0:0:0:0:
64,192,151602,1,0,0:0:0:0:
192,192,151640,1,0,0:0:0:0:
320,192,151678,1,0,0:0:0:0:
448,192,151717,1,0,0:0:0:0:
64,192,151717,1,0,0:0:0:0:
192,192,151755,1,0,0:0:0:0:
320,192,151794,1,0,0:0:0:0:
448,192,151832,1,0,0:0:0:0:
192,192,151871,1,0,0:0:0:0:
64,192,151909,1,0,0:0:0:0:
192,192,151948,1,0,0:0:0:0:
448,192,151948,128,0,152178:0:0:0:0:
192,192,152063,1,0,0:0:0:0:
320,192,152178,128,0,152294:0:0:0:0:
64,192,152178,1,0,0:0:0:0:
448,192,152294,128,0,152525:0:0:0:0:
64,192,152294,1,0,0:0:0:0:
192,192,152409,1,0,0:0:0:0:
64,192,152525,128,0,152871:0:0:0:0:
192,192,152525,1,0,0:0:0:0:
320,192,152640,1,0,0:0:0:0:
320,192,152755,1,0,0:0:0:0:
192,192,152871,1,0,0:0:0:0:
320,192,152871,1,0,0:0:0:0:
448,192,152909,1,0,0:0:0:0:
64,192,152948,1,0,0:0:0:0:
192,192,152986,1,0,0:0:0:0:
320,192,153025,1,0,0:0:0:0:
448,192,153063,1,0,0:0:0:0:
320,192,153102,1,0,0:0:0:0:
192,192,153140,1,0,0:0:0:0:
64,192,153178,1,0,0:0:0:0:
448,192,153217,1,0,0:0:0:0:
320,192,153217,1,0,0:0:0:0:
192,192,153255,1,0,0:0:0:0:
64,192,153294,1,0,0:0:0:0:
320,192,153332,1,0,0:0:0:0:
448,192,153371,1,0,0:0:0:0:
192,192,153409,1,0,0:0:0:0:
64,192,153448,1,0,0:0:0:0:
448,192,153486,1,0,0:0:0:0:
320,192,153525,1,0,0:0:0:0:
192,192,153563,1,0,0:0:0:0:
64,192,153563,1,0,0:0:0:0:
448,192,153602,1,0,0:0:0:0:
320,192,153640,1,0,0:0:0:0:
192,192,153678,1,0,0:0:0:0:
448,192,153717,1,0,0:0:0:0:
64,192,153755,1,0,0:0:0:0:
192,192,153794,1,0,0:0:0:0:
320,192,153794,1,0,0:0:0:0:
448,192,153832,1,0,0:0:0:0:
64,192,153871,1,0,0:0:0:0:
192,192,153909,1,0,0:0:0:0:
320,192,153948,1,0,0:0:0:0:
448,192,153986,1,0,0:0:0:0:
64,192,154025,1,0,0:0:0:0:
192,192,154063,1,0,0:0:0:0:
320,192,154102,1,0,0:0:0:0:
448,192,154140,1,0,0:0:0:0:
320,192,154178,1,0,0:0:0:0:
192,192,154217,1,0,0:0:0:0:
64,192,154255,1,0,0:0:0:0:
448,192,154255,1,0,0:0:0:0:
320,192,154294,1,0,0:0:0:0:
192,192,154332,1,0,0:0:0:0:
64,192,154371,1,0,0:0:0:0:
192,192,154409,1,0,0:0:0:0:
320,192,154448,1,0,0:0:0:0:
448,192,154486,1,0,0:0:0:0:
64,192,154525,1,0,0:0:0:0:
192,192,154563,1,0,0:0:0:0:
320,192,154602,1,0,0:0:0:0:
448,192,154640,1,0,0:0:0:0:
320,192,154678,1,0,0:0:0:0:
64,192,154717,1,0,0:0:0:0:
192,192,154717,1,0,0:0:0:0:
448,192,154755,1,0,0:0:0:0:
320,192,154794,1,0,0:0:0:0:
192,192,154832,1,0,0:0:0:0:
64,192,154871,1,0,0:0:0:0:
192,192,154909,1,0,0:0:0:0:
320,192,154948,1,0,0:0:0:0:
448,192,154986,1,0,0:0:0:0:
64,192,155025,1,0,0:0:0:0:
192,192,155063,1,0,0:0:0:0:
448,192,155063,1,0,0:0:0:0:
320,192,155102,1,0,0:0:0:0:
192,192,155140,1,0,0:0:0:0:
64,192,155178,1,0,0:0:0:0:
320,192,155217,1,0,0:0:0:0:
448,192,155255,1,0,0:0:0:0:
64,192,155294,1,0,0:0:0:0:
192,192,155332,1,0,0:0:0:0:
320,192,155371,1,0,0:0:0:0:
448,192,155409,1,0,0:0:0:0:
64,192,155409,1,0,0:0:0:0:
192,192,155448,1,0,0:0:0:0:
320,192,155486,1,0,0:0:0:0:
448,192,155525,1,0,0:0:0:0:
192,192,155563,1,0,0:0:0:0:
64,192,155602,1,0,0:0:0:0:
448,192,155640,1,0,0:0:0:0:
320,192,155640,1,0,0:0:0:0:
320,192,155755,1,0,0:0:0:0:
448,192,155755,1,0,0:0:0:0:
448,192,155871,1,0,0:0:0:0:
64,192,155871,1,0,0:0:0:0:
192,192,155909,1,0,0:0:0:0:
320,192,155948,1,0,0:0:0:0:
448,192,155986,1,0,0:0:0:0:
192,192,156025,1,0,0:0:0:0:
64,192,156063,1,0,0:0:0:0:
320,192,156102,1,0,0:0:0:0:
448,192,156140,1,0,0:0:0:0:
192,192,156178,1,0,0:0:0:0:
64,192,156217,1,0,0:0:0:0:
320,192,156255,1,0,0:0:0:0:
448,192,156294,1,0,0:0:0:0:
192,192,156332,1,0,0:0:0:0:
64,192,156332,1,0,0:0:0:0:
64,192,156448,1,0,0:0:0:0:
320,192,156563,1,0,0:0:0:0:
192,192,156563,1,0,0:0:0:0:
64,192,156602,1,0,0:0:0:0:
448,192,156640,1,0,0:0:0:0:
320,192,156678,1,0,0:0:0:0:
192,192,156717,1,0,0:0:0:0:
64,192,156755,1,0,0:0:0:0:
192,192,156794,1,0,0:0:0:0:
320,192,156832,1,0,0:0:0:0:
448,192,156871,1,0,0:0:0:0:
64,192,156909,1,0,0:0:0:0:
192,192,156909,1,0,0:0:0:0:
320,192,156948,1,0,0:0:0:0:
448,192,156986,1,0,0:0:0:0:
192,192,157025,1,0,0:0:0:0:
64,192,157063,1,0,0:0:0:0:
320,192,157102,1,0,0:0:0:0:
448,192,157140,1,0,0:0:0:0:
64,192,157178,1,0,0:0:0:0:
192,192,157217,1,0,0:0:0:0:
320,192,157255,1,0,0:0:0:0:
448,192,157255,1,0,0:0:0:0:
64,192,157294,1,0,0:0:0:0:
192,192,157332,1,0,0:0:0:0:
320,192,157371,1,0,0:0:0:0:
64,192,157409,1,0,0:0:0:0:
448,192,157448,1,0,0:0:0:0:
320,192,157486,1,0,0:0:0:0:
192,192,157486,1,0,0:0:0:0:
64,192,157525,1,0,0:0:0:0:
448,192,157563,1,0,0:0:0:0:
320,192,157602,1,0,0:0:0:0:
192,192,157640,1,0,0:0:0:0:
64,192,157678,1,0,0:0:0:0:
448,192,157717,1,0,0:0:0:0:
320,192,157755,1,0,0:0:0:0:
192,192,157794,1,0,0:0:0:0:
64,192,157832,1,0,0:0:0:0:
192,192,157871,1,0,0:0:0:0:
320,192,157909,1,0,0:0:0:0:
448,192,157948,1,0,0:0:0:0:
64,192,157948,1,0,0:0:0:0:
192,192,157986,1,0,0:0:0:0:
320,192,158025,1,0,0:0:0:0:
448,192,158063,1,0,0:0:0:0:
320,192,158102,1,0,0:0:0:0:
192,192,158140,1,0,0:0:0:0:
64,192,158178,1,0,0:0:0:0:
448,192,158217,1,0,0:0:0:0:
320,192,158255,1,0,0:0:0:0:
192,192,158294,1,0,0:0:0:0:
64,192,158332,1,0,0:0:0:0:
192,192,158371,1,0,0:0:0:0:
448,192,158409,1,0,0:0:0:0:
320,192,158409,1,0,0:0:0:0:
64,192,158448,1,0,0:0:0:0:
192,192,158486,1,0,0:0:0:0:
320,192,158525,1,0,0:0:0:0:
448,192,158563,1,0,0:0:0:0:
320,192,158602,1,0,0:0:0:0:
192,192,158640,1,0,0:0:0:0:
64,192,158678,1,0,0:0:0:0:
448,192,158717,1,0,0:0:0:0:
320,192,158755,1,0,0:0:0:0:
64,192,158755,1,0,0:0:0:0:
192,192,158794,1,0,0:0:0:0:
320,192,158832,1,0,0:0:0:0:
448,192,158871,1,0,0:0:0:0:
192,192,158909,1,0,0:0:0:0:
64,192,158948,1,0,0:0:0:0:
448,192,158986,1,0,0:0:0:0:
320,192,159025,1,0,0:0:0:0:
192,192,159063,1,0,0:0:0:0:
64,192,159102,1,0,0:0:0:0:
448,192,159102,1,0,0:0:0:0:
320,192,159140,1,0,0:0:0:0:
192,192,159178,1,0,0:0:0:0:
64,192,159217,1,0,0:0:0:0:
320,192,159255,1,0,0:0:0:0:
448,192,159294,1,0,0:0:0:0:
64,192,159332,128,0,159563:0:0:0:0:
320,192,159332,1,0,0:0:0:0:
320,192,159448,1,0,0:0:0:0:
448,192,159563,1,0,0:0:0:0:
192,192,159563,128,0,159678:0:0:0:0:
64,192,159678,128,0,159909:0:0:0:0:
448,192,159678,1,0,0:0:0:0:
320,192,159794,1,0,0:0:0:0:
448,192,159909,128,0,160255:0:0:0:0:
320,192,159909,1,0,0:0:0:0:
192,192,160025,1,0,0:0:0:0:
192,192,160140,1,0,0:0:0:0:
320,192,160255,1,0,0:0:0:0:
192,192,160255,1,0,0:0:0:0:
64,192,160294,1,0,0:0:0:0:
448,192,160332,1,0,0:0:0:0:
320,192,160371,1,0,0:0:0:0:
192,192,160409,1,0,0:0:0:0:
64,192,160448,1,0,0:0:0:0:
192,192,160486,1,0,0:0:0:0:
320,192,160525,1,0,0:0:0:0:
448,192,160563,1,0,0:0:0:0:
64,192,160602,1,0,0:0:0:0:
192,192,160602,1,0,0:0:0:0:
320,192,160640,1,0,0:0:0:0:
448,192,160678,1,0,0:0:0:0:
192,192,160717,1,0,0:0:0:0:
64,192,160755,1,0,0:0:0:0:
320,192,160794,1,0,0:0:0:0:
448,192,160832,1,0,0:0:0:0:
64,192,160871,1,0,0:0:0:0:
192,192,160909,1,0,0:0:0:0:
320,192,160948,1,0,0:0:0:0:
448,192,160948,1,0,0:0:0:0:
64,192,160986,1,0,0:0:0:0:
192,192,161025,1,0,0:0:0:0:
320,192,161063,1,0,0:0:0:0:
64,192,161102,1,0,0:0:0:0:
448,192,161140,1,0,0:0:0:0:
320,192,161178,1,0,0:0:0:0:
192,192,161178,1,0,0:0:0:0:
64,192,161217,1,0,0:0:0:0:
448,192,161255,1,0,0:0:0:0:
320,192,161294,1,0,0:0:0:0:
192,192,161332,1,0,0:0:0:0:
64,192,161371,1,0,0:0:0:0:
448,192,161409,1,0,0:0:0:0:
320,192,161448,1,0,0:0:0:0:
192,192,161486,1,0,0:0:0:0:
64,192,161525,1,0,0:0:0:0:
192,192,161563,1,0,0:0:0:0:
320,192,161602,1,0,0:0:0:0:
448,192,161640,1,0,0:0:0:0:
64,192,161640,1,0,0:0:0:0:
192,192,161678,1,0,0:0:0:0:
320,192,161717,1,0,0:0:0:0:
448,192,161755,1,0,0:0:0:0:
320,192,161794,1,0,0:0:0:0:
192,192,161832,1,0,0:0:0:0:
64,192,161871,1,0,0:0:0:0:
448,192,161909,1,0,0:0:0:0:
320,192,161948,1,0,0:0:0:0:
192,192,161986,1,0,0:0:0:0:
64,192,162025,1,0,0:0:0:0:
192,192,162063,1,0,0:0:0:0:
448,192,162102,1,0,0:0:0:0:
320,192,162102,1,0,0:0:0:0:
64,192,162140,1,0,0:0:0:0:
192,192,162178,1,0,0:0:0:0:
320,192,162217,1,0,0:0:0:0:
448,192,162255,1,0,0:0:0:0:
320,192,162294,1,0,0:0:0:0:
192,192,162332,1,0,0:0:0:0:
64,192,162371,1,0,0:0:0:0:
448,192,162409,1,0,0:0:0:0:
320,192,162448,1,0,0:0:0:0:
64,192,162448,1,0,0:0:0:0:
192,192,162486,1,0,0:0:0:0:
320,192,162525,1,0,0:0:0:0:
448,192,162563,1,0,0:0:0:0:
192,192,162602,1,0,0:0:0:0:
64,192,162640,1,0,0:0:0:0:
448,192,162678,1,0,0:0:0:0:
320,192,162717,1,0,0:0:0:0:
192,192,162755,1,0,0:0:0:0:
64,192,162794,1,0,0:0:0:0:
448,192,162794,1,0,0:0:0:0:
320,192,162832,1,0,0:0:0:0:
192,192,162871,1,0,0:0:0:0:
64,192,162909,1,0,0:0:0:0:
320,192,162948,1,0,0:0:0:0:
448,192,162986,1,0,0:0:0:0:
64,192,163025,1,0,0:0:0:0:
192,192,163025,1,0,0:0:0:0:
192,192,163140,1,0,0:0:0:0:
64,192,163140,1,0,0:0:0:0:
448,192,163255,1,0,0:0:0:0:
64,192,163255,1,0,0:0:0:0:
320,192,163294,1,0,0:0:0:0:
192,192,163332,1,0,0:0:0:0:
64,192,163371,1,0,0:0:0:0:
320,192,163409,1,0,0:0:0:0:
448,192,163448,1,0,0:0:0:0:
192,192,163486,1,0,0:0:0:0:
64,192,163525,1,0,0:0:0:0:
320,192,163563,1,0,0:0:0:0:
448,192,163602,1,0,0:0:0:0:
192,192,163640,1,0,0:0:0:0:
64,192,163678,1,0,0:0:0:0:
448,192,163717,1,0,0:0:0:0:
320,192,163717,1,0,0:0:0:0:
448,192,163832,1,0,0:0:0:0:
64,192,163948,1,0,0:0:0:0:
448,192,163948,1,0,0:0:0:0:
192,192,163948,128,0,164871:0:0:0:0:
320,192,163948,128,0,164255:0:0:0:0:
448,192,164255,128,0,164563:0:0:0:0:
64,192,164563,128,0,164871:0:0:0:0:
448,192,164871,128,0,165794:0:0:0:0:
320,192,164871,128,0,164986:0:0:0:0:
320,192,165102,128,0,165217:0:0:0:0:
192,192,165332,128,0,165448:0:0:0:0:
192,192,165563,128,0,165678:0:0:0:0:
64,192,165794,128,0,166102:0:0:0:0:
320,192,165794,128,0,166102:0:0:0:0:
192,192,166102,128,0,166409:0:0:0:0:
448,192,166102,128,0,166409:0:0:0:0:
320,192,166409,128,0,166717:0:0:0:0:
64,192,166409,128,0,166717:0:0:0:0:
