osu file format v14

[General]
AudioFilename: audio120.mp3
AudioLeadIn: 0
PreviewTime: -1
Countdown: 0
SampleSet: Normal
StackLeniency: 0.7
Mode: 3
LetterboxInBreaks: 0
SpecialStyle: 0
WidescreenStoryboard: 0

[Editor]
Bookmarks: 90357
DistanceSpacing: 1.3
BeatDivisor: 3
GridSize: 4
TimelineZoom: 0.9

[Metadata]
Title:Coco Jambo
TitleUnicode:Coco Jambo
Artist:Mr. President
ArtistUnicode:Mr. President
Creator:LordTimeWaste
Version:Coco Jambo [1,2x Rate]
Source:
Tags:
BeatmapID:1737301
BeatmapSetID:823841

[Difficulty]
HPDrainRate:8
CircleSize:4
OverallDifficulty:8
ApproachRate:5
SliderMultiplier:1.4
SliderTickRate:1

[Events]
//Background and Video events
0,0,"pBPcDpeDb8HfN6a6nMTcmR.jpg",0,0
//Break Periods
//Storyboard Layer 0 (Background)
//Storyboard Layer 1 (Fail)
//Storyboard Layer 2 (Pass)
//Storyboard Layer 3 (Foreground)
//Storyboard Sound Samples

[TimingPoints]
1607,500,4,1,0,20,1,0

[HitObjects]
320,192,1607,5,0,0:0:0:0:
64,192,1607,1,0,0:0:0:0:
320,192,1732,1,0,0:0:0:0:
192,192,1857,1,0,0:0:0:0:
448,192,1857,1,0,0:0:0:0:
192,192,1982,1,0,0:0:0:0:
64,192,2107,1,0,0:0:0:0:
448,192,2107,1,0,0:0:0:0:
320,192,2107,1,0,0:0:0:0:
64,192,2232,1,0,0:0:0:0:
448,192,2357,1,0,0:0:0:0:
192,192,2357,1,0,0:0:0:0:
448,192,2482,1,0,0:0:0:0:
320,192,2607,1,0,0:0:0:0:
192,192,2607,1,0,0:0:0:0:
320,192,2732,1,0,0:0:0:0:
64,192,2857,1,0,0:0:0:0:
448,192,2857,1,0,0:0:0:0:
64,192,2982,1,0,0:0:0:0:
192,192,3107,1,0,0:0:0:0:
448,192,3107,1,0,0:0:0:0:
320,192,3107,1,0,0:0:0:0:
192,192,3232,1,0,0:0:0:0:
448,192,3357,1,0,0:0:0:0:
64,192,3357,1,0,0:0:0:0:
448,192,3482,1,0,0:0:0:0:
192,192,3607,1,0,0:0:0:0:
320,192,3607,1,0,0:0:0:0:
192,192,3732,1,0,0:0:0:0:
320,192,3857,1,0,0:0:0:0:
64,192,3857,1,0,0:0:0:0:
320,192,3982,1,0,0:0:0:0:
192,192,4107,1,0,0:0:0:0:
448,192,4107,1,0,0:0:0:0:
64,192,4107,1,0,0:0:0:0:
448,192,4232,1,0,0:0:0:0:
64,192,4357,1,0,0:0:0:0:
320,192,4357,1,0,0:0:0:0:
64,192,4482,1,0,0:0:0:0:
192,192,4607,1,0,0:0:0:0:
448,192,4607,1,0,0:0:0:0:
448,192,4732,1,0,0:0:0:0:
320,192,4857,1,0,0:0:0:0:
64,192,4857,1,0,0:0:0:0:
320,192,4982,1,0,0:0:0:0:
64,192,5107,1,0,0:0:0:0:
448,192,5107,1,0,0:0:0:0:
192,192,5107,1,0,0:0:0:0:
64,192,5232,1,0,0:0:0:0:
192,192,5357,1,0,0:0:0:0:
320,192,5357,1,0,0:0:0:0:
192,192,5482,1,0,0:0:0:0:
448,192,5607,1,0,0:0:0:0:
64,192,5607,1,0,0:0:0:0:
320,192,5648,1,0,0:0:0:0:
192,192,5690,1,0,0:0:0:0:
64,192,5732,1,0,0:0:0:0:
192,192,5773,1,0,0:0:0:0:
320,192,5815,1,0,0:0:0:0:
448,192,5857,1,0,0:0:0:0:
192,192,5898,1,0,0:0:0:0:
64,192,5940,1,0,0:0:0:0:
448,192,5982,1,0,0:0:0:0:
320,192,5982,1,0,0:0:0:0:
192,192,6023,1,0,0:0:0:0:
64,192,6065,1,0,0:0:0:0:
320,192,6107,1,0,0:0:0:0:
448,192,6148,1,0,0:0:0:0:
192,192,6190,1,0,0:0:0:0:
64,192,6232,1,0,0:0:0:0:
448,192,6273,1,0,0:0:0:0:
320,192,6315,1,0,0:0:0:0:
192,192,6357,1,0,0:0:0:0:
64,192,6357,1,0,0:0:0:0:
448,192,6398,1,0,0:0:0:0:
320,192,6440,1,0,0:0:0:0:
192,192,6482,1,0,0:0:0:0:
448,192,6523,1,0,0:0:0:0:
64,192,6565,1,0,0:0:0:0:
192,192,6607,1,0,0:0:0:0:
320,192,6607,1,0,0:0:0:0:
448,192,6648,1,0,0:0:0:0:
64,192,6690,1,0,0:0:0:0:
192,192,6732,1,0,0:0:0:0:
320,192,6773,1,0,0:0:0:0:
448,192,6815,1,0,0:0:0:0:
64,192,6857,1,0,0:0:0:0:
192,192,6898,1,0,0:0:0:0:
320,192,6940,1,0,0:0:0:0:
448,192,6982,1,0,0:0:0:0:
320,192,7023,1,0,0:0:0:0:
192,192,7065,1,0,0:0:0:0:
64,192,7107,1,0,0:0:0:0:
448,192,7107,1,0,0:0:0:0:
320,192,7148,1,0,0:0:0:0:
192,192,7190,1,0,0:0:0:0:
64,192,7232,1,0,0:0:0:0:
192,192,7273,1,0,0:0:0:0:
320,192,7315,1,0,0:0:0:0:
448,192,7357,1,0,0:0:0:0:
64,192,7398,1,0,0:0:0:0:
192,192,7440,1,0,0:0:0:0:
320,192,7482,1,0,0:0:0:0:
448,192,7523,1,0,0:0:0:0:
320,192,7565,1,0,0:0:0:0:
64,192,7607,1,0,0:0:0:0:
192,192,7607,1,0,0:0:0:0:
448,192,7648,1,0,0:0:0:0:
320,192,7690,1,0,0:0:0:0:
192,192,7732,1,0,0:0:0:0:
64,192,7773,1,0,0:0:0:0:
192,192,7815,1,0,0:0:0:0:
320,192,7857,1,0,0:0:0:0:
448,192,7898,1,0,0:0:0:0:
64,192,7940,1,0,0:0:0:0:
192,192,7982,1,0,0:0:0:0:
448,192,7982,1,0,0:0:0:0:
320,192,8023,1,0,0:0:0:0:
192,192,8065,1,0,0:0:0:0:
64,192,8107,1,0,0:0:0:0:
320,192,8148,1,0,0:0:0:0:
448,192,8190,1,0,0:0:0:0:
64,192,8232,1,0,0:0:0:0:
192,192,8273,1,0,0:0:0:0:
320,192,8315,1,0,0:0:0:0:
448,192,8357,1,0,0:0:0:0:
64,192,8357,1,0,0:0:0:0:
192,192,8398,1,0,0:0:0:0:
320,192,8440,1,0,0:0:0:0:
448,192,8482,1,0,0:0:0:0:
192,192,8523,1,0,0:0:0:0:
320,192,8565,1,0,0:0:0:0:
448,192,8607,1,0,0:0:0:0:
64,192,8607,1,0,0:0:0:0:
64,192,8732,1,0,0:0:0:0:
192,192,8857,1,0,0:0:0:0:
448,192,8857,1,0,0:0:0:0:
448,192,8982,1,0,0:0:0:0:
64,192,9107,1,0,0:0:0:0:
320,192,9107,1,0,0:0:0:0:
192,192,9107,1,0,0:0:0:0:
192,192,9232,1,0,0:0:0:0:
320,192,9357,1,0,0:0:0:0:
448,192,9357,1,0,0:0:0:0:
320,192,9482,1,0,0:0:0:0:
64,192,9607,1,0,0:0:0:0:
192,192,9607,1,0,0:0:0:0:
320,192,9607,1,0,0:0:0:0:
448,192,9607,1,0,0:0:0:0:
192,192,9732,1,0,0:0:0:0:
64,192,9857,1,0,0:0:0:0:
320,192,9857,1,0,0:0:0:0:
448,192,9857,1,0,0:0:0:0:
448,192,9982,1,0,0:0:0:0:
192,192,9982,1,0,0:0:0:0:
64,192,10107,1,0,0:0:0:0:
192,192,10107,1,0,0:0:0:0:
320,192,10107,1,0,0:0:0:0:
448,192,10107,1,0,0:0:0:0:
320,192,10232,1,0,0:0:0:0:
192,192,10357,1,0,0:0:0:0:
448,192,10357,1,0,0:0:0:0:
64,192,10357,1,0,0:0:0:0:
64,192,10482,1,0,0:0:0:0:
192,192,10607,1,0,0:0:0:0:
320,192,10607,1,0,0:0:0:0:
448,192,10607,1,0,0:0:0:0:
64,192,10607,1,0,0:0:0:0:
320,192,10732,1,0,0:0:0:0:
192,192,10857,1,0,0:0:0:0:
64,192,10857,1,0,0:0:0:0:
448,192,10857,1,0,0:0:0:0:
64,192,10982,1,0,0:0:0:0:
192,192,10982,1,0,0:0:0:0:
64,192,11107,1,0,0:0:0:0:
192,192,11107,1,0,0:0:0:0:
320,192,11107,1,0,0:0:0:0:
448,192,11107,1,0,0:0:0:0:
320,192,11232,1,0,0:0:0:0:
448,192,11357,1,0,0:0:0:0:
192,192,11357,1,0,0:0:0:0:
64,192,11357,1,0,0:0:0:0:
448,192,11482,1,0,0:0:0:0:
448,192,11607,1,0,0:0:0:0:
320,192,11607,1,0,0:0:0:0:
192,192,11607,1,0,0:0:0:0:
64,192,11607,1,0,0:0:0:0:
320,192,11732,1,0,0:0:0:0:
448,192,11857,1,0,0:0:0:0:
192,192,11857,1,0,0:0:0:0:
64,192,11857,1,0,0:0:0:0:
64,192,11982,1,0,0:0:0:0:
320,192,11982,1,0,0:0:0:0:
448,192,12107,1,0,0:0:0:0:
320,192,12107,1,0,0:0:0:0:
192,192,12107,1,0,0:0:0:0:
64,192,12107,1,0,0:0:0:0:
192,192,12232,1,0,0:0:0:0:
320,192,12357,1,0,0:0:0:0:
64,192,12357,1,0,0:0:0:0:
448,192,12357,1,0,0:0:0:0:
448,192,12482,1,0,0:0:0:0:
320,192,12607,1,0,0:0:0:0:
192,192,12607,1,0,0:0:0:0:
64,192,12607,1,0,0:0:0:0:
448,192,12607,1,0,0:0:0:0:
192,192,12732,1,0,0:0:0:0:
320,192,12857,1,0,0:0:0:0:
448,192,12857,1,0,0:0:0:0:
64,192,12857,1,0,0:0:0:0:
448,192,12982,1,0,0:0:0:0:
320,192,12982,1,0,0:0:0:0:
448,192,13107,1,0,0:0:0:0:
320,192,13107,1,0,0:0:0:0:
192,192,13107,1,0,0:0:0:0:
64,192,13107,1,0,0:0:0:0:
192,192,13232,1,0,0:0:0:0:
64,192,13357,1,0,0:0:0:0:
320,192,13357,1,0,0:0:0:0:
448,192,13357,1,0,0:0:0:0:
64,192,13482,1,0,0:0:0:0:
448,192,13607,1,0,0:0:0:0:
192,192,13607,1,0,0:0:0:0:
320,192,13648,1,0,0:0:0:0:
64,192,13690,1,0,0:0:0:0:
192,192,13732,1,0,0:0:0:0:
320,192,13773,1,0,0:0:0:0:
448,192,13815,1,0,0:0:0:0:
320,192,13857,1,0,0:0:0:0:
192,192,13898,1,0,0:0:0:0:
64,192,13940,1,0,0:0:0:0:
448,192,13982,1,0,0:0:0:0:
320,192,13982,1,0,0:0:0:0:
192,192,14023,1,0,0:0:0:0:
64,192,14065,1,0,0:0:0:0:
320,192,14107,1,0,0:0:0:0:
448,192,14148,1,0,0:0:0:0:
192,192,14190,1,0,0:0:0:0:
64,192,14232,1,0,0:0:0:0:
448,192,14273,1,0,0:0:0:0:
320,192,14315,1,0,0:0:0:0:
192,192,14357,1,0,0:0:0:0:
64,192,14357,1,0,0:0:0:0:
448,192,14398,1,0,0:0:0:0:
320,192,14440,1,0,0:0:0:0:
192,192,14482,1,0,0:0:0:0:
448,192,14523,1,0,0:0:0:0:
64,192,14565,1,0,0:0:0:0:
192,192,14607,1,0,0:0:0:0:
320,192,14607,1,0,0:0:0:0:
448,192,14648,1,0,0:0:0:0:
64,192,14690,1,0,0:0:0:0:
192,192,14732,1,0,0:0:0:0:
320,192,14773,1,0,0:0:0:0:
448,192,14815,1,0,0:0:0:0:
64,192,14857,1,0,0:0:0:0:
192,192,14898,1,0,0:0:0:0:
320,192,14940,1,0,0:0:0:0:
448,192,14982,1,0,0:0:0:0:
320,192,15023,1,0,0:0:0:0:
192,192,15065,1,0,0:0:0:0:
64,192,15107,1,0,0:0:0:0:
448,192,15107,1,0,0:0:0:0:
320,192,15148,1,0,0:0:0:0:
192,192,15190,1,0,0:0:0:0:
64,192,15232,1,0,0:0:0:0:
192,192,15273,1,0,0:0:0:0:
320,192,15315,1,0,0:0:0:0:
448,192,15357,1,0,0:0:0:0:
64,192,15398,1,0,0:0:0:0:
192,192,15440,1,0,0:0:0:0:
320,192,15482,1,0,0:0:0:0:
448,192,15523,1,0,0:0:0:0:
320,192,15565,1,0,0:0:0:0:
64,192,15607,1,0,0:0:0:0:
192,192,15607,1,0,0:0:0:0:
448,192,15648,1,0,0:0:0:0:
320,192,15690,1,0,0:0:0:0:
192,192,15732,1,0,0:0:0:0:
64,192,15773,1,0,0:0:0:0:
192,192,15815,1,0,0:0:0:0:
320,192,15857,1,0,0:0:0:0:
448,192,15898,1,0,0:0:0:0:
64,192,15940,1,0,0:0:0:0:
192,192,15982,1,0,0:0:0:0:
448,192,15982,1,0,0:0:0:0:
320,192,16023,1,0,0:0:0:0:
192,192,16065,1,0,0:0:0:0:
64,192,16107,1,0,0:0:0:0:
320,192,16148,1,0,0:0:0:0:
448,192,16190,1,0,0:0:0:0:
64,192,16232,1,0,0:0:0:0:
192,192,16273,1,0,0:0:0:0:
320,192,16315,1,0,0:0:0:0:
448,192,16357,1,0,0:0:0:0:
64,192,16357,1,0,0:0:0:0:
192,192,16398,1,0,0:0:0:0:
320,192,16440,1,0,0:0:0:0:
448,192,16482,1,0,0:0:0:0:
192,192,16523,1,0,0:0:0:0:
320,192,16565,1,0,0:0:0:0:
448,192,16607,1,0,0:0:0:0:
64,192,16607,1,0,0:0:0:0:
192,192,16732,1,0,0:0:0:0:
320,192,16732,1,0,0:0:0:0:
64,192,16857,1,0,0:0:0:0:
448,192,16857,1,0,0:0:0:0:
192,192,16982,1,0,0:0:0:0:
320,192,16982,1,0,0:0:0:0:
64,192,17107,128,0,17357:0:0:0:0:
448,192,17107,128,0,17357:0:0:0:0:
192,192,17357,128,0,17607:0:0:0:0:
320,192,17357,128,0,17607:0:0:0:0:
64,192,17607,1,0,0:0:0:0:
448,192,17607,1,0,0:0:0:0:
64,192,17732,1,0,0:0:0:0:
192,192,17857,1,0,0:0:0:0:
320,192,17857,1,0,0:0:0:0:
448,192,17857,1,0,0:0:0:0:
64,192,17982,1,0,0:0:0:0:
320,192,17982,1,0,0:0:0:0:
64,192,18107,1,0,0:0:0:0:
320,192,18107,1,0,0:0:0:0:
448,192,18107,1,0,0:0:0:0:
192,192,18107,1,0,0:0:0:0:
192,192,18232,1,0,0:0:0:0:
192,192,18357,1,0,0:0:0:0:
320,192,18357,1,0,0:0:0:0:
448,192,18357,1,0,0:0:0:0:
320,192,18482,1,0,0:0:0:0:
448,192,18482,1,0,0:0:0:0:
192,192,18607,1,0,0:0:0:0:
64,192,18607,1,0,0:0:0:0:
320,192,18607,1,0,0:0:0:0:
448,192,18607,1,0,0:0:0:0:
64,192,18732,1,0,0:0:0:0:
192,192,18857,1,0,0:0:0:0:
320,192,18857,1,0,0:0:0:0:
448,192,18857,1,0,0:0:0:0:
320,192,18982,1,0,0:0:0:0:
64,192,18982,1,0,0:0:0:0:
192,192,19107,1,0,0:0:0:0:
320,192,19107,1,0,0:0:0:0:
448,192,19107,1,0,0:0:0:0:
64,192,19107,1,0,0:0:0:0:
192,192,19232,1,0,0:0:0:0:
64,192,19357,1,0,0:0:0:0:
320,192,19357,1,0,0:0:0:0:
448,192,19357,1,0,0:0:0:0:
320,192,19482,1,0,0:0:0:0:
448,192,19607,1,0,0:0:0:0:
64,192,19607,1,0,0:0:0:0:
192,192,19607,1,0,0:0:0:0:
320,192,19607,1,0,0:0:0:0:
448,192,19732,1,0,0:0:0:0:
64,192,19857,1,0,0:0:0:0:
320,192,19857,1,0,0:0:0:0:
192,192,19857,1,0,0:0:0:0:
448,192,19982,1,0,0:0:0:0:
64,192,19982,1,0,0:0:0:0:
192,192,20107,1,0,0:0:0:0:
320,192,20107,1,0,0:0:0:0:
448,192,20107,1,0,0:0:0:0:
64,192,20107,1,0,0:0:0:0:
320,192,20232,1,0,0:0:0:0:
192,192,20357,1,0,0:0:0:0:
320,192,20357,1,0,0:0:0:0:
64,192,20357,1,0,0:0:0:0:
192,192,20482,1,0,0:0:0:0:
64,192,20482,1,0,0:0:0:0:
64,192,20607,1,0,0:0:0:0:
192,192,20607,1,0,0:0:0:0:
320,192,20607,1,0,0:0:0:0:
448,192,20607,1,0,0:0:0:0:
320,192,20732,1,0,0:0:0:0:
64,192,20857,1,0,0:0:0:0:
192,192,20857,1,0,0:0:0:0:
448,192,20857,1,0,0:0:0:0:
320,192,20982,1,0,0:0:0:0:
64,192,20982,1,0,0:0:0:0:
64,192,21107,1,0,0:0:0:0:
192,192,21107,1,0,0:0:0:0:
320,192,21107,1,0,0:0:0:0:
448,192,21107,1,0,0:0:0:0:
192,192,21232,1,0,0:0:0:0:
64,192,21357,1,0,0:0:0:0:
320,192,21357,1,0,0:0:0:0:
448,192,21357,1,0,0:0:0:0:
320,192,21482,1,0,0:0:0:0:
64,192,21607,1,0,0:0:0:0:
192,192,21607,1,0,0:0:0:0:
448,192,21607,1,0,0:0:0:0:
320,192,21607,1,0,0:0:0:0:
192,192,21732,1,0,0:0:0:0:
64,192,21857,1,0,0:0:0:0:
320,192,21857,1,0,0:0:0:0:
448,192,21857,1,0,0:0:0:0:
448,192,21982,1,0,0:0:0:0:
192,192,21982,1,0,0:0:0:0:
448,192,22107,1,0,0:0:0:0:
320,192,22107,1,0,0:0:0:0:
192,192,22107,1,0,0:0:0:0:
64,192,22107,1,0,0:0:0:0:
192,192,22232,1,0,0:0:0:0:
64,192,22357,1,0,0:0:0:0:
320,192,22357,1,0,0:0:0:0:
448,192,22357,1,0,0:0:0:0:
448,192,22482,1,0,0:0:0:0:
320,192,22482,1,0,0:0:0:0:
64,192,22607,1,0,0:0:0:0:
192,192,22607,1,0,0:0:0:0:
448,192,22607,1,0,0:0:0:0:
320,192,22607,1,0,0:0:0:0:
192,192,22732,1,0,0:0:0:0:
64,192,22857,1,0,0:0:0:0:
320,192,22857,1,0,0:0:0:0:
448,192,22857,1,0,0:0:0:0:
192,192,22982,1,0,0:0:0:0:
448,192,22982,1,0,0:0:0:0:
64,192,23107,1,0,0:0:0:0:
192,192,23107,1,0,0:0:0:0:
448,192,23107,1,0,0:0:0:0:
320,192,23107,1,0,0:0:0:0:
64,192,23232,1,0,0:0:0:0:
320,192,23232,1,0,0:0:0:0:
192,192,23357,1,0,0:0:0:0:
448,192,23357,1,0,0:0:0:0:
64,192,23357,1,0,0:0:0:0:
448,192,23482,1,0,0:0:0:0:
192,192,23482,1,0,0:0:0:0:
64,192,23607,1,0,0:0:0:0:
192,192,23607,1,0,0:0:0:0:
320,192,23607,1,0,0:0:0:0:
448,192,23607,1,0,0:0:0:0:
64,192,23732,1,0,0:0:0:0:
320,192,23732,1,0,0:0:0:0:
320,192,23857,1,0,0:0:0:0:
448,192,23857,1,0,0:0:0:0:
192,192,23857,1,0,0:0:0:0:
64,192,23982,1,0,0:0:0:0:
448,192,23982,1,0,0:0:0:0:
64,192,24107,1,0,0:0:0:0:
448,192,24107,1,0,0:0:0:0:
320,192,24107,1,0,0:0:0:0:
192,192,24107,1,0,0:0:0:0:
320,192,24232,1,0,0:0:0:0:
192,192,24232,1,0,0:0:0:0:
64,192,24357,1,0,0:0:0:0:
320,192,24357,1,0,0:0:0:0:
448,192,24357,1,0,0:0:0:0:
64,192,24482,1,0,0:0:0:0:
192,192,24482,1,0,0:0:0:0:
320,192,24607,1,0,0:0:0:0:
448,192,24607,1,0,0:0:0:0:
320,192,24732,1,0,0:0:0:0:
448,192,24732,1,0,0:0:0:0:
320,192,24857,1,0,0:0:0:0:
448,192,24857,1,0,0:0:0:0:
320,192,24982,1,0,0:0:0:0:
448,192,24982,1,0,0:0:0:0:
64,192,25107,1,0,0:0:0:0:
192,192,25107,1,0,0:0:0:0:
64,192,25232,1,0,0:0:0:0:
192,192,25232,1,0,0:0:0:0:
64,192,25357,1,0,0:0:0:0:
192,192,25357,1,0,0:0:0:0:
64,192,25482,1,0,0:0:0:0:
192,192,25482,1,0,0:0:0:0:
448,192,25607,1,0,0:0:0:0:
64,192,25607,1,0,0:0:0:0:
320,192,25607,1,0,0:0:0:0:
192,192,25607,1,0,0:0:0:0:
448,192,25732,1,0,0:0:0:0:
320,192,25857,1,0,0:0:0:0:
192,192,25857,1,0,0:0:0:0:
64,192,25857,1,0,0:0:0:0:
448,192,25982,1,0,0:0:0:0:
192,192,25982,1,0,0:0:0:0:
448,192,26107,1,0,0:0:0:0:
192,192,26107,1,0,0:0:0:0:
64,192,26107,1,0,0:0:0:0:
320,192,26107,1,0,0:0:0:0:
320,192,26232,1,0,0:0:0:0:
320,192,26357,1,0,0:0:0:0:
192,192,26357,1,0,0:0:0:0:
64,192,26357,1,0,0:0:0:0:
192,192,26482,1,0,0:0:0:0:
64,192,26482,1,0,0:0:0:0:
320,192,26607,1,0,0:0:0:0:
448,192,26607,1,0,0:0:0:0:
192,192,26607,1,0,0:0:0:0:
64,192,26607,1,0,0:0:0:0:
448,192,26732,1,0,0:0:0:0:
320,192,26857,1,0,0:0:0:0:
192,192,26857,1,0,0:0:0:0:
64,192,26857,1,0,0:0:0:0:
192,192,26982,1,0,0:0:0:0:
448,192,26982,1,0,0:0:0:0:
320,192,27107,1,0,0:0:0:0:
192,192,27107,1,0,0:0:0:0:
64,192,27107,1,0,0:0:0:0:
448,192,27107,1,0,0:0:0:0:
320,192,27232,1,0,0:0:0:0:
448,192,27357,1,0,0:0:0:0:
192,192,27357,1,0,0:0:0:0:
64,192,27357,1,0,0:0:0:0:
192,192,27482,1,0,0:0:0:0:
64,192,27607,1,0,0:0:0:0:
448,192,27607,1,0,0:0:0:0:
320,192,27607,1,0,0:0:0:0:
192,192,27607,1,0,0:0:0:0:
64,192,27732,1,0,0:0:0:0:
448,192,27857,1,0,0:0:0:0:
192,192,27857,1,0,0:0:0:0:
320,192,27857,1,0,0:0:0:0:
64,192,27982,1,0,0:0:0:0:
448,192,27982,1,0,0:0:0:0:
320,192,28107,1,0,0:0:0:0:
192,192,28107,1,0,0:0:0:0:
64,192,28107,1,0,0:0:0:0:
448,192,28107,1,0,0:0:0:0:
192,192,28232,1,0,0:0:0:0:
320,192,28357,1,0,0:0:0:0:
192,192,28357,1,0,0:0:0:0:
448,192,28357,1,0,0:0:0:0:
320,192,28482,1,0,0:0:0:0:
448,192,28482,1,0,0:0:0:0:
448,192,28607,1,0,0:0:0:0:
320,192,28607,1,0,0:0:0:0:
192,192,28607,1,0,0:0:0:0:
64,192,28607,1,0,0:0:0:0:
192,192,28732,1,0,0:0:0:0:
448,192,28857,1,0,0:0:0:0:
320,192,28857,1,0,0:0:0:0:
64,192,28857,1,0,0:0:0:0:
192,192,28982,1,0,0:0:0:0:
448,192,28982,1,0,0:0:0:0:
448,192,29107,1,0,0:0:0:0:
320,192,29107,1,0,0:0:0:0:
192,192,29107,1,0,0:0:0:0:
64,192,29107,1,0,0:0:0:0:
320,192,29232,1,0,0:0:0:0:
448,192,29357,1,0,0:0:0:0:
192,192,29357,1,0,0:0:0:0:
64,192,29357,1,0,0:0:0:0:
192,192,29482,1,0,0:0:0:0:
448,192,29607,1,0,0:0:0:0:
320,192,29607,1,0,0:0:0:0:
64,192,29607,1,0,0:0:0:0:
192,192,29607,1,0,0:0:0:0:
320,192,29732,1,0,0:0:0:0:
448,192,29857,1,0,0:0:0:0:
192,192,29857,1,0,0:0:0:0:
64,192,29857,1,0,0:0:0:0:
64,192,29982,1,0,0:0:0:0:
320,192,29982,1,0,0:0:0:0:
64,192,30107,1,0,0:0:0:0:
192,192,30107,1,0,0:0:0:0:
320,192,30107,1,0,0:0:0:0:
448,192,30107,1,0,0:0:0:0:
320,192,30232,1,0,0:0:0:0:
448,192,30357,1,0,0:0:0:0:
192,192,30357,1,0,0:0:0:0:
64,192,30357,1,0,0:0:0:0:
64,192,30482,1,0,0:0:0:0:
192,192,30482,1,0,0:0:0:0:
448,192,30607,1,0,0:0:0:0:
320,192,30607,1,0,0:0:0:0:
64,192,30607,1,0,0:0:0:0:
192,192,30607,1,0,0:0:0:0:
320,192,30732,1,0,0:0:0:0:
448,192,30857,1,0,0:0:0:0:
192,192,30857,1,0,0:0:0:0:
64,192,30857,1,0,0:0:0:0:
320,192,30982,1,0,0:0:0:0:
64,192,30982,1,0,0:0:0:0:
448,192,31107,1,0,0:0:0:0:
320,192,31107,1,0,0:0:0:0:
64,192,31107,1,0,0:0:0:0:
192,192,31107,1,0,0:0:0:0:
448,192,31232,1,0,0:0:0:0:
192,192,31232,1,0,0:0:0:0:
320,192,31357,1,0,0:0:0:0:
64,192,31357,1,0,0:0:0:0:
448,192,31357,1,0,0:0:0:0:
64,192,31482,1,0,0:0:0:0:
320,192,31482,1,0,0:0:0:0:
448,192,31607,1,0,0:0:0:0:
320,192,31607,1,0,0:0:0:0:
192,192,31607,1,0,0:0:0:0:
64,192,31607,1,0,0:0:0:0:
448,192,31732,1,0,0:0:0:0:
192,192,31732,1,0,0:0:0:0:
192,192,31857,1,0,0:0:0:0:
64,192,31857,1,0,0:0:0:0:
320,192,31857,1,0,0:0:0:0:
448,192,31982,1,0,0:0:0:0:
64,192,31982,1,0,0:0:0:0:
448,192,32107,1,0,0:0:0:0:
64,192,32107,1,0,0:0:0:0:
192,192,32107,1,0,0:0:0:0:
320,192,32107,1,0,0:0:0:0:
192,192,32232,1,0,0:0:0:0:
320,192,32232,1,0,0:0:0:0:
448,192,32357,1,0,0:0:0:0:
192,192,32357,1,0,0:0:0:0:
64,192,32357,1,0,0:0:0:0:
448,192,32482,1,0,0:0:0:0:
192,192,32607,1,0,0:0:0:0:
320,192,32607,1,0,0:0:0:0:
64,192,32732,1,0,0:0:0:0:
448,192,32732,1,0,0:0:0:0:
192,192,32857,1,0,0:0:0:0:
320,192,32857,1,0,0:0:0:0:
64,192,32982,1,0,0:0:0:0:
448,192,32982,1,0,0:0:0:0:
192,192,33107,128,0,33357:0:0:0:0:
320,192,33107,128,0,33357:0:0:0:0:
448,192,33357,128,0,33607:0:0:0:0:
64,192,33357,128,0,33607:0:0:0:0:
192,192,33607,1,0,0:0:0:0:
320,192,33607,1,0,0:0:0:0:
320,192,33732,1,0,0:0:0:0:
64,192,33732,1,0,0:0:0:0:
192,192,33857,1,0,0:0:0:0:
448,192,33857,1,0,0:0:0:0:
192,192,33982,1,0,0:0:0:0:
64,192,33982,1,0,0:0:0:0:
320,192,33982,1,0,0:0:0:0:
64,192,34107,1,0,0:0:0:0:
320,192,34107,1,0,0:0:0:0:
448,192,34107,1,0,0:0:0:0:
192,192,34107,1,0,0:0:0:0:
320,192,34232,1,0,0:0:0:0:
192,192,34357,1,0,0:0:0:0:
64,192,34357,1,0,0:0:0:0:
448,192,34357,1,0,0:0:0:0:
192,192,34482,1,0,0:0:0:0:
320,192,34482,1,0,0:0:0:0:
448,192,34482,1,0,0:0:0:0:
64,192,34607,1,0,0:0:0:0:
320,192,34607,1,0,0:0:0:0:
192,192,34607,1,0,0:0:0:0:
64,192,34732,1,0,0:0:0:0:
192,192,34857,1,0,0:0:0:0:
320,192,34857,1,0,0:0:0:0:
448,192,34857,1,0,0:0:0:0:
64,192,34982,1,0,0:0:0:0:
320,192,34982,1,0,0:0:0:0:
448,192,34982,1,0,0:0:0:0:
64,192,35107,1,0,0:0:0:0:
192,192,35107,1,0,0:0:0:0:
448,192,35107,1,0,0:0:0:0:
192,192,35232,1,0,0:0:0:0:
64,192,35357,1,0,0:0:0:0:
320,192,35357,1,0,0:0:0:0:
448,192,35357,1,0,0:0:0:0:
320,192,35482,1,0,0:0:0:0:
64,192,35607,1,0,0:0:0:0:
192,192,35607,1,0,0:0:0:0:
448,192,35607,1,0,0:0:0:0:
320,192,35732,1,0,0:0:0:0:
192,192,35732,1,0,0:0:0:0:
64,192,35732,1,0,0:0:0:0:
448,192,35857,1,0,0:0:0:0:
320,192,35857,1,0,0:0:0:0:
192,192,35857,1,0,0:0:0:0:
64,192,35982,1,0,0:0:0:0:
448,192,35982,1,0,0:0:0:0:
320,192,35982,1,0,0:0:0:0:
64,192,36107,1,0,0:0:0:0:
192,192,36107,1,0,0:0:0:0:
448,192,36107,1,0,0:0:0:0:
320,192,36232,1,0,0:0:0:0:
192,192,36232,1,0,0:0:0:0:
64,192,36232,1,0,0:0:0:0:
448,192,36357,1,0,0:0:0:0:
320,192,36357,1,0,0:0:0:0:
192,192,36357,1,0,0:0:0:0:
64,192,36482,1,0,0:0:0:0:
320,192,36482,1,0,0:0:0:0:
448,192,36482,1,0,0:0:0:0:
192,192,36607,1,0,0:0:0:0:
64,192,36607,1,0,0:0:0:0:
448,192,36607,1,0,0:0:0:0:
192,192,36732,1,0,0:0:0:0:
64,192,36857,1,0,0:0:0:0:
320,192,36857,1,0,0:0:0:0:
448,192,36857,1,0,0:0:0:0:
192,192,36982,1,0,0:0:0:0:
64,192,36982,1,0,0:0:0:0:
320,192,36982,1,0,0:0:0:0:
448,192,37107,1,0,0:0:0:0:
192,192,37107,1,0,0:0:0:0:
64,192,37107,1,0,0:0:0:0:
448,192,37232,1,0,0:0:0:0:
192,192,37357,1,0,0:0:0:0:
320,192,37357,1,0,0:0:0:0:
64,192,37357,1,0,0:0:0:0:
320,192,37482,1,0,0:0:0:0:
448,192,37482,1,0,0:0:0:0:
192,192,37482,1,0,0:0:0:0:
64,192,37607,1,0,0:0:0:0:
192,192,37607,1,0,0:0:0:0:
448,192,37607,1,0,0:0:0:0:
320,192,37732,1,0,0:0:0:0:
64,192,37732,1,0,0:0:0:0:
448,192,37732,1,0,0:0:0:0:
320,192,37857,1,0,0:0:0:0:
192,192,37857,1,0,0:0:0:0:
320,192,37982,1,0,0:0:0:0:
64,192,37982,1,0,0:0:0:0:
192,192,37982,1,0,0:0:0:0:
64,192,38107,1,0,0:0:0:0:
192,192,38107,1,0,0:0:0:0:
320,192,38107,1,0,0:0:0:0:
448,192,38107,1,0,0:0:0:0:
64,192,38232,1,0,0:0:0:0:
448,192,38232,1,0,0:0:0:0:
192,192,38232,1,0,0:0:0:0:
320,192,38357,1,0,0:0:0:0:
448,192,38357,1,0,0:0:0:0:
64,192,38482,1,0,0:0:0:0:
320,192,38482,1,0,0:0:0:0:
192,192,38482,1,0,0:0:0:0:
192,192,38607,1,0,0:0:0:0:
448,192,38607,1,0,0:0:0:0:
64,192,38607,1,0,0:0:0:0:
320,192,38732,1,0,0:0:0:0:
448,192,38732,1,0,0:0:0:0:
64,192,38732,1,0,0:0:0:0:
192,192,38857,1,0,0:0:0:0:
320,192,38857,1,0,0:0:0:0:
64,192,38982,1,0,0:0:0:0:
192,192,38982,1,0,0:0:0:0:
448,192,38982,1,0,0:0:0:0:
320,192,39107,1,0,0:0:0:0:
64,192,39107,1,0,0:0:0:0:
192,192,39107,1,0,0:0:0:0:
448,192,39107,1,0,0:0:0:0:
320,192,39232,1,0,0:0:0:0:
192,192,39357,1,0,0:0:0:0:
64,192,39357,1,0,0:0:0:0:
64,192,39482,1,0,0:0:0:0:
320,192,39482,1,0,0:0:0:0:
448,192,39482,1,0,0:0:0:0:
192,192,39607,1,0,0:0:0:0:
320,192,39607,1,0,0:0:0:0:
448,192,39607,1,0,0:0:0:0:
64,192,39732,1,0,0:0:0:0:
192,192,39732,1,0,0:0:0:0:
448,192,39732,1,0,0:0:0:0:
320,192,39857,1,0,0:0:0:0:
64,192,39857,1,0,0:0:0:0:
192,192,39857,1,0,0:0:0:0:
448,192,39982,1,0,0:0:0:0:
320,192,39982,1,0,0:0:0:0:
64,192,39982,1,0,0:0:0:0:
192,192,40107,1,0,0:0:0:0:
448,192,40107,1,0,0:0:0:0:
320,192,40107,1,0,0:0:0:0:
64,192,40232,1,0,0:0:0:0:
192,192,40232,1,0,0:0:0:0:
448,192,40232,1,0,0:0:0:0:
320,192,40357,1,0,0:0:0:0:
64,192,40357,1,0,0:0:0:0:
192,192,40357,1,0,0:0:0:0:
448,192,40482,1,0,0:0:0:0:
320,192,40482,1,0,0:0:0:0:
64,192,40482,1,0,0:0:0:0:
192,192,40607,1,0,0:0:0:0:
448,192,40607,1,0,0:0:0:0:
320,192,40607,1,0,0:0:0:0:
192,192,40732,1,0,0:0:0:0:
64,192,40857,1,0,0:0:0:0:
320,192,40857,1,0,0:0:0:0:
448,192,40857,1,0,0:0:0:0:
192,192,40982,1,0,0:0:0:0:
64,192,40982,1,0,0:0:0:0:
448,192,40982,1,0,0:0:0:0:
320,192,41107,1,0,0:0:0:0:
192,192,41107,1,0,0:0:0:0:
64,192,41107,1,0,0:0:0:0:
320,192,41232,1,0,0:0:0:0:
192,192,41357,1,0,0:0:0:0:
64,192,41357,1,0,0:0:0:0:
448,192,41357,1,0,0:0:0:0:
320,192,41482,1,0,0:0:0:0:
448,192,41482,1,0,0:0:0:0:
192,192,41482,1,0,0:0:0:0:
64,192,41607,1,0,0:0:0:0:
320,192,41607,1,0,0:0:0:0:
448,192,41607,1,0,0:0:0:0:
192,192,41607,1,0,0:0:0:0:
64,192,41732,1,0,0:0:0:0:
320,192,41857,1,0,0:0:0:0:
192,192,41857,1,0,0:0:0:0:
448,192,41857,1,0,0:0:0:0:
320,192,41982,1,0,0:0:0:0:
448,192,41982,1,0,0:0:0:0:
192,192,42107,1,0,0:0:0:0:
64,192,42107,1,0,0:0:0:0:
320,192,42107,1,0,0:0:0:0:
192,192,42232,1,0,0:0:0:0:
64,192,42357,1,0,0:0:0:0:
448,192,42357,1,0,0:0:0:0:
448,192,42482,1,0,0:0:0:0:
320,192,42482,1,0,0:0:0:0:
192,192,42482,1,0,0:0:0:0:
64,192,42607,1,0,0:0:0:0:
320,192,42607,1,0,0:0:0:0:
192,192,42607,1,0,0:0:0:0:
64,192,42732,1,0,0:0:0:0:
448,192,42857,1,0,0:0:0:0:
320,192,42857,1,0,0:0:0:0:
192,192,42857,1,0,0:0:0:0:
320,192,42982,1,0,0:0:0:0:
64,192,42982,1,0,0:0:0:0:
192,192,42982,1,0,0:0:0:0:
448,192,43107,1,0,0:0:0:0:
320,192,43107,1,0,0:0:0:0:
192,192,43107,1,0,0:0:0:0:
64,192,43107,1,0,0:0:0:0:
448,192,43232,1,0,0:0:0:0:
64,192,43232,1,0,0:0:0:0:
192,192,43232,1,0,0:0:0:0:
192,192,43357,1,0,0:0:0:0:
320,192,43357,1,0,0:0:0:0:
320,192,43482,1,0,0:0:0:0:
64,192,43482,1,0,0:0:0:0:
448,192,43482,1,0,0:0:0:0:
192,192,43607,1,0,0:0:0:0:
64,192,43607,1,0,0:0:0:0:
448,192,43607,1,0,0:0:0:0:
320,192,43732,1,0,0:0:0:0:
192,192,43732,1,0,0:0:0:0:
64,192,43732,1,0,0:0:0:0:
448,192,43857,1,0,0:0:0:0:
320,192,43857,1,0,0:0:0:0:
192,192,43857,1,0,0:0:0:0:
64,192,43982,1,0,0:0:0:0:
320,192,43982,1,0,0:0:0:0:
448,192,43982,1,0,0:0:0:0:
192,192,44107,1,0,0:0:0:0:
64,192,44107,1,0,0:0:0:0:
448,192,44107,1,0,0:0:0:0:
192,192,44232,1,0,0:0:0:0:
320,192,44357,1,0,0:0:0:0:
448,192,44357,1,0,0:0:0:0:
64,192,44482,1,0,0:0:0:0:
320,192,44482,1,0,0:0:0:0:
448,192,44482,1,0,0:0:0:0:
192,192,44607,1,0,0:0:0:0:
64,192,44607,1,0,0:0:0:0:
448,192,44607,1,0,0:0:0:0:
320,192,44732,1,0,0:0:0:0:
192,192,44732,1,0,0:0:0:0:
64,192,44732,1,0,0:0:0:0:
320,192,44857,1,0,0:0:0:0:
448,192,44857,1,0,0:0:0:0:
192,192,44982,1,0,0:0:0:0:
64,192,44982,1,0,0:0:0:0:
448,192,44982,1,0,0:0:0:0:
64,192,45107,1,0,0:0:0:0:
192,192,45107,1,0,0:0:0:0:
320,192,45107,1,0,0:0:0:0:
448,192,45107,1,0,0:0:0:0:
320,192,45232,1,0,0:0:0:0:
192,192,45232,1,0,0:0:0:0:
64,192,45232,1,0,0:0:0:0:
320,192,45357,1,0,0:0:0:0:
448,192,45357,1,0,0:0:0:0:
448,192,45482,1,0,0:0:0:0:
64,192,45607,1,0,0:0:0:0:
192,192,45607,1,0,0:0:0:0:
320,192,45607,1,0,0:0:0:0:
448,192,45732,1,0,0:0:0:0:
320,192,45732,1,0,0:0:0:0:
192,192,45732,1,0,0:0:0:0:
64,192,45857,1,0,0:0:0:0:
192,192,45857,1,0,0:0:0:0:
64,192,45982,1,0,0:0:0:0:
320,192,45982,1,0,0:0:0:0:
448,192,45982,1,0,0:0:0:0:
64,192,46107,1,0,0:0:0:0:
192,192,46107,1,0,0:0:0:0:
320,192,46107,1,0,0:0:0:0:
448,192,46107,1,0,0:0:0:0:
192,192,46232,1,0,0:0:0:0:
320,192,46357,1,0,0:0:0:0:
448,192,46357,1,0,0:0:0:0:
192,192,46482,1,0,0:0:0:0:
64,192,46482,1,0,0:0:0:0:
448,192,46482,1,0,0:0:0:0:
64,192,46607,1,0,0:0:0:0:
192,192,46607,1,0,0:0:0:0:
320,192,46607,1,0,0:0:0:0:
448,192,46607,1,0,0:0:0:0:
320,192,46732,1,0,0:0:0:0:
64,192,46732,1,0,0:0:0:0:
192,192,46732,1,0,0:0:0:0:
448,192,46857,1,0,0:0:0:0:
320,192,46857,1,0,0:0:0:0:
192,192,46857,1,0,0:0:0:0:
64,192,46982,1,0,0:0:0:0:
448,192,46982,1,0,0:0:0:0:
320,192,46982,1,0,0:0:0:0:
192,192,47107,1,0,0:0:0:0:
64,192,47107,1,0,0:0:0:0:
448,192,47107,1,0,0:0:0:0:
192,192,47232,1,0,0:0:0:0:
320,192,47357,1,0,0:0:0:0:
448,192,47357,1,0,0:0:0:0:
64,192,47357,1,0,0:0:0:0:
320,192,47482,1,0,0:0:0:0:
192,192,47607,1,0,0:0:0:0:
320,192,47607,1,0,0:0:0:0:
64,192,47732,1,0,0:0:0:0:
448,192,47857,1,0,0:0:0:0:
320,192,47857,1,0,0:0:0:0:
320,192,47982,1,0,0:0:0:0:
192,192,47982,1,0,0:0:0:0:
448,192,47982,1,0,0:0:0:0:
64,192,48107,1,0,0:0:0:0:
192,192,48107,1,0,0:0:0:0:
320,192,48107,1,0,0:0:0:0:
192,192,48232,1,0,0:0:0:0:
64,192,48357,1,0,0:0:0:0:
320,192,48357,1,0,0:0:0:0:
448,192,48357,1,0,0:0:0:0:
320,192,48482,1,0,0:0:0:0:
64,192,48607,1,0,0:0:0:0:
192,192,48607,1,0,0:0:0:0:
448,192,48607,1,0,0:0:0:0:
448,192,48732,1,0,0:0:0:0:
64,192,48857,1,0,0:0:0:0:
192,192,48857,1,0,0:0:0:0:
320,192,48857,1,0,0:0:0:0:
64,192,48982,1,0,0:0:0:0:
448,192,49107,128,0,49357:0:0:0:0:
64,192,49107,128,0,49357:0:0:0:0:
320,192,49357,128,0,49607:0:0:0:0:
192,192,49357,128,0,49607:0:0:0:0:
448,192,49607,1,0,0:0:0:0:
64,192,49607,1,0,0:0:0:0:
448,192,49732,1,0,0:0:0:0:
320,192,49857,1,0,0:0:0:0:
192,192,49857,1,0,0:0:0:0:
64,192,49857,1,0,0:0:0:0:
448,192,49982,1,0,0:0:0:0:
192,192,49982,1,0,0:0:0:0:
448,192,50107,1,0,0:0:0:0:
192,192,50107,1,0,0:0:0:0:
64,192,50107,1,0,0:0:0:0:
320,192,50107,1,0,0:0:0:0:
320,192,50232,1,0,0:0:0:0:
320,192,50357,1,0,0:0:0:0:
192,192,50357,1,0,0:0:0:0:
64,192,50357,1,0,0:0:0:0:
192,192,50482,1,0,0:0:0:0:
64,192,50482,1,0,0:0:0:0:
320,192,50607,1,0,0:0:0:0:
448,192,50607,1,0,0:0:0:0:
192,192,50607,1,0,0:0:0:0:
64,192,50607,1,0,0:0:0:0:
448,192,50732,1,0,0:0:0:0:
320,192,50857,1,0,0:0:0:0:
192,192,50857,1,0,0:0:0:0:
64,192,50857,1,0,0:0:0:0:
192,192,50982,1,0,0:0:0:0:
448,192,50982,1,0,0:0:0:0:
320,192,51107,1,0,0:0:0:0:
192,192,51107,1,0,0:0:0:0:
64,192,51107,1,0,0:0:0:0:
448,192,51107,1,0,0:0:0:0:
320,192,51232,1,0,0:0:0:0:
448,192,51357,1,0,0:0:0:0:
192,192,51357,1,0,0:0:0:0:
64,192,51357,1,0,0:0:0:0:
192,192,51482,1,0,0:0:0:0:
64,192,51607,1,0,0:0:0:0:
448,192,51607,1,0,0:0:0:0:
320,192,51607,1,0,0:0:0:0:
192,192,51607,1,0,0:0:0:0:
64,192,51732,1,0,0:0:0:0:
448,192,51857,1,0,0:0:0:0:
192,192,51857,1,0,0:0:0:0:
320,192,51857,1,0,0:0:0:0:
64,192,51982,1,0,0:0:0:0:
448,192,51982,1,0,0:0:0:0:
320,192,52107,1,0,0:0:0:0:
192,192,52107,1,0,0:0:0:0:
64,192,52107,1,0,0:0:0:0:
448,192,52107,1,0,0:0:0:0:
192,192,52232,1,0,0:0:0:0:
320,192,52357,1,0,0:0:0:0:
192,192,52357,1,0,0:0:0:0:
448,192,52357,1,0,0:0:0:0:
320,192,52482,1,0,0:0:0:0:
448,192,52482,1,0,0:0:0:0:
448,192,52607,1,0,0:0:0:0:
320,192,52607,1,0,0:0:0:0:
192,192,52607,1,0,0:0:0:0:
64,192,52607,1,0,0:0:0:0:
192,192,52732,1,0,0:0:0:0:
448,192,52857,1,0,0:0:0:0:
320,192,52857,1,0,0:0:0:0:
64,192,52857,1,0,0:0:0:0:
192,192,52982,1,0,0:0:0:0:
448,192,52982,1,0,0:0:0:0:
448,192,53107,1,0,0:0:0:0:
320,192,53107,1,0,0:0:0:0:
192,192,53107,1,0,0:0:0:0:
64,192,53107,1,0,0:0:0:0:
320,192,53232,1,0,0:0:0:0:
448,192,53357,1,0,0:0:0:0:
192,192,53357,1,0,0:0:0:0:
64,192,53357,1,0,0:0:0:0:
192,192,53482,1,0,0:0:0:0:
448,192,53607,1,0,0:0:0:0:
320,192,53607,1,0,0:0:0:0:
64,192,53607,1,0,0:0:0:0:
192,192,53607,1,0,0:0:0:0:
320,192,53732,1,0,0:0:0:0:
448,192,53857,1,0,0:0:0:0:
192,192,53857,1,0,0:0:0:0:
64,192,53857,1,0,0:0:0:0:
64,192,53982,1,0,0:0:0:0:
320,192,53982,1,0,0:0:0:0:
64,192,54107,1,0,0:0:0:0:
192,192,54107,1,0,0:0:0:0:
320,192,54107,1,0,0:0:0:0:
448,192,54107,1,0,0:0:0:0:
320,192,54232,1,0,0:0:0:0:
448,192,54357,1,0,0:0:0:0:
192,192,54357,1,0,0:0:0:0:
64,192,54357,1,0,0:0:0:0:
64,192,54482,1,0,0:0:0:0:
192,192,54482,1,0,0:0:0:0:
448,192,54607,1,0,0:0:0:0:
320,192,54607,1,0,0:0:0:0:
64,192,54607,1,0,0:0:0:0:
192,192,54607,1,0,0:0:0:0:
320,192,54732,1,0,0:0:0:0:
448,192,54857,1,0,0:0:0:0:
192,192,54857,1,0,0:0:0:0:
64,192,54857,1,0,0:0:0:0:
320,192,54982,1,0,0:0:0:0:
64,192,54982,1,0,0:0:0:0:
448,192,55107,1,0,0:0:0:0:
320,192,55107,1,0,0:0:0:0:
64,192,55107,1,0,0:0:0:0:
192,192,55107,1,0,0:0:0:0:
448,192,55232,1,0,0:0:0:0:
192,192,55232,1,0,0:0:0:0:
320,192,55357,1,0,0:0:0:0:
64,192,55357,1,0,0:0:0:0:
448,192,55357,1,0,0:0:0:0:
64,192,55482,1,0,0:0:0:0:
320,192,55482,1,0,0:0:0:0:
448,192,55607,1,0,0:0:0:0:
320,192,55607,1,0,0:0:0:0:
192,192,55607,1,0,0:0:0:0:
64,192,55607,1,0,0:0:0:0:
448,192,55732,1,0,0:0:0:0:
192,192,55732,1,0,0:0:0:0:
192,192,55857,1,0,0:0:0:0:
64,192,55857,1,0,0:0:0:0:
320,192,55857,1,0,0:0:0:0:
448,192,55982,1,0,0:0:0:0:
64,192,55982,1,0,0:0:0:0:
448,192,56107,1,0,0:0:0:0:
64,192,56107,1,0,0:0:0:0:
192,192,56107,1,0,0:0:0:0:
320,192,56107,1,0,0:0:0:0:
192,192,56232,1,0,0:0:0:0:
320,192,56232,1,0,0:0:0:0:
448,192,56357,1,0,0:0:0:0:
192,192,56357,1,0,0:0:0:0:
64,192,56357,1,0,0:0:0:0:
448,192,56482,1,0,0:0:0:0:
320,192,56482,1,0,0:0:0:0:
192,192,56607,1,0,0:0:0:0:
64,192,56607,1,0,0:0:0:0:
192,192,56732,1,0,0:0:0:0:
64,192,56732,1,0,0:0:0:0:
192,192,56857,1,0,0:0:0:0:
64,192,56857,1,0,0:0:0:0:
192,192,56982,1,0,0:0:0:0:
64,192,56982,1,0,0:0:0:0:
448,192,57107,1,0,0:0:0:0:
320,192,57107,1,0,0:0:0:0:
448,192,57232,1,0,0:0:0:0:
320,192,57232,1,0,0:0:0:0:
448,192,57357,1,0,0:0:0:0:
320,192,57357,1,0,0:0:0:0:
448,192,57482,1,0,0:0:0:0:
320,192,57482,1,0,0:0:0:0:
64,192,57607,1,0,0:0:0:0:
448,192,57607,1,0,0:0:0:0:
192,192,57607,1,0,0:0:0:0:
320,192,57607,1,0,0:0:0:0:
64,192,57732,1,0,0:0:0:0:
192,192,57857,1,0,0:0:0:0:
320,192,57857,1,0,0:0:0:0:
448,192,57857,1,0,0:0:0:0:
64,192,57982,1,0,0:0:0:0:
320,192,57982,1,0,0:0:0:0:
64,192,58107,1,0,0:0:0:0:
320,192,58107,1,0,0:0:0:0:
448,192,58107,1,0,0:0:0:0:
192,192,58107,1,0,0:0:0:0:
192,192,58232,1,0,0:0:0:0:
192,192,58357,1,0,0:0:0:0:
320,192,58357,1,0,0:0:0:0:
448,192,58357,1,0,0:0:0:0:
320,192,58482,1,0,0:0:0:0:
448,192,58482,1,0,0:0:0:0:
192,192,58607,1,0,0:0:0:0:
64,192,58607,1,0,0:0:0:0:
320,192,58607,1,0,0:0:0:0:
448,192,58607,1,0,0:0:0:0:
64,192,58732,1,0,0:0:0:0:
192,192,58857,1,0,0:0:0:0:
320,192,58857,1,0,0:0:0:0:
448,192,58857,1,0,0:0:0:0:
320,192,58982,1,0,0:0:0:0:
64,192,58982,1,0,0:0:0:0:
192,192,59107,1,0,0:0:0:0:
320,192,59107,1,0,0:0:0:0:
448,192,59107,1,0,0:0:0:0:
64,192,59107,1,0,0:0:0:0:
192,192,59232,1,0,0:0:0:0:
64,192,59357,1,0,0:0:0:0:
320,192,59357,1,0,0:0:0:0:
448,192,59357,1,0,0:0:0:0:
320,192,59482,1,0,0:0:0:0:
448,192,59607,1,0,0:0:0:0:
64,192,59607,1,0,0:0:0:0:
192,192,59607,1,0,0:0:0:0:
320,192,59607,1,0,0:0:0:0:
448,192,59732,1,0,0:0:0:0:
64,192,59857,1,0,0:0:0:0:
320,192,59857,1,0,0:0:0:0:
192,192,59857,1,0,0:0:0:0:
448,192,59982,1,0,0:0:0:0:
64,192,59982,1,0,0:0:0:0:
192,192,60107,1,0,0:0:0:0:
320,192,60107,1,0,0:0:0:0:
448,192,60107,1,0,0:0:0:0:
64,192,60107,1,0,0:0:0:0:
320,192,60232,1,0,0:0:0:0:
192,192,60357,1,0,0:0:0:0:
320,192,60357,1,0,0:0:0:0:
64,192,60357,1,0,0:0:0:0:
192,192,60482,1,0,0:0:0:0:
64,192,60482,1,0,0:0:0:0:
64,192,60607,1,0,0:0:0:0:
192,192,60607,1,0,0:0:0:0:
320,192,60607,1,0,0:0:0:0:
448,192,60607,1,0,0:0:0:0:
320,192,60732,1,0,0:0:0:0:
64,192,60857,1,0,0:0:0:0:
192,192,60857,1,0,0:0:0:0:
448,192,60857,1,0,0:0:0:0:
320,192,60982,1,0,0:0:0:0:
64,192,60982,1,0,0:0:0:0:
64,192,61107,1,0,0:0:0:0:
192,192,61107,1,0,0:0:0:0:
320,192,61107,1,0,0:0:0:0:
448,192,61107,1,0,0:0:0:0:
192,192,61232,1,0,0:0:0:0:
64,192,61357,1,0,0:0:0:0:
320,192,61357,1,0,0:0:0:0:
448,192,61357,1,0,0:0:0:0:
320,192,61482,1,0,0:0:0:0:
64,192,61607,1,0,0:0:0:0:
192,192,61607,1,0,0:0:0:0:
448,192,61607,1,0,0:0:0:0:
320,192,61607,1,0,0:0:0:0:
192,192,61732,1,0,0:0:0:0:
64,192,61857,1,0,0:0:0:0:
320,192,61857,1,0,0:0:0:0:
448,192,61857,1,0,0:0:0:0:
448,192,61982,1,0,0:0:0:0:
192,192,61982,1,0,0:0:0:0:
448,192,62107,1,0,0:0:0:0:
320,192,62107,1,0,0:0:0:0:
192,192,62107,1,0,0:0:0:0:
64,192,62107,1,0,0:0:0:0:
192,192,62232,1,0,0:0:0:0:
64,192,62357,1,0,0:0:0:0:
320,192,62357,1,0,0:0:0:0:
448,192,62357,1,0,0:0:0:0:
448,192,62482,1,0,0:0:0:0:
320,192,62482,1,0,0:0:0:0:
64,192,62607,1,0,0:0:0:0:
192,192,62607,1,0,0:0:0:0:
448,192,62607,1,0,0:0:0:0:
320,192,62607,1,0,0:0:0:0:
192,192,62732,1,0,0:0:0:0:
64,192,62857,1,0,0:0:0:0:
320,192,62857,1,0,0:0:0:0:
448,192,62857,1,0,0:0:0:0:
192,192,62982,1,0,0:0:0:0:
448,192,62982,1,0,0:0:0:0:
64,192,63107,1,0,0:0:0:0:
192,192,63107,1,0,0:0:0:0:
448,192,63107,1,0,0:0:0:0:
320,192,63107,1,0,0:0:0:0:
64,192,63232,1,0,0:0:0:0:
320,192,63232,1,0,0:0:0:0:
192,192,63357,1,0,0:0:0:0:
448,192,63357,1,0,0:0:0:0:
64,192,63357,1,0,0:0:0:0:
448,192,63482,1,0,0:0:0:0:
192,192,63482,1,0,0:0:0:0:
64,192,63607,1,0,0:0:0:0:
192,192,63607,1,0,0:0:0:0:
320,192,63607,1,0,0:0:0:0:
448,192,63607,1,0,0:0:0:0:
64,192,63732,1,0,0:0:0:0:
320,192,63732,1,0,0:0:0:0:
320,192,63857,1,0,0:0:0:0:
448,192,63857,1,0,0:0:0:0:
192,192,63857,1,0,0:0:0:0:
64,192,63982,1,0,0:0:0:0:
448,192,63982,1,0,0:0:0:0:
64,192,64107,1,0,0:0:0:0:
448,192,64107,1,0,0:0:0:0:
320,192,64107,1,0,0:0:0:0:
192,192,64107,1,0,0:0:0:0:
320,192,64232,1,0,0:0:0:0:
192,192,64232,1,0,0:0:0:0:
64,192,64357,1,0,0:0:0:0:
320,192,64357,1,0,0:0:0:0:
448,192,64357,1,0,0:0:0:0:
64,192,64482,1,0,0:0:0:0:
320,192,64607,1,0,0:0:0:0:
192,192,64607,1,0,0:0:0:0:
448,192,64732,1,0,0:0:0:0:
64,192,64732,1,0,0:0:0:0:
320,192,64857,1,0,0:0:0:0:
192,192,64857,1,0,0:0:0:0:
448,192,64982,1,0,0:0:0:0:
64,192,64982,1,0,0:0:0:0:
320,192,65107,128,0,65357:0:0:0:0:
192,192,65107,128,0,65357:0:0:0:0:
64,192,65357,128,0,65607:0:0:0:0:
448,192,65357,128,0,65607:0:0:0:0:
192,192,65607,1,0,0:0:0:0:
320,192,65607,1,0,0:0:0:0:
448,192,65648,1,0,0:0:0:0:
64,192,65690,1,0,0:0:0:0:
192,192,65732,1,0,0:0:0:0:
320,192,65773,1,0,0:0:0:0:
448,192,65815,1,0,0:0:0:0:
320,192,65857,1,0,0:0:0:0:
192,192,65898,1,0,0:0:0:0:
64,192,65940,1,0,0:0:0:0:
448,192,65982,1,0,0:0:0:0:
320,192,65982,1,0,0:0:0:0:
192,192,66023,1,0,0:0:0:0:
64,192,66065,1,0,0:0:0:0:
320,192,66107,1,0,0:0:0:0:
448,192,66148,1,0,0:0:0:0:
192,192,66190,1,0,0:0:0:0:
64,192,66232,1,0,0:0:0:0:
448,192,66273,1,0,0:0:0:0:
320,192,66315,1,0,0:0:0:0:
192,192,66357,1,0,0:0:0:0:
64,192,66357,1,0,0:0:0:0:
448,192,66398,1,0,0:0:0:0:
320,192,66440,1,0,0:0:0:0:
192,192,66482,1,0,0:0:0:0:
448,192,66523,1,0,0:0:0:0:
64,192,66565,1,0,0:0:0:0:
192,192,66607,1,0,0:0:0:0:
320,192,66607,1,0,0:0:0:0:
448,192,66648,1,0,0:0:0:0:
64,192,66690,1,0,0:0:0:0:
192,192,66732,1,0,0:0:0:0:
320,192,66773,1,0,0:0:0:0:
448,192,66815,1,0,0:0:0:0:
64,192,66857,1,0,0:0:0:0:
192,192,66898,1,0,0:0:0:0:
320,192,66940,1,0,0:0:0:0:
448,192,66982,1,0,0:0:0:0:
320,192,67023,1,0,0:0:0:0:
192,192,67065,1,0,0:0:0:0:
64,192,67107,1,0,0:0:0:0:
448,192,67107,1,0,0:0:0:0:
320,192,67148,1,0,0:0:0:0:
192,192,67190,1,0,0:0:0:0:
64,192,67232,1,0,0:0:0:0:
192,192,67273,1,0,0:0:0:0:
320,192,67315,1,0,0:0:0:0:
448,192,67357,1,0,0:0:0:0:
64,192,67398,1,0,0:0:0:0:
192,192,67440,1,0,0:0:0:0:
320,192,67482,1,0,0:0:0:0:
448,192,67523,1,0,0:0:0:0:
320,192,67565,1,0,0:0:0:0:
64,192,67607,1,0,0:0:0:0:
192,192,67607,1,0,0:0:0:0:
448,192,67648,1,0,0:0:0:0:
320,192,67690,1,0,0:0:0:0:
192,192,67732,1,0,0:0:0:0:
64,192,67773,1,0,0:0:0:0:
192,192,67815,1,0,0:0:0:0:
320,192,67857,1,0,0:0:0:0:
448,192,67898,1,0,0:0:0:0:
64,192,67940,1,0,0:0:0:0:
192,192,67982,1,0,0:0:0:0:
448,192,67982,1,0,0:0:0:0:
320,192,68023,1,0,0:0:0:0:
192,192,68065,1,0,0:0:0:0:
64,192,68107,1,0,0:0:0:0:
320,192,68148,1,0,0:0:0:0:
448,192,68190,1,0,0:0:0:0:
64,192,68232,1,0,0:0:0:0:
192,192,68273,1,0,0:0:0:0:
320,192,68315,1,0,0:0:0:0:
448,192,68357,1,0,0:0:0:0:
64,192,68357,1,0,0:0:0:0:
192,192,68398,1,0,0:0:0:0:
320,192,68440,1,0,0:0:0:0:
448,192,68482,1,0,0:0:0:0:
192,192,68523,1,0,0:0:0:0:
320,192,68565,1,0,0:0:0:0:
448,192,68607,1,0,0:0:0:0:
64,192,68607,1,0,0:0:0:0:
64,192,68732,1,0,0:0:0:0:
192,192,68857,1,0,0:0:0:0:
320,192,68857,1,0,0:0:0:0:
320,192,68982,1,0,0:0:0:0:
448,192,68982,1,0,0:0:0:0:
64,192,69107,1,0,0:0:0:0:
192,192,69107,1,0,0:0:0:0:
448,192,69107,1,0,0:0:0:0:
192,192,69232,1,0,0:0:0:0:
64,192,69357,1,0,0:0:0:0:
320,192,69357,1,0,0:0:0:0:
64,192,69482,1,0,0:0:0:0:
192,192,69607,1,0,0:0:0:0:
320,192,69607,1,0,0:0:0:0:
448,192,69648,1,0,0:0:0:0:
64,192,69690,1,0,0:0:0:0:
192,192,69732,1,0,0:0:0:0:
320,192,69773,1,0,0:0:0:0:
448,192,69815,1,0,0:0:0:0:
320,192,69857,1,0,0:0:0:0:
192,192,69898,1,0,0:0:0:0:
64,192,69940,1,0,0:0:0:0:
448,192,69982,1,0,0:0:0:0:
320,192,69982,1,0,0:0:0:0:
192,192,70023,1,0,0:0:0:0:
64,192,70065,1,0,0:0:0:0:
320,192,70107,1,0,0:0:0:0:
448,192,70148,1,0,0:0:0:0:
192,192,70190,1,0,0:0:0:0:
64,192,70232,1,0,0:0:0:0:
448,192,70273,1,0,0:0:0:0:
320,192,70315,1,0,0:0:0:0:
192,192,70357,1,0,0:0:0:0:
64,192,70357,1,0,0:0:0:0:
448,192,70398,1,0,0:0:0:0:
320,192,70440,1,0,0:0:0:0:
192,192,70482,1,0,0:0:0:0:
448,192,70523,1,0,0:0:0:0:
64,192,70565,1,0,0:0:0:0:
192,192,70607,1,0,0:0:0:0:
320,192,70607,1,0,0:0:0:0:
448,192,70648,1,0,0:0:0:0:
64,192,70690,1,0,0:0:0:0:
192,192,70732,1,0,0:0:0:0:
320,192,70773,1,0,0:0:0:0:
448,192,70815,1,0,0:0:0:0:
64,192,70857,1,0,0:0:0:0:
192,192,70898,1,0,0:0:0:0:
320,192,70940,1,0,0:0:0:0:
448,192,70982,1,0,0:0:0:0:
320,192,71023,1,0,0:0:0:0:
192,192,71065,1,0,0:0:0:0:
64,192,71107,1,0,0:0:0:0:
448,192,71107,1,0,0:0:0:0:
320,192,71148,1,0,0:0:0:0:
192,192,71190,1,0,0:0:0:0:
64,192,71232,1,0,0:0:0:0:
192,192,71273,1,0,0:0:0:0:
320,192,71315,1,0,0:0:0:0:
448,192,71357,1,0,0:0:0:0:
64,192,71398,1,0,0:0:0:0:
192,192,71440,1,0,0:0:0:0:
320,192,71482,1,0,0:0:0:0:
448,192,71523,1,0,0:0:0:0:
320,192,71565,1,0,0:0:0:0:
64,192,71607,1,0,0:0:0:0:
192,192,71607,1,0,0:0:0:0:
448,192,71648,1,0,0:0:0:0:
320,192,71690,1,0,0:0:0:0:
192,192,71732,1,0,0:0:0:0:
64,192,71773,1,0,0:0:0:0:
192,192,71815,1,0,0:0:0:0:
320,192,71857,1,0,0:0:0:0:
448,192,71898,1,0,0:0:0:0:
64,192,71940,1,0,0:0:0:0:
192,192,71982,1,0,0:0:0:0:
448,192,71982,1,0,0:0:0:0:
320,192,72023,1,0,0:0:0:0:
192,192,72065,1,0,0:0:0:0:
64,192,72107,1,0,0:0:0:0:
320,192,72148,1,0,0:0:0:0:
448,192,72190,1,0,0:0:0:0:
64,192,72232,1,0,0:0:0:0:
192,192,72273,1,0,0:0:0:0:
320,192,72315,1,0,0:0:0:0:
448,192,72357,1,0,0:0:0:0:
64,192,72357,1,0,0:0:0:0:
192,192,72398,1,0,0:0:0:0:
320,192,72440,1,0,0:0:0:0:
448,192,72482,1,0,0:0:0:0:
192,192,72523,1,0,0:0:0:0:
64,192,72565,1,0,0:0:0:0:
448,192,72607,1,0,0:0:0:0:
320,192,72607,1,0,0:0:0:0:
320,192,72732,1,0,0:0:0:0:
448,192,72857,1,0,0:0:0:0:
64,192,72857,1,0,0:0:0:0:
192,192,72898,1,0,0:0:0:0:
320,192,72940,1,0,0:0:0:0:
448,192,72982,1,0,0:0:0:0:
192,192,73023,1,0,0:0:0:0:
64,192,73065,1,0,0:0:0:0:
448,192,73107,1,0,0:0:0:0:
320,192,73148,1,0,0:0:0:0:
192,192,73190,1,0,0:0:0:0:
64,192,73232,1,0,0:0:0:0:
320,192,73273,1,0,0:0:0:0:
192,192,73315,1,0,0:0:0:0:
64,192,73357,1,0,0:0:0:0:
448,192,73357,1,0,0:0:0:0:
448,192,73482,1,0,0:0:0:0:
192,192,73607,1,0,0:0:0:0:
320,192,73607,1,0,0:0:0:0:
448,192,73648,1,0,0:0:0:0:
64,192,73690,1,0,0:0:0:0:
192,192,73732,1,0,0:0:0:0:
320,192,73773,1,0,0:0:0:0:
448,192,73815,1,0,0:0:0:0:
320,192,73857,1,0,0:0:0:0:
192,192,73898,1,0,0:0:0:0:
64,192,73940,1,0,0:0:0:0:
448,192,73982,1,0,0:0:0:0:
320,192,73982,1,0,0:0:0:0:
192,192,74023,1,0,0:0:0:0:
64,192,74065,1,0,0:0:0:0:
320,192,74107,1,0,0:0:0:0:
448,192,74148,1,0,0:0:0:0:
192,192,74190,1,0,0:0:0:0:
64,192,74232,1,0,0:0:0:0:
448,192,74273,1,0,0:0:0:0:
320,192,74315,1,0,0:0:0:0:
192,192,74357,1,0,0:0:0:0:
64,192,74357,1,0,0:0:0:0:
448,192,74398,1,0,0:0:0:0:
320,192,74440,1,0,0:0:0:0:
192,192,74482,1,0,0:0:0:0:
448,192,74523,1,0,0:0:0:0:
64,192,74565,1,0,0:0:0:0:
192,192,74607,1,0,0:0:0:0:
320,192,74607,1,0,0:0:0:0:
448,192,74648,1,0,0:0:0:0:
64,192,74690,1,0,0:0:0:0:
192,192,74732,1,0,0:0:0:0:
320,192,74773,1,0,0:0:0:0:
448,192,74815,1,0,0:0:0:0:
64,192,74857,1,0,0:0:0:0:
192,192,74898,1,0,0:0:0:0:
320,192,74940,1,0,0:0:0:0:
448,192,74982,1,0,0:0:0:0:
320,192,75023,1,0,0:0:0:0:
192,192,75065,1,0,0:0:0:0:
64,192,75107,1,0,0:0:0:0:
448,192,75107,1,0,0:0:0:0:
320,192,75148,1,0,0:0:0:0:
192,192,75190,1,0,0:0:0:0:
64,192,75232,1,0,0:0:0:0:
192,192,75273,1,0,0:0:0:0:
320,192,75315,1,0,0:0:0:0:
448,192,75357,1,0,0:0:0:0:
64,192,75398,1,0,0:0:0:0:
192,192,75440,1,0,0:0:0:0:
320,192,75482,1,0,0:0:0:0:
448,192,75523,1,0,0:0:0:0:
320,192,75565,1,0,0:0:0:0:
64,192,75607,1,0,0:0:0:0:
192,192,75607,1,0,0:0:0:0:
448,192,75648,1,0,0:0:0:0:
320,192,75690,1,0,0:0:0:0:
192,192,75732,1,0,0:0:0:0:
64,192,75773,1,0,0:0:0:0:
192,192,75815,1,0,0:0:0:0:
320,192,75857,1,0,0:0:0:0:
448,192,75898,1,0,0:0:0:0:
64,192,75940,1,0,0:0:0:0:
192,192,75982,1,0,0:0:0:0:
448,192,75982,1,0,0:0:0:0:
320,192,76023,1,0,0:0:0:0:
192,192,76065,1,0,0:0:0:0:
64,192,76107,1,0,0:0:0:0:
320,192,76148,1,0,0:0:0:0:
448,192,76190,1,0,0:0:0:0:
64,192,76232,1,0,0:0:0:0:
192,192,76273,1,0,0:0:0:0:
320,192,76315,1,0,0:0:0:0:
448,192,76357,1,0,0:0:0:0:
64,192,76357,1,0,0:0:0:0:
192,192,76398,1,0,0:0:0:0:
320,192,76440,1,0,0:0:0:0:
448,192,76482,1,0,0:0:0:0:
192,192,76523,1,0,0:0:0:0:
320,192,76565,1,0,0:0:0:0:
448,192,76607,1,0,0:0:0:0:
64,192,76607,1,0,0:0:0:0:
192,192,76607,1,0,0:0:0:0:
64,192,76732,1,0,0:0:0:0:
192,192,76857,1,0,0:0:0:0:
448,192,76857,1,0,0:0:0:0:
192,192,76982,1,0,0:0:0:0:
320,192,76982,1,0,0:0:0:0:
64,192,77107,1,0,0:0:0:0:
320,192,77107,1,0,0:0:0:0:
448,192,77107,1,0,0:0:0:0:
64,192,77232,1,0,0:0:0:0:
192,192,77357,1,0,0:0:0:0:
448,192,77357,1,0,0:0:0:0:
448,192,77482,1,0,0:0:0:0:
192,192,77607,1,0,0:0:0:0:
320,192,77607,1,0,0:0:0:0:
448,192,77648,1,0,0:0:0:0:
64,192,77690,1,0,0:0:0:0:
192,192,77732,1,0,0:0:0:0:
320,192,77773,1,0,0:0:0:0:
448,192,77815,1,0,0:0:0:0:
320,192,77857,1,0,0:0:0:0:
192,192,77898,1,0,0:0:0:0:
64,192,77940,1,0,0:0:0:0:
448,192,77982,1,0,0:0:0:0:
320,192,77982,1,0,0:0:0:0:
192,192,78023,1,0,0:0:0:0:
64,192,78065,1,0,0:0:0:0:
320,192,78107,1,0,0:0:0:0:
448,192,78148,1,0,0:0:0:0:
192,192,78190,1,0,0:0:0:0:
64,192,78232,1,0,0:0:0:0:
448,192,78273,1,0,0:0:0:0:
320,192,78315,1,0,0:0:0:0:
192,192,78357,1,0,0:0:0:0:
64,192,78357,1,0,0:0:0:0:
448,192,78398,1,0,0:0:0:0:
320,192,78440,1,0,0:0:0:0:
192,192,78482,1,0,0:0:0:0:
448,192,78523,1,0,0:0:0:0:
64,192,78565,1,0,0:0:0:0:
192,192,78607,1,0,0:0:0:0:
320,192,78607,1,0,0:0:0:0:
448,192,78648,1,0,0:0:0:0:
64,192,78690,1,0,0:0:0:0:
192,192,78732,1,0,0:0:0:0:
320,192,78773,1,0,0:0:0:0:
448,192,78815,1,0,0:0:0:0:
64,192,78857,1,0,0:0:0:0:
192,192,78898,1,0,0:0:0:0:
320,192,78940,1,0,0:0:0:0:
448,192,78982,1,0,0:0:0:0:
320,192,79023,1,0,0:0:0:0:
192,192,79065,1,0,0:0:0:0:
64,192,79107,1,0,0:0:0:0:
448,192,79107,1,0,0:0:0:0:
320,192,79148,1,0,0:0:0:0:
192,192,79190,1,0,0:0:0:0:
64,192,79232,1,0,0:0:0:0:
192,192,79273,1,0,0:0:0:0:
320,192,79315,1,0,0:0:0:0:
448,192,79357,1,0,0:0:0:0:
64,192,79398,1,0,0:0:0:0:
192,192,79440,1,0,0:0:0:0:
320,192,79482,1,0,0:0:0:0:
448,192,79523,1,0,0:0:0:0:
320,192,79565,1,0,0:0:0:0:
64,192,79607,1,0,0:0:0:0:
192,192,79607,1,0,0:0:0:0:
448,192,79648,1,0,0:0:0:0:
320,192,79690,1,0,0:0:0:0:
192,192,79732,1,0,0:0:0:0:
64,192,79773,1,0,0:0:0:0:
192,192,79815,1,0,0:0:0:0:
320,192,79857,1,0,0:0:0:0:
448,192,79898,1,0,0:0:0:0:
64,192,79940,1,0,0:0:0:0:
192,192,79982,1,0,0:0:0:0:
448,192,79982,1,0,0:0:0:0:
320,192,80023,1,0,0:0:0:0:
192,192,80065,1,0,0:0:0:0:
64,192,80107,1,0,0:0:0:0:
320,192,80148,1,0,0:0:0:0:
448,192,80190,1,0,0:0:0:0:
64,192,80232,1,0,0:0:0:0:
192,192,80273,1,0,0:0:0:0:
320,192,80315,1,0,0:0:0:0:
448,192,80357,1,0,0:0:0:0:
64,192,80357,1,0,0:0:0:0:
192,192,80398,1,0,0:0:0:0:
320,192,80440,1,0,0:0:0:0:
448,192,80482,1,0,0:0:0:0:
192,192,80523,1,0,0:0:0:0:
64,192,80565,1,0,0:0:0:0:
448,192,80607,1,0,0:0:0:0:
320,192,80607,1,0,0:0:0:0:
320,192,80732,1,0,0:0:0:0:
448,192,80857,1,0,0:0:0:0:
64,192,80857,1,0,0:0:0:0:
192,192,80898,1,0,0:0:0:0:
320,192,80940,1,0,0:0:0:0:
448,192,80982,1,0,0:0:0:0:
192,192,81023,1,0,0:0:0:0:
64,192,81065,1,0,0:0:0:0:
448,192,81107,1,0,0:0:0:0:
320,192,81148,1,0,0:0:0:0:
192,192,81190,1,0,0:0:0:0:
64,192,81232,1,0,0:0:0:0:
320,192,81273,1,0,0:0:0:0:
192,192,81315,1,0,0:0:0:0:
448,192,81357,128,0,81607:0:0:0:0:
64,192,81357,128,0,81607:0:0:0:0:
320,192,81607,1,0,0:0:0:0:
192,192,81607,1,0,0:0:0:0:
320,192,81732,1,0,0:0:0:0:
448,192,81857,1,0,0:0:0:0:
192,192,81857,1,0,0:0:0:0:
64,192,81857,1,0,0:0:0:0:
64,192,81982,1,0,0:0:0:0:
192,192,81982,1,0,0:0:0:0:
448,192,82107,1,0,0:0:0:0:
192,192,82107,1,0,0:0:0:0:
64,192,82107,1,0,0:0:0:0:
320,192,82107,1,0,0:0:0:0:
320,192,82232,1,0,0:0:0:0:
320,192,82357,1,0,0:0:0:0:
192,192,82357,1,0,0:0:0:0:
64,192,82357,1,0,0:0:0:0:
192,192,82482,1,0,0:0:0:0:
64,192,82482,1,0,0:0:0:0:
320,192,82607,1,0,0:0:0:0:
448,192,82607,1,0,0:0:0:0:
192,192,82607,1,0,0:0:0:0:
64,192,82607,1,0,0:0:0:0:
448,192,82732,1,0,0:0:0:0:
320,192,82857,1,0,0:0:0:0:
192,192,82857,1,0,0:0:0:0:
64,192,82857,1,0,0:0:0:0:
192,192,82982,1,0,0:0:0:0:
448,192,82982,1,0,0:0:0:0:
320,192,83107,1,0,0:0:0:0:
192,192,83107,1,0,0:0:0:0:
64,192,83107,1,0,0:0:0:0:
448,192,83107,1,0,0:0:0:0:
320,192,83232,1,0,0:0:0:0:
448,192,83357,1,0,0:0:0:0:
192,192,83357,1,0,0:0:0:0:
64,192,83357,1,0,0:0:0:0:
192,192,83482,1,0,0:0:0:0:
64,192,83607,1,0,0:0:0:0:
448,192,83607,1,0,0:0:0:0:
320,192,83607,1,0,0:0:0:0:
192,192,83607,1,0,0:0:0:0:
64,192,83732,1,0,0:0:0:0:
448,192,83857,1,0,0:0:0:0:
192,192,83857,1,0,0:0:0:0:
320,192,83857,1,0,0:0:0:0:
64,192,83982,1,0,0:0:0:0:
448,192,83982,1,0,0:0:0:0:
320,192,84107,1,0,0:0:0:0:
192,192,84107,1,0,0:0:0:0:
64,192,84107,1,0,0:0:0:0:
448,192,84107,1,0,0:0:0:0:
192,192,84232,1,0,0:0:0:0:
320,192,84357,1,0,0:0:0:0:
192,192,84357,1,0,0:0:0:0:
448,192,84357,1,0,0:0:0:0:
320,192,84482,1,0,0:0:0:0:
448,192,84482,1,0,0:0:0:0:
448,192,84607,1,0,0:0:0:0:
320,192,84607,1,0,0:0:0:0:
192,192,84607,1,0,0:0:0:0:
64,192,84607,1,0,0:0:0:0:
192,192,84732,1,0,0:0:0:0:
448,192,84857,1,0,0:0:0:0:
320,192,84857,1,0,0:0:0:0:
64,192,84857,1,0,0:0:0:0:
192,192,84982,1,0,0:0:0:0:
448,192,84982,1,0,0:0:0:0:
448,192,85107,1,0,0:0:0:0:
320,192,85107,1,0,0:0:0:0:
192,192,85107,1,0,0:0:0:0:
64,192,85107,1,0,0:0:0:0:
320,192,85232,1,0,0:0:0:0:
448,192,85357,1,0,0:0:0:0:
192,192,85357,1,0,0:0:0:0:
64,192,85357,1,0,0:0:0:0:
192,192,85482,1,0,0:0:0:0:
448,192,85607,1,0,0:0:0:0:
320,192,85607,1,0,0:0:0:0:
64,192,85607,1,0,0:0:0:0:
192,192,85607,128,0,85638:0:0:0:0:
320,192,85732,128,0,85762:0:0:0:0:
192,192,85857,1,0,0:0:0:0:
64,192,85857,1,0,0:0:0:0:
448,192,85857,128,0,85888:0:0:0:0:
64,192,85982,1,0,0:0:0:0:
320,192,85982,128,0,86012:0:0:0:0:
192,192,86107,1,0,0:0:0:0:
320,192,86107,1,0,0:0:0:0:
448,192,86107,1,0,0:0:0:0:
64,192,86107,128,0,86138:0:0:0:0:
320,192,86232,128,0,86262:0:0:0:0:
448,192,86357,1,0,0:0:0:0:
64,192,86357,1,0,0:0:0:0:
192,192,86357,128,0,86388:0:0:0:0:
192,192,86482,1,0,0:0:0:0:
64,192,86482,128,0,86512:0:0:0:0:
320,192,86607,1,0,0:0:0:0:
64,192,86607,1,0,0:0:0:0:
192,192,86607,1,0,0:0:0:0:
448,192,86607,128,0,86638:0:0:0:0:
320,192,86732,128,0,86762:0:0:0:0:
448,192,86857,1,0,0:0:0:0:
64,192,86857,1,0,0:0:0:0:
192,192,86857,128,0,86888:0:0:0:0:
320,192,86982,1,0,0:0:0:0:
64,192,86982,128,0,87012:0:0:0:0:
320,192,87107,1,0,0:0:0:0:
64,192,87107,1,0,0:0:0:0:
192,192,87107,1,0,0:0:0:0:
448,192,87107,128,0,87138:0:0:0:0:
448,192,87232,1,0,0:0:0:0:
192,192,87232,128,0,87262:0:0:0:0:
64,192,87357,1,0,0:0:0:0:
448,192,87357,1,0,0:0:0:0:
320,192,87357,128,0,87388:0:0:0:0:
320,192,87482,1,0,0:0:0:0:
64,192,87482,128,0,87512:0:0:0:0:
448,192,87607,1,0,0:0:0:0:
320,192,87607,1,0,0:0:0:0:
64,192,87607,1,0,0:0:0:0:
192,192,87607,128,0,87638:0:0:0:0:
192,192,87732,1,0,0:0:0:0:
448,192,87732,128,0,87762:0:0:0:0:
192,192,87857,1,0,0:0:0:0:
64,192,87857,1,0,0:0:0:0:
320,192,87857,128,0,87888:0:0:0:0:
448,192,87982,1,0,0:0:0:0:
64,192,87982,128,0,88012:0:0:0:0:
64,192,88107,1,0,0:0:0:0:
192,192,88107,1,0,0:0:0:0:
320,192,88107,1,0,0:0:0:0:
448,192,88107,128,0,88138:0:0:0:0:
192,192,88232,1,0,0:0:0:0:
320,192,88232,128,0,88262:0:0:0:0:
448,192,88357,1,0,0:0:0:0:
64,192,88357,1,0,0:0:0:0:
192,192,88357,128,0,88388:0:0:0:0:
448,192,88482,128,0,88512:0:0:0:0:
192,192,88607,1,0,0:0:0:0:
320,192,88607,1,0,0:0:0:0:
448,192,88607,1,0,0:0:0:0:
64,192,88607,128,0,88638:0:0:0:0:
192,192,88732,128,0,88762:0:0:0:0:
448,192,88857,128,0,88888:0:0:0:0:
320,192,88982,128,0,89012:0:0:0:0:
448,192,89107,1,0,0:0:0:0:
64,192,89107,128,0,89138:0:0:0:0:
64,192,89232,128,0,89262:0:0:0:0:
320,192,89357,128,0,89388:0:0:0:0:
320,192,89482,128,0,89512:0:0:0:0:
64,192,89607,1,0,0:0:0:0:
448,192,89607,1,0,0:0:0:0:
192,192,89607,1,0,0:0:0:0:
320,192,89607,1,0,0:0:0:0:
64,192,89732,1,0,0:0:0:0:
192,192,89732,1,0,0:0:0:0:
192,192,89857,1,0,0:0:0:0:
320,192,89857,1,0,0:0:0:0:
448,192,89857,1,0,0:0:0:0:
64,192,89982,1,0,0:0:0:0:
320,192,89982,1,0,0:0:0:0:
448,192,89982,1,0,0:0:0:0:
64,192,90107,1,0,0:0:0:0:
448,192,90107,1,0,0:0:0:0:
192,192,90107,1,0,0:0:0:0:
192,192,90232,1,0,0:0:0:0:
64,192,90232,1,0,0:0:0:0:
320,192,90232,1,0,0:0:0:0:
192,192,90357,1,0,0:0:0:0:
320,192,90357,1,0,0:0:0:0:
448,192,90357,1,0,0:0:0:0:
320,192,90482,1,0,0:0:0:0:
448,192,90482,1,0,0:0:0:0:
64,192,90482,1,0,0:0:0:0:
192,192,90607,1,0,0:0:0:0:
64,192,90607,1,0,0:0:0:0:
448,192,90607,1,0,0:0:0:0:
64,192,90732,1,0,0:0:0:0:
192,192,90857,1,0,0:0:0:0:
320,192,90857,1,0,0:0:0:0:
448,192,90857,1,0,0:0:0:0:
320,192,90982,1,0,0:0:0:0:
64,192,90982,1,0,0:0:0:0:
448,192,90982,1,0,0:0:0:0:
192,192,91107,1,0,0:0:0:0:
448,192,91107,1,0,0:0:0:0:
64,192,91107,1,0,0:0:0:0:
192,192,91232,1,0,0:0:0:0:
64,192,91357,1,0,0:0:0:0:
320,192,91357,1,0,0:0:0:0:
448,192,91357,1,0,0:0:0:0:
448,192,91482,1,0,0:0:0:0:
192,192,91482,1,0,0:0:0:0:
64,192,91482,1,0,0:0:0:0:
64,192,91607,1,0,0:0:0:0:
192,192,91607,1,0,0:0:0:0:
320,192,91607,1,0,0:0:0:0:
448,192,91732,1,0,0:0:0:0:
320,192,91732,1,0,0:0:0:0:
192,192,91732,1,0,0:0:0:0:
448,192,91857,1,0,0:0:0:0:
64,192,91857,1,0,0:0:0:0:
320,192,91857,1,0,0:0:0:0:
448,192,91982,1,0,0:0:0:0:
64,192,91982,1,0,0:0:0:0:
192,192,91982,1,0,0:0:0:0:
192,192,92107,1,0,0:0:0:0:
320,192,92107,1,0,0:0:0:0:
64,192,92107,1,0,0:0:0:0:
320,192,92232,1,0,0:0:0:0:
448,192,92232,1,0,0:0:0:0:
192,192,92232,1,0,0:0:0:0:
192,192,92357,1,0,0:0:0:0:
320,192,92357,1,0,0:0:0:0:
64,192,92357,1,0,0:0:0:0:
192,192,92482,1,0,0:0:0:0:
64,192,92482,1,0,0:0:0:0:
448,192,92482,1,0,0:0:0:0:
64,192,92607,1,0,0:0:0:0:
320,192,92607,1,0,0:0:0:0:
448,192,92607,1,0,0:0:0:0:
320,192,92732,1,0,0:0:0:0:
192,192,92732,1,0,0:0:0:0:
448,192,92732,1,0,0:0:0:0:
64,192,92857,1,0,0:0:0:0:
320,192,92857,1,0,0:0:0:0:
448,192,92857,1,0,0:0:0:0:
192,192,92982,1,0,0:0:0:0:
64,192,92982,1,0,0:0:0:0:
448,192,92982,1,0,0:0:0:0:
64,192,93107,1,0,0:0:0:0:
192,192,93107,1,0,0:0:0:0:
320,192,93107,1,0,0:0:0:0:
192,192,93232,1,0,0:0:0:0:
64,192,93357,1,0,0:0:0:0:
320,192,93357,1,0,0:0:0:0:
448,192,93357,1,0,0:0:0:0:
448,192,93482,1,0,0:0:0:0:
192,192,93482,1,0,0:0:0:0:
64,192,93482,1,0,0:0:0:0:
64,192,93607,1,0,0:0:0:0:
192,192,93607,1,0,0:0:0:0:
320,192,93607,1,0,0:0:0:0:
192,192,93732,1,0,0:0:0:0:
64,192,93732,1,0,0:0:0:0:
448,192,93732,1,0,0:0:0:0:
64,192,93857,1,0,0:0:0:0:
320,192,93857,1,0,0:0:0:0:
448,192,93857,1,0,0:0:0:0:
448,192,93982,1,0,0:0:0:0:
192,192,93982,1,0,0:0:0:0:
320,192,93982,1,0,0:0:0:0:
448,192,94107,1,0,0:0:0:0:
320,192,94107,1,0,0:0:0:0:
64,192,94107,1,0,0:0:0:0:
64,192,94232,1,0,0:0:0:0:
192,192,94357,1,0,0:0:0:0:
320,192,94357,1,0,0:0:0:0:
448,192,94357,1,0,0:0:0:0:
448,192,94482,1,0,0:0:0:0:
320,192,94482,1,0,0:0:0:0:
64,192,94482,1,0,0:0:0:0:
192,192,94607,1,0,0:0:0:0:
448,192,94607,1,0,0:0:0:0:
320,192,94607,1,0,0:0:0:0:
192,192,94732,1,0,0:0:0:0:
64,192,94857,1,0,0:0:0:0:
320,192,94857,1,0,0:0:0:0:
448,192,94857,1,0,0:0:0:0:
192,192,94982,1,0,0:0:0:0:
448,192,94982,1,0,0:0:0:0:
320,192,94982,1,0,0:0:0:0:
64,192,95107,1,0,0:0:0:0:
192,192,95107,1,0,0:0:0:0:
448,192,95107,1,0,0:0:0:0:
64,192,95232,1,0,0:0:0:0:
320,192,95232,1,0,0:0:0:0:
192,192,95232,1,0,0:0:0:0:
192,192,95357,1,0,0:0:0:0:
448,192,95357,1,0,0:0:0:0:
64,192,95357,1,0,0:0:0:0:
448,192,95482,1,0,0:0:0:0:
192,192,95482,1,0,0:0:0:0:
320,192,95482,1,0,0:0:0:0:
64,192,95607,1,0,0:0:0:0:
320,192,95607,1,0,0:0:0:0:
448,192,95607,1,0,0:0:0:0:
64,192,95732,1,0,0:0:0:0:
320,192,95732,1,0,0:0:0:0:
320,192,95857,1,0,0:0:0:0:
448,192,95857,1,0,0:0:0:0:
192,192,95857,1,0,0:0:0:0:
64,192,95982,1,0,0:0:0:0:
448,192,95982,1,0,0:0:0:0:
192,192,95982,1,0,0:0:0:0:
448,192,96107,1,0,0:0:0:0:
320,192,96107,1,0,0:0:0:0:
192,192,96107,1,0,0:0:0:0:
320,192,96232,1,0,0:0:0:0:
192,192,96232,1,0,0:0:0:0:
64,192,96232,1,0,0:0:0:0:
64,192,96357,1,0,0:0:0:0:
320,192,96357,1,0,0:0:0:0:
448,192,96357,1,0,0:0:0:0:
64,192,96482,1,0,0:0:0:0:
192,192,96482,1,0,0:0:0:0:
320,192,96607,1,0,0:0:0:0:
448,192,96607,1,0,0:0:0:0:
192,192,96607,1,0,0:0:0:0:
320,192,96732,1,0,0:0:0:0:
448,192,96732,1,0,0:0:0:0:
64,192,96732,1,0,0:0:0:0:
192,192,96857,1,0,0:0:0:0:
448,192,96857,1,0,0:0:0:0:
64,192,96857,1,0,0:0:0:0:
320,192,96982,1,0,0:0:0:0:
192,192,96982,1,0,0:0:0:0:
64,192,96982,1,0,0:0:0:0:
192,192,97107,1,0,0:0:0:0:
320,192,97107,1,0,0:0:0:0:
448,192,97107,1,0,0:0:0:0:
64,192,97232,1,0,0:0:0:0:
448,192,97232,1,0,0:0:0:0:
64,192,97357,1,0,0:0:0:0:
192,192,97357,1,0,0:0:0:0:
320,192,97357,1,0,0:0:0:0:
192,192,97482,1,0,0:0:0:0:
448,192,97482,1,0,0:0:0:0:
448,192,97607,1,0,0:0:0:0:
64,192,97607,1,0,0:0:0:0:
192,192,97607,1,0,0:0:0:0:
448,192,97732,1,0,0:0:0:0:
320,192,97732,1,0,0:0:0:0:
64,192,97732,1,0,0:0:0:0:
320,192,97857,1,0,0:0:0:0:
192,192,97857,1,0,0:0:0:0:
448,192,97857,1,0,0:0:0:0:
448,192,97982,1,0,0:0:0:0:
192,192,97982,1,0,0:0:0:0:
64,192,97982,1,0,0:0:0:0:
192,192,98107,1,0,0:0:0:0:
64,192,98107,1,0,0:0:0:0:
320,192,98107,1,0,0:0:0:0:
320,192,98232,1,0,0:0:0:0:
448,192,98232,1,0,0:0:0:0:
320,192,98357,1,0,0:0:0:0:
192,192,98357,1,0,0:0:0:0:
64,192,98357,1,0,0:0:0:0:
192,192,98482,1,0,0:0:0:0:
64,192,98482,1,0,0:0:0:0:
448,192,98482,1,0,0:0:0:0:
320,192,98607,1,0,0:0:0:0:
448,192,98607,1,0,0:0:0:0:
64,192,98607,1,0,0:0:0:0:
448,192,98732,1,0,0:0:0:0:
192,192,98732,1,0,0:0:0:0:
320,192,98732,1,0,0:0:0:0:
320,192,98857,1,0,0:0:0:0:
192,192,98857,1,0,0:0:0:0:
64,192,98857,1,0,0:0:0:0:
192,192,98982,1,0,0:0:0:0:
448,192,98982,1,0,0:0:0:0:
320,192,98982,1,0,0:0:0:0:
320,192,99107,1,0,0:0:0:0:
64,192,99107,1,0,0:0:0:0:
448,192,99107,1,0,0:0:0:0:
320,192,99232,1,0,0:0:0:0:
192,192,99232,1,0,0:0:0:0:
448,192,99357,1,0,0:0:0:0:
192,192,99357,1,0,0:0:0:0:
64,192,99357,1,0,0:0:0:0:
192,192,99482,1,0,0:0:0:0:
320,192,99482,1,0,0:0:0:0:
64,192,99607,1,0,0:0:0:0:
448,192,99607,1,0,0:0:0:0:
320,192,99607,1,0,0:0:0:0:
64,192,99732,1,0,0:0:0:0:
448,192,99857,1,0,0:0:0:0:
192,192,99857,1,0,0:0:0:0:
320,192,99857,1,0,0:0:0:0:
64,192,99982,1,0,0:0:0:0:
448,192,99982,1,0,0:0:0:0:
320,192,99982,1,0,0:0:0:0:
192,192,100107,1,0,0:0:0:0:
64,192,100107,1,0,0:0:0:0:
448,192,100107,1,0,0:0:0:0:
192,192,100232,1,0,0:0:0:0:
320,192,100232,1,0,0:0:0:0:
64,192,100232,1,0,0:0:0:0:
320,192,100357,1,0,0:0:0:0:
192,192,100357,1,0,0:0:0:0:
448,192,100357,1,0,0:0:0:0:
64,192,100482,1,0,0:0:0:0:
448,192,100482,1,0,0:0:0:0:
320,192,100607,1,0,0:0:0:0:
192,192,100607,1,0,0:0:0:0:
64,192,100607,1,0,0:0:0:0:
192,192,100732,1,0,0:0:0:0:
64,192,100732,1,0,0:0:0:0:
448,192,100732,1,0,0:0:0:0:
448,192,100857,1,0,0:0:0:0:
320,192,100857,1,0,0:0:0:0:
64,192,100857,1,0,0:0:0:0:
192,192,100982,1,0,0:0:0:0:
448,192,100982,1,0,0:0:0:0:
320,192,100982,1,0,0:0:0:0:
320,192,101107,1,0,0:0:0:0:
192,192,101107,1,0,0:0:0:0:
64,192,101107,1,0,0:0:0:0:
320,192,101232,1,0,0:0:0:0:
448,192,101357,1,0,0:0:0:0:
192,192,101357,1,0,0:0:0:0:
64,192,101357,1,0,0:0:0:0:
192,192,101482,1,0,0:0:0:0:
320,192,101482,1,0,0:0:0:0:
448,192,101607,1,0,0:0:0:0:
320,192,101607,1,0,0:0:0:0:
64,192,101607,1,0,0:0:0:0:
320,192,101732,1,0,0:0:0:0:
448,192,101857,1,0,0:0:0:0:
192,192,101857,1,0,0:0:0:0:
64,192,101857,1,0,0:0:0:0:
64,192,101982,1,0,0:0:0:0:
320,192,101982,1,0,0:0:0:0:
448,192,101982,1,0,0:0:0:0:
192,192,102107,1,0,0:0:0:0:
320,192,102107,1,0,0:0:0:0:
448,192,102107,1,0,0:0:0:0:
320,192,102232,1,0,0:0:0:0:
448,192,102357,1,0,0:0:0:0:
192,192,102357,1,0,0:0:0:0:
64,192,102357,1,0,0:0:0:0:
64,192,102482,1,0,0:0:0:0:
192,192,102482,1,0,0:0:0:0:
320,192,102482,1,0,0:0:0:0:
448,192,102607,1,0,0:0:0:0:
320,192,102607,1,0,0:0:0:0:
192,192,102607,1,0,0:0:0:0:
320,192,102732,1,0,0:0:0:0:
448,192,102857,1,0,0:0:0:0:
192,192,102857,1,0,0:0:0:0:
64,192,102857,1,0,0:0:0:0:
320,192,102982,1,0,0:0:0:0:
64,192,102982,1,0,0:0:0:0:
448,192,103107,1,0,0:0:0:0:
320,192,103107,1,0,0:0:0:0:
192,192,103107,1,0,0:0:0:0:
448,192,103232,1,0,0:0:0:0:
192,192,103232,1,0,0:0:0:0:
320,192,103357,1,0,0:0:0:0:
64,192,103357,1,0,0:0:0:0:
448,192,103357,1,0,0:0:0:0:
64,192,103482,1,0,0:0:0:0:
320,192,103482,1,0,0:0:0:0:
448,192,103607,1,0,0:0:0:0:
192,192,103607,1,0,0:0:0:0:
64,192,103607,1,0,0:0:0:0:
448,192,103732,1,0,0:0:0:0:
320,192,103732,1,0,0:0:0:0:
64,192,103732,1,0,0:0:0:0:
192,192,103857,1,0,0:0:0:0:
448,192,103857,1,0,0:0:0:0:
320,192,103857,1,0,0:0:0:0:
448,192,103982,1,0,0:0:0:0:
64,192,103982,1,0,0:0:0:0:
320,192,103982,1,0,0:0:0:0:
448,192,104107,1,0,0:0:0:0:
64,192,104107,1,0,0:0:0:0:
192,192,104107,1,0,0:0:0:0:
192,192,104232,1,0,0:0:0:0:
448,192,104357,1,0,0:0:0:0:
320,192,104357,1,0,0:0:0:0:
64,192,104357,1,0,0:0:0:0:
320,192,104482,1,0,0:0:0:0:
192,192,104607,1,0,0:0:0:0:
448,192,104607,1,0,0:0:0:0:
64,192,104607,1,0,0:0:0:0:
448,192,104732,1,0,0:0:0:0:
192,192,104857,1,0,0:0:0:0:
320,192,104857,1,0,0:0:0:0:
64,192,104857,1,0,0:0:0:0:
64,192,104982,1,0,0:0:0:0:
320,192,104982,1,0,0:0:0:0:
448,192,105107,128,0,105357:0:0:0:0:
64,192,105107,128,0,105357:0:0:0:0:
320,192,105357,128,0,105607:0:0:0:0:
192,192,105357,128,0,105607:0:0:0:0:
448,192,105607,1,0,0:0:0:0:
64,192,105607,1,0,0:0:0:0:
448,192,105732,1,0,0:0:0:0:
320,192,105857,1,0,0:0:0:0:
192,192,105857,1,0,0:0:0:0:
64,192,105857,1,0,0:0:0:0:
448,192,105982,1,0,0:0:0:0:
192,192,105982,1,0,0:0:0:0:
448,192,106107,1,0,0:0:0:0:
192,192,106107,1,0,0:0:0:0:
64,192,106107,1,0,0:0:0:0:
320,192,106107,1,0,0:0:0:0:
320,192,106232,1,0,0:0:0:0:
320,192,106357,1,0,0:0:0:0:
192,192,106357,1,0,0:0:0:0:
64,192,106357,1,0,0:0:0:0:
192,192,106482,1,0,0:0:0:0:
64,192,106482,1,0,0:0:0:0:
320,192,106607,1,0,0:0:0:0:
448,192,106607,1,0,0:0:0:0:
192,192,106607,1,0,0:0:0:0:
64,192,106607,1,0,0:0:0:0:
448,192,106732,1,0,0:0:0:0:
320,192,106857,1,0,0:0:0:0:
192,192,106857,1,0,0:0:0:0:
64,192,106857,1,0,0:0:0:0:
192,192,106982,1,0,0:0:0:0:
448,192,106982,1,0,0:0:0:0:
320,192,107107,1,0,0:0:0:0:
192,192,107107,1,0,0:0:0:0:
64,192,107107,1,0,0:0:0:0:
448,192,107107,1,0,0:0:0:0:
320,192,107232,1,0,0:0:0:0:
448,192,107357,1,0,0:0:0:0:
192,192,107357,1,0,0:0:0:0:
64,192,107357,1,0,0:0:0:0:
192,192,107482,1,0,0:0:0:0:
64,192,107607,1,0,0:0:0:0:
448,192,107607,1,0,0:0:0:0:
320,192,107607,1,0,0:0:0:0:
192,192,107607,1,0,0:0:0:0:
64,192,107732,1,0,0:0:0:0:
448,192,107857,1,0,0:0:0:0:
192,192,107857,1,0,0:0:0:0:
320,192,107857,1,0,0:0:0:0:
64,192,107982,1,0,0:0:0:0:
448,192,107982,1,0,0:0:0:0:
320,192,108107,1,0,0:0:0:0:
192,192,108107,1,0,0:0:0:0:
64,192,108107,1,0,0:0:0:0:
448,192,108107,1,0,0:0:0:0:
192,192,108232,1,0,0:0:0:0:
320,192,108357,1,0,0:0:0:0:
192,192,108357,1,0,0:0:0:0:
448,192,108357,1,0,0:0:0:0:
320,192,108482,1,0,0:0:0:0:
448,192,108482,1,0,0:0:0:0:
448,192,108607,1,0,0:0:0:0:
320,192,108607,1,0,0:0:0:0:
192,192,108607,1,0,0:0:0:0:
64,192,108607,1,0,0:0:0:0:
192,192,108732,1,0,0:0:0:0:
448,192,108857,1,0,0:0:0:0:
320,192,108857,1,0,0:0:0:0:
64,192,108857,1,0,0:0:0:0:
192,192,108982,1,0,0:0:0:0:
448,192,108982,1,0,0:0:0:0:
448,192,109107,1,0,0:0:0:0:
320,192,109107,1,0,0:0:0:0:
192,192,109107,1,0,0:0:0:0:
64,192,109107,1,0,0:0:0:0:
320,192,109232,1,0,0:0:0:0:
448,192,109357,1,0,0:0:0:0:
192,192,109357,1,0,0:0:0:0:
64,192,109357,1,0,0:0:0:0:
192,192,109482,1,0,0:0:0:0:
448,192,109607,1,0,0:0:0:0:
320,192,109607,1,0,0:0:0:0:
64,192,109607,1,0,0:0:0:0:
192,192,109607,1,0,0:0:0:0:
320,192,109732,1,0,0:0:0:0:
448,192,109857,1,0,0:0:0:0:
192,192,109857,1,0,0:0:0:0:
64,192,109857,1,0,0:0:0:0:
64,192,109982,1,0,0:0:0:0:
320,192,109982,1,0,0:0:0:0:
64,192,110107,1,0,0:0:0:0:
192,192,110107,1,0,0:0:0:0:
320,192,110107,1,0,0:0:0:0:
448,192,110107,1,0,0:0:0:0:
320,192,110232,1,0,0:0:0:0:
448,192,110357,1,0,0:0:0:0:
192,192,110357,1,0,0:0:0:0:
64,192,110357,1,0,0:0:0:0:
64,192,110482,1,0,0:0:0:0:
192,192,110482,1,0,0:0:0:0:
448,192,110607,1,0,0:0:0:0:
320,192,110607,1,0,0:0:0:0:
64,192,110607,1,0,0:0:0:0:
192,192,110607,1,0,0:0:0:0:
320,192,110732,1,0,0:0:0:0:
448,192,110857,1,0,0:0:0:0:
192,192,110857,1,0,0:0:0:0:
64,192,110857,1,0,0:0:0:0:
320,192,110982,1,0,0:0:0:0:
64,192,110982,1,0,0:0:0:0:
448,192,111107,1,0,0:0:0:0:
320,192,111107,1,0,0:0:0:0:
64,192,111107,1,0,0:0:0:0:
192,192,111107,1,0,0:0:0:0:
448,192,111232,1,0,0:0:0:0:
192,192,111232,1,0,0:0:0:0:
320,192,111357,1,0,0:0:0:0:
64,192,111357,1,0,0:0:0:0:
448,192,111357,1,0,0:0:0:0:
64,192,111482,1,0,0:0:0:0:
320,192,111482,1,0,0:0:0:0:
448,192,111607,1,0,0:0:0:0:
320,192,111607,1,0,0:0:0:0:
192,192,111607,1,0,0:0:0:0:
64,192,111607,1,0,0:0:0:0:
448,192,111732,1,0,0:0:0:0:
192,192,111732,1,0,0:0:0:0:
192,192,111857,1,0,0:0:0:0:
64,192,111857,1,0,0:0:0:0:
320,192,111857,1,0,0:0:0:0:
448,192,111982,1,0,0:0:0:0:
64,192,111982,1,0,0:0:0:0:
448,192,112107,1,0,0:0:0:0:
64,192,112107,1,0,0:0:0:0:
192,192,112107,1,0,0:0:0:0:
320,192,112107,1,0,0:0:0:0:
192,192,112232,1,0,0:0:0:0:
320,192,112232,1,0,0:0:0:0:
448,192,112357,1,0,0:0:0:0:
192,192,112357,1,0,0:0:0:0:
64,192,112357,1,0,0:0:0:0:
448,192,112482,1,0,0:0:0:0:
320,192,112482,1,0,0:0:0:0:
192,192,112607,1,0,0:0:0:0:
64,192,112607,1,0,0:0:0:0:
192,192,112732,1,0,0:0:0:0:
64,192,112732,1,0,0:0:0:0:
192,192,112857,1,0,0:0:0:0:
64,192,112857,1,0,0:0:0:0:
192,192,112982,1,0,0:0:0:0:
64,192,112982,1,0,0:0:0:0:
448,192,113107,1,0,0:0:0:0:
320,192,113107,1,0,0:0:0:0:
448,192,113232,1,0,0:0:0:0:
320,192,113232,1,0,0:0:0:0:
448,192,113357,1,0,0:0:0:0:
320,192,113357,1,0,0:0:0:0:
448,192,113482,1,0,0:0:0:0:
320,192,113482,1,0,0:0:0:0:
64,192,113607,1,0,0:0:0:0:
448,192,113607,1,0,0:0:0:0:
192,192,113607,1,0,0:0:0:0:
320,192,113607,1,0,0:0:0:0:
64,192,113732,1,0,0:0:0:0:
192,192,113857,1,0,0:0:0:0:
320,192,113857,1,0,0:0:0:0:
448,192,113857,1,0,0:0:0:0:
64,192,113982,1,0,0:0:0:0:
320,192,113982,1,0,0:0:0:0:
64,192,114107,1,0,0:0:0:0:
320,192,114107,1,0,0:0:0:0:
448,192,114107,1,0,0:0:0:0:
192,192,114107,1,0,0:0:0:0:
192,192,114232,1,0,0:0:0:0:
192,192,114357,1,0,0:0:0:0:
320,192,114357,1,0,0:0:0:0:
448,192,114357,1,0,0:0:0:0:
320,192,114482,1,0,0:0:0:0:
448,192,114482,1,0,0:0:0:0:
192,192,114607,1,0,0:0:0:0:
64,192,114607,1,0,0:0:0:0:
320,192,114607,1,0,0:0:0:0:
448,192,114607,1,0,0:0:0:0:
64,192,114732,1,0,0:0:0:0:
192,192,114857,1,0,0:0:0:0:
320,192,114857,1,0,0:0:0:0:
448,192,114857,1,0,0:0:0:0:
320,192,114982,1,0,0:0:0:0:
64,192,114982,1,0,0:0:0:0:
192,192,115107,1,0,0:0:0:0:
320,192,115107,1,0,0:0:0:0:
448,192,115107,1,0,0:0:0:0:
64,192,115107,1,0,0:0:0:0:
192,192,115232,1,0,0:0:0:0:
64,192,115357,1,0,0:0:0:0:
320,192,115357,1,0,0:0:0:0:
448,192,115357,1,0,0:0:0:0:
320,192,115482,1,0,0:0:0:0:
448,192,115607,1,0,0:0:0:0:
64,192,115607,1,0,0:0:0:0:
192,192,115607,1,0,0:0:0:0:
320,192,115607,1,0,0:0:0:0:
448,192,115732,1,0,0:0:0:0:
64,192,115857,1,0,0:0:0:0:
320,192,115857,1,0,0:0:0:0:
192,192,115857,1,0,0:0:0:0:
448,192,115982,1,0,0:0:0:0:
64,192,115982,1,0,0:0:0:0:
192,192,116107,1,0,0:0:0:0:
320,192,116107,1,0,0:0:0:0:
448,192,116107,1,0,0:0:0:0:
64,192,116107,1,0,0:0:0:0:
320,192,116232,1,0,0:0:0:0:
192,192,116357,1,0,0:0:0:0:
320,192,116357,1,0,0:0:0:0:
64,192,116357,1,0,0:0:0:0:
192,192,116482,1,0,0:0:0:0:
64,192,116482,1,0,0:0:0:0:
64,192,116607,1,0,0:0:0:0:
192,192,116607,1,0,0:0:0:0:
320,192,116607,1,0,0:0:0:0:
448,192,116607,1,0,0:0:0:0:
320,192,116732,1,0,0:0:0:0:
64,192,116857,1,0,0:0:0:0:
192,192,116857,1,0,0:0:0:0:
448,192,116857,1,0,0:0:0:0:
320,192,116982,1,0,0:0:0:0:
64,192,116982,1,0,0:0:0:0:
64,192,117107,1,0,0:0:0:0:
192,192,117107,1,0,0:0:0:0:
320,192,117107,1,0,0:0:0:0:
448,192,117107,1,0,0:0:0:0:
192,192,117232,1,0,0:0:0:0:
64,192,117357,1,0,0:0:0:0:
320,192,117357,1,0,0:0:0:0:
448,192,117357,1,0,0:0:0:0:
320,192,117482,1,0,0:0:0:0:
64,192,117607,1,0,0:0:0:0:
192,192,117607,1,0,0:0:0:0:
448,192,117607,1,0,0:0:0:0:
320,192,117607,1,0,0:0:0:0:
192,192,117732,1,0,0:0:0:0:
64,192,117857,1,0,0:0:0:0:
320,192,117857,1,0,0:0:0:0:
448,192,117857,1,0,0:0:0:0:
448,192,117982,1,0,0:0:0:0:
192,192,117982,1,0,0:0:0:0:
448,192,118107,1,0,0:0:0:0:
320,192,118107,1,0,0:0:0:0:
192,192,118107,1,0,0:0:0:0:
64,192,118107,1,0,0:0:0:0:
192,192,118232,1,0,0:0:0:0:
64,192,118357,1,0,0:0:0:0:
320,192,118357,1,0,0:0:0:0:
448,192,118357,1,0,0:0:0:0:
448,192,118482,1,0,0:0:0:0:
320,192,118482,1,0,0:0:0:0:
64,192,118607,1,0,0:0:0:0:
192,192,118607,1,0,0:0:0:0:
448,192,118607,1,0,0:0:0:0:
320,192,118607,1,0,0:0:0:0:
192,192,118732,1,0,0:0:0:0:
64,192,118857,1,0,0:0:0:0:
320,192,118857,1,0,0:0:0:0:
448,192,118857,1,0,0:0:0:0:
192,192,118982,1,0,0:0:0:0:
448,192,118982,1,0,0:0:0:0:
64,192,119107,1,0,0:0:0:0:
192,192,119107,1,0,0:0:0:0:
448,192,119107,1,0,0:0:0:0:
320,192,119107,1,0,0:0:0:0:
64,192,119232,1,0,0:0:0:0:
320,192,119232,1,0,0:0:0:0:
192,192,119357,1,0,0:0:0:0:
448,192,119357,1,0,0:0:0:0:
64,192,119357,1,0,0:0:0:0:
448,192,119482,1,0,0:0:0:0:
192,192,119482,1,0,0:0:0:0:
64,192,119607,1,0,0:0:0:0:
192,192,119607,1,0,0:0:0:0:
320,192,119607,1,0,0:0:0:0:
448,192,119607,1,0,0:0:0:0:
64,192,119732,1,0,0:0:0:0:
320,192,119732,1,0,0:0:0:0:
320,192,119857,1,0,0:0:0:0:
448,192,119857,1,0,0:0:0:0:
192,192,119857,1,0,0:0:0:0:
64,192,119982,1,0,0:0:0:0:
448,192,119982,1,0,0:0:0:0:
64,192,120107,1,0,0:0:0:0:
448,192,120107,1,0,0:0:0:0:
320,192,120107,1,0,0:0:0:0:
192,192,120107,1,0,0:0:0:0:
320,192,120232,1,0,0:0:0:0:
192,192,120232,1,0,0:0:0:0:
64,192,120357,1,0,0:0:0:0:
320,192,120357,1,0,0:0:0:0:
448,192,120357,1,0,0:0:0:0:
64,192,120482,1,0,0:0:0:0:
320,192,120607,1,0,0:0:0:0:
192,192,120607,1,0,0:0:0:0:
448,192,120732,1,0,0:0:0:0:
64,192,120732,1,0,0:0:0:0:
320,192,120857,1,0,0:0:0:0:
192,192,120857,1,0,0:0:0:0:
448,192,120982,1,0,0:0:0:0:
64,192,120982,1,0,0:0:0:0:
320,192,121107,128,0,121357:0:0:0:0:
192,192,121107,128,0,121357:0:0:0:0:
64,192,121357,128,0,121607:0:0:0:0:
448,192,121357,128,0,121607:0:0:0:0:
192,192,121607,1,0,0:0:0:0:
320,192,121607,1,0,0:0:0:0:
448,192,121648,1,0,0:0:0:0:
64,192,121690,1,0,0:0:0:0:
192,192,121732,1,0,0:0:0:0:
320,192,121773,1,0,0:0:0:0:
448,192,121815,1,0,0:0:0:0:
320,192,121857,1,0,0:0:0:0:
192,192,121898,1,0,0:0:0:0:
64,192,121940,1,0,0:0:0:0:
448,192,121982,1,0,0:0:0:0:
320,192,121982,1,0,0:0:0:0:
192,192,122023,1,0,0:0:0:0:
64,192,122065,1,0,0:0:0:0:
320,192,122107,1,0,0:0:0:0:
448,192,122148,1,0,0:0:0:0:
192,192,122190,1,0,0:0:0:0:
64,192,122232,1,0,0:0:0:0:
448,192,122273,1,0,0:0:0:0:
320,192,122315,1,0,0:0:0:0:
192,192,122357,1,0,0:0:0:0:
64,192,122357,1,0,0:0:0:0:
448,192,122398,1,0,0:0:0:0:
320,192,122440,1,0,0:0:0:0:
192,192,122482,1,0,0:0:0:0:
448,192,122523,1,0,0:0:0:0:
64,192,122565,1,0,0:0:0:0:
192,192,122607,1,0,0:0:0:0:
320,192,122607,1,0,0:0:0:0:
448,192,122648,1,0,0:0:0:0:
64,192,122690,1,0,0:0:0:0:
192,192,122732,1,0,0:0:0:0:
320,192,122773,1,0,0:0:0:0:
448,192,122815,1,0,0:0:0:0:
64,192,122857,1,0,0:0:0:0:
192,192,122898,1,0,0:0:0:0:
320,192,122940,1,0,0:0:0:0:
448,192,122982,1,0,0:0:0:0:
320,192,123023,1,0,0:0:0:0:
192,192,123065,1,0,0:0:0:0:
64,192,123107,1,0,0:0:0:0:
448,192,123107,1,0,0:0:0:0:
320,192,123148,1,0,0:0:0:0:
192,192,123190,1,0,0:0:0:0:
64,192,123232,1,0,0:0:0:0:
192,192,123273,1,0,0:0:0:0:
320,192,123315,1,0,0:0:0:0:
448,192,123357,1,0,0:0:0:0:
64,192,123398,1,0,0:0:0:0:
192,192,123440,1,0,0:0:0:0:
320,192,123482,1,0,0:0:0:0:
448,192,123523,1,0,0:0:0:0:
320,192,123565,1,0,0:0:0:0:
64,192,123607,1,0,0:0:0:0:
192,192,123607,1,0,0:0:0:0:
448,192,123648,1,0,0:0:0:0:
320,192,123690,1,0,0:0:0:0:
192,192,123732,1,0,0:0:0:0:
64,192,123773,1,0,0:0:0:0:
192,192,123815,1,0,0:0:0:0:
320,192,123857,1,0,0:0:0:0:
448,192,123898,1,0,0:0:0:0:
64,192,123940,1,0,0:0:0:0:
192,192,123982,1,0,0:0:0:0:
448,192,123982,1,0,0:0:0:0:
320,192,124023,1,0,0:0:0:0:
192,192,124065,1,0,0:0:0:0:
64,192,124107,1,0,0:0:0:0:
320,192,124148,1,0,0:0:0:0:
448,192,124190,1,0,0:0:0:0:
64,192,124232,1,0,0:0:0:0:
192,192,124273,1,0,0:0:0:0:
320,192,124315,1,0,0:0:0:0:
448,192,124357,1,0,0:0:0:0:
64,192,124357,1,0,0:0:0:0:
192,192,124398,1,0,0:0:0:0:
320,192,124440,1,0,0:0:0:0:
448,192,124482,1,0,0:0:0:0:
192,192,124523,1,0,0:0:0:0:
320,192,124565,1,0,0:0:0:0:
448,192,124607,1,0,0:0:0:0:
64,192,124607,1,0,0:0:0:0:
64,192,124732,1,0,0:0:0:0:
192,192,124857,1,0,0:0:0:0:
320,192,124857,1,0,0:0:0:0:
320,192,124982,1,0,0:0:0:0:
448,192,124982,1,0,0:0:0:0:
64,192,125107,1,0,0:0:0:0:
192,192,125107,1,0,0:0:0:0:
448,192,125107,1,0,0:0:0:0:
192,192,125232,1,0,0:0:0:0:
64,192,125357,1,0,0:0:0:0:
320,192,125357,1,0,0:0:0:0:
64,192,125482,1,0,0:0:0:0:
192,192,125607,1,0,0:0:0:0:
320,192,125607,1,0,0:0:0:0:
448,192,125648,1,0,0:0:0:0:
64,192,125690,1,0,0:0:0:0:
192,192,125732,1,0,0:0:0:0:
320,192,125773,1,0,0:0:0:0:
448,192,125815,1,0,0:0:0:0:
320,192,125857,1,0,0:0:0:0:
192,192,125898,1,0,0:0:0:0:
64,192,125940,1,0,0:0:0:0:
448,192,125982,1,0,0:0:0:0:
320,192,125982,1,0,0:0:0:0:
192,192,126023,1,0,0:0:0:0:
64,192,126065,1,0,0:0:0:0:
320,192,126107,1,0,0:0:0:0:
448,192,126148,1,0,0:0:0:0:
192,192,126190,1,0,0:0:0:0:
64,192,126232,1,0,0:0:0:0:
448,192,126273,1,0,0:0:0:0:
320,192,126315,1,0,0:0:0:0:
192,192,126357,1,0,0:0:0:0:
64,192,126357,1,0,0:0:0:0:
448,192,126398,1,0,0:0:0:0:
320,192,126440,1,0,0:0:0:0:
192,192,126482,1,0,0:0:0:0:
448,192,126523,1,0,0:0:0:0:
64,192,126565,1,0,0:0:0:0:
192,192,126607,1,0,0:0:0:0:
320,192,126607,1,0,0:0:0:0:
448,192,126648,1,0,0:0:0:0:
64,192,126690,1,0,0:0:0:0:
192,192,126732,1,0,0:0:0:0:
320,192,126773,1,0,0:0:0:0:
448,192,126815,1,0,0:0:0:0:
64,192,126857,1,0,0:0:0:0:
192,192,126898,1,0,0:0:0:0:
320,192,126940,1,0,0:0:0:0:
448,192,126982,1,0,0:0:0:0:
320,192,127023,1,0,0:0:0:0:
192,192,127065,1,0,0:0:0:0:
64,192,127107,1,0,0:0:0:0:
448,192,127107,1,0,0:0:0:0:
320,192,127148,1,0,0:0:0:0:
192,192,127190,1,0,0:0:0:0:
64,192,127232,1,0,0:0:0:0:
192,192,127273,1,0,0:0:0:0:
320,192,127315,1,0,0:0:0:0:
448,192,127357,1,0,0:0:0:0:
64,192,127398,1,0,0:0:0:0:
192,192,127440,1,0,0:0:0:0:
320,192,127482,1,0,0:0:0:0:
448,192,127523,1,0,0:0:0:0:
320,192,127565,1,0,0:0:0:0:
64,192,127607,1,0,0:0:0:0:
192,192,127607,1,0,0:0:0:0:
448,192,127648,1,0,0:0:0:0:
320,192,127690,1,0,0:0:0:0:
192,192,127732,1,0,0:0:0:0:
64,192,127773,1,0,0:0:0:0:
192,192,127815,1,0,0:0:0:0:
320,192,127857,1,0,0:0:0:0:
448,192,127898,1,0,0:0:0:0:
64,192,127940,1,0,0:0:0:0:
192,192,127982,1,0,0:0:0:0:
448,192,127982,1,0,0:0:0:0:
320,192,128023,1,0,0:0:0:0:
192,192,128065,1,0,0:0:0:0:
64,192,128107,1,0,0:0:0:0:
320,192,128148,1,0,0:0:0:0:
448,192,128190,1,0,0:0:0:0:
64,192,128232,1,0,0:0:0:0:
192,192,128273,1,0,0:0:0:0:
320,192,128315,1,0,0:0:0:0:
448,192,128357,1,0,0:0:0:0:
64,192,128357,1,0,0:0:0:0:
192,192,128398,1,0,0:0:0:0:
320,192,128440,1,0,0:0:0:0:
448,192,128482,1,0,0:0:0:0:
192,192,128523,1,0,0:0:0:0:
64,192,128565,1,0,0:0:0:0:
448,192,128607,1,0,0:0:0:0:
320,192,128607,1,0,0:0:0:0:
320,192,128732,1,0,0:0:0:0:
448,192,128732,1,0,0:0:0:0:
320,192,128857,1,0,0:0:0:0:
448,192,128857,1,0,0:0:0:0:
320,192,128982,1,0,0:0:0:0:
448,192,128982,1,0,0:0:0:0:
192,192,129107,1,0,0:0:0:0:
448,192,129107,1,0,0:0:0:0:
64,192,129107,1,0,0:0:0:0:
192,192,129232,1,0,0:0:0:0:
64,192,129357,1,0,0:0:0:0:
320,192,129357,1,0,0:0:0:0:
448,192,129357,1,0,0:0:0:0:
64,192,129482,1,0,0:0:0:0:
192,192,129607,1,0,0:0:0:0:
320,192,129607,1,0,0:0:0:0:
448,192,129648,1,0,0:0:0:0:
64,192,129690,1,0,0:0:0:0:
192,192,129732,1,0,0:0:0:0:
320,192,129773,1,0,0:0:0:0:
448,192,129815,1,0,0:0:0:0:
320,192,129857,1,0,0:0:0:0:
192,192,129898,1,0,0:0:0:0:
64,192,129940,1,0,0:0:0:0:
448,192,129982,1,0,0:0:0:0:
320,192,130023,1,0,0:0:0:0:
192,192,130065,1,0,0:0:0:0:
64,192,130107,1,0,0:0:0:0:
320,192,130148,1,0,0:0:0:0:
448,192,130190,1,0,0:0:0:0:
192,192,130232,1,0,0:0:0:0:
64,192,130273,1,0,0:0:0:0:
320,192,130315,1,0,0:0:0:0:
192,192,130357,1,0,0:0:0:0:
448,192,130398,1,0,0:0:0:0:
320,192,130440,1,0,0:0:0:0:
192,192,130482,1,0,0:0:0:0:
448,192,130523,1,0,0:0:0:0:
64,192,130565,1,0,0:0:0:0:
192,192,130607,1,0,0:0:0:0:
320,192,130648,1,0,0:0:0:0:
448,192,130690,1,0,0:0:0:0:
64,192,130732,1,0,0:0:0:0:
192,192,130773,1,0,0:0:0:0:
320,192,130815,1,0,0:0:0:0:
192,192,130857,1,0,0:0:0:0:
64,192,130898,1,0,0:0:0:0:
320,192,130940,1,0,0:0:0:0:
448,192,130982,1,0,0:0:0:0:
320,192,131023,1,0,0:0:0:0:
192,192,131065,1,0,0:0:0:0:
64,192,131107,1,0,0:0:0:0:
320,192,131148,1,0,0:0:0:0:
448,192,131190,1,0,0:0:0:0:
64,192,131232,1,0,0:0:0:0:
192,192,131273,1,0,0:0:0:0:
320,192,131315,1,0,0:0:0:0:
448,192,131357,1,0,0:0:0:0:
64,192,131398,1,0,0:0:0:0:
192,192,131440,1,0,0:0:0:0:
320,192,131482,1,0,0:0:0:0:
448,192,131523,1,0,0:0:0:0:
320,192,131565,1,0,0:0:0:0:
64,192,131607,1,0,0:0:0:0:
192,192,131648,1,0,0:0:0:0:
320,192,131690,1,0,0:0:0:0:
448,192,131732,1,0,0:0:0:0:
64,192,131773,1,0,0:0:0:0:
192,192,131815,1,0,0:0:0:0:
320,192,131857,1,0,0:0:0:0:
448,192,131898,1,0,0:0:0:0:
64,192,131940,1,0,0:0:0:0:
192,192,131982,1,0,0:0:0:0:
320,192,132023,1,0,0:0:0:0:
192,192,132065,1,0,0:0:0:0:
64,192,132107,1,0,0:0:0:0:
448,192,132148,1,0,0:0:0:0:
320,192,132190,1,0,0:0:0:0:
64,192,132232,1,0,0:0:0:0:
192,192,132273,1,0,0:0:0:0:
320,192,132315,1,0,0:0:0:0:
64,192,132357,1,0,0:0:0:0:
192,192,132398,1,0,0:0:0:0:
320,192,132440,1,0,0:0:0:0:
448,192,132482,1,0,0:0:0:0:
192,192,132523,1,0,0:0:0:0:
320,192,132565,1,0,0:0:0:0:
448,192,132607,1,0,0:0:0:0:
192,192,132607,1,0,0:0:0:0:
64,192,132607,128,0,132638:0:0:0:0:
64,192,132732,128,0,132762:0:0:0:0:
192,192,132857,128,0,132888:0:0:0:0:
192,192,132982,128,0,133012:0:0:0:0:
320,192,133107,1,0,0:0:0:0:
448,192,133107,128,0,133138:0:0:0:0:
448,192,133232,128,0,133262:0:0:0:0:
320,192,133357,128,0,133388:0:0:0:0:
320,192,133482,128,0,133512:0:0:0:0:
64,192,133607,1,0,0:0:0:0:
320,192,133607,1,0,0:0:0:0:
192,192,133648,1,0,0:0:0:0:
448,192,133690,1,0,0:0:0:0:
320,192,133732,1,0,0:0:0:0:
192,192,133773,1,0,0:0:0:0:
64,192,133815,1,0,0:0:0:0:
320,192,133857,1,0,0:0:0:0:
192,192,133898,1,0,0:0:0:0:
64,192,133940,1,0,0:0:0:0:
448,192,133982,1,0,0:0:0:0:
320,192,134023,1,0,0:0:0:0:
192,192,134065,1,0,0:0:0:0:
64,192,134107,1,0,0:0:0:0:
320,192,134148,1,0,0:0:0:0:
448,192,134190,1,0,0:0:0:0:
192,192,134232,1,0,0:0:0:0:
64,192,134273,1,0,0:0:0:0:
320,192,134315,1,0,0:0:0:0:
192,192,134357,1,0,0:0:0:0:
448,192,134398,1,0,0:0:0:0:
320,192,134440,1,0,0:0:0:0:
192,192,134482,1,0,0:0:0:0:
448,192,134523,1,0,0:0:0:0:
64,192,134565,1,0,0:0:0:0:
192,192,134607,1,0,0:0:0:0:
320,192,134648,1,0,0:0:0:0:
448,192,134690,1,0,0:0:0:0:
64,192,134732,1,0,0:0:0:0:
192,192,134773,1,0,0:0:0:0:
320,192,134815,1,0,0:0:0:0:
192,192,134857,1,0,0:0:0:0:
64,192,134898,1,0,0:0:0:0:
320,192,134940,1,0,0:0:0:0:
448,192,134982,1,0,0:0:0:0:
320,192,135023,1,0,0:0:0:0:
192,192,135065,1,0,0:0:0:0:
64,192,135107,1,0,0:0:0:0:
320,192,135148,1,0,0:0:0:0:
448,192,135190,1,0,0:0:0:0:
64,192,135232,1,0,0:0:0:0:
192,192,135273,1,0,0:0:0:0:
320,192,135315,1,0,0:0:0:0:
448,192,135357,1,0,0:0:0:0:
64,192,135398,1,0,0:0:0:0:
192,192,135440,1,0,0:0:0:0:
320,192,135482,1,0,0:0:0:0:
448,192,135523,1,0,0:0:0:0:
320,192,135565,1,0,0:0:0:0:
64,192,135607,1,0,0:0:0:0:
192,192,135648,1,0,0:0:0:0:
320,192,135690,1,0,0:0:0:0:
448,192,135732,1,0,0:0:0:0:
64,192,135773,1,0,0:0:0:0:
192,192,135815,1,0,0:0:0:0:
320,192,135857,1,0,0:0:0:0:
448,192,135898,1,0,0:0:0:0:
64,192,135940,1,0,0:0:0:0:
192,192,135982,1,0,0:0:0:0:
320,192,136023,1,0,0:0:0:0:
192,192,136065,1,0,0:0:0:0:
64,192,136107,1,0,0:0:0:0:
448,192,136148,1,0,0:0:0:0:
320,192,136190,1,0,0:0:0:0:
64,192,136232,1,0,0:0:0:0:
192,192,136273,1,0,0:0:0:0:
320,192,136315,1,0,0:0:0:0:
64,192,136357,1,0,0:0:0:0:
192,192,136398,1,0,0:0:0:0:
320,192,136440,1,0,0:0:0:0:
448,192,136482,1,0,0:0:0:0:
192,192,136523,1,0,0:0:0:0:
320,192,136565,1,0,0:0:0:0:
64,192,136607,128,0,137607:0:0:0:0:
448,192,136607,128,0,136732:0:0:0:0:
320,192,136732,128,0,136857:0:0:0:0:
192,192,136857,128,0,136982:0:0:0:0:
448,192,136982,128,0,137107:0:0:0:0:
320,192,137107,128,0,137357:0:0:0:0:
448,192,137357,128,0,137607:0:0:0:0:
192,192,137607,1,0,0:0:0:0:
320,192,137607,1,0,0:0:0:0:
320,192,137732,1,0,0:0:0:0:
64,192,137857,1,0,0:0:0:0:
192,192,137857,1,0,0:0:0:0:
192,192,137982,1,0,0:0:0:0:
64,192,138107,1,0,0:0:0:0:
320,192,138107,1,0,0:0:0:0:
448,192,138107,1,0,0:0:0:0:
448,192,138232,1,0,0:0:0:0:
64,192,138357,1,0,0:0:0:0:
192,192,138357,1,0,0:0:0:0:
64,192,138482,1,0,0:0:0:0:
192,192,138607,1,0,0:0:0:0:
320,192,138607,1,0,0:0:0:0:
448,192,138607,1,0,0:0:0:0:
320,192,138732,1,0,0:0:0:0:
192,192,138857,1,0,0:0:0:0:
64,192,138857,1,0,0:0:0:0:
192,192,138982,1,0,0:0:0:0:
320,192,139107,1,0,0:0:0:0:
448,192,139107,1,0,0:0:0:0:
64,192,139107,1,0,0:0:0:0:
320,192,139232,1,0,0:0:0:0:
192,192,139357,1,0,0:0:0:0:
64,192,139357,1,0,0:0:0:0:
448,192,139357,1,0,0:0:0:0:
192,192,139482,1,0,0:0:0:0:
320,192,139607,1,0,0:0:0:0:
448,192,139607,1,0,0:0:0:0:
64,192,139607,1,0,0:0:0:0:
64,192,139732,1,0,0:0:0:0:
192,192,139857,1,0,0:0:0:0:
448,192,139857,1,0,0:0:0:0:
448,192,139982,1,0,0:0:0:0:
64,192,140107,1,0,0:0:0:0:
192,192,140107,1,0,0:0:0:0:
320,192,140107,1,0,0:0:0:0:
192,192,140232,1,0,0:0:0:0:
320,192,140357,1,0,0:0:0:0:
448,192,140357,1,0,0:0:0:0:
320,192,140482,1,0,0:0:0:0:
64,192,140607,1,0,0:0:0:0:
192,192,140607,1,0,0:0:0:0:
448,192,140607,1,0,0:0:0:0:
64,192,140732,1,0,0:0:0:0:
320,192,140857,1,0,0:0:0:0:
192,192,140857,1,0,0:0:0:0:
320,192,140982,1,0,0:0:0:0:
192,192,141107,1,0,0:0:0:0:
64,192,141107,1,0,0:0:0:0:
448,192,141107,1,0,0:0:0:0:
192,192,141232,1,0,0:0:0:0:
320,192,141357,1,0,0:0:0:0:
448,192,141357,1,0,0:0:0:0:
64,192,141357,1,0,0:0:0:0:
448,192,141482,1,0,0:0:0:0:
192,192,141607,1,0,0:0:0:0:
320,192,141607,1,0,0:0:0:0:
64,192,141607,1,0,0:0:0:0:
192,192,141732,1,0,0:0:0:0:
320,192,141857,1,0,0:0:0:0:
448,192,141857,1,0,0:0:0:0:
320,192,141982,1,0,0:0:0:0:
64,192,142107,1,0,0:0:0:0:
192,192,142107,1,0,0:0:0:0:
448,192,142107,1,0,0:0:0:0:
64,192,142232,1,0,0:0:0:0:
320,192,142357,1,0,0:0:0:0:
448,192,142357,1,0,0:0:0:0:
448,192,142482,1,0,0:0:0:0:
64,192,142607,1,0,0:0:0:0:
192,192,142607,1,0,0:0:0:0:
320,192,142607,1,0,0:0:0:0:
192,192,142732,1,0,0:0:0:0:
448,192,142857,1,0,0:0:0:0:
320,192,142857,1,0,0:0:0:0:
320,192,142982,1,0,0:0:0:0:
448,192,143107,1,0,0:0:0:0:
64,192,143107,1,0,0:0:0:0:
192,192,143107,1,0,0:0:0:0:
192,192,143232,1,0,0:0:0:0:
64,192,143357,1,0,0:0:0:0:
448,192,143357,1,0,0:0:0:0:
320,192,143357,1,0,0:0:0:0:
320,192,143482,1,0,0:0:0:0:
448,192,143607,1,0,0:0:0:0:
64,192,143607,1,0,0:0:0:0:
192,192,143607,1,0,0:0:0:0:
448,192,143732,1,0,0:0:0:0:
64,192,143857,1,0,0:0:0:0:
320,192,143857,1,0,0:0:0:0:
64,192,143982,1,0,0:0:0:0:
192,192,144107,1,0,0:0:0:0:
320,192,144107,1,0,0:0:0:0:
448,192,144107,1,0,0:0:0:0:
320,192,144232,1,0,0:0:0:0:
64,192,144357,1,0,0:0:0:0:
192,192,144357,1,0,0:0:0:0:
192,192,144482,1,0,0:0:0:0:
320,192,144607,1,0,0:0:0:0:
448,192,144607,1,0,0:0:0:0:
320,192,144732,1,0,0:0:0:0:
320,192,144857,1,0,0:0:0:0:
320,192,144982,1,0,0:0:0:0:
448,192,145107,128,0,145357:0:0:0:0:
64,192,145107,128,0,145357:0:0:0:0:
320,192,145357,128,0,145607:0:0:0:0:
192,192,145357,128,0,145607:0:0:0:0:
448,192,145607,1,0,0:0:0:0:
64,192,145607,1,0,0:0:0:0:
448,192,145732,1,0,0:0:0:0:
320,192,145857,1,0,0:0:0:0:
192,192,145857,1,0,0:0:0:0:
64,192,145857,1,0,0:0:0:0:
448,192,145982,1,0,0:0:0:0:
192,192,145982,1,0,0:0:0:0:
448,192,146107,1,0,0:0:0:0:
192,192,146107,1,0,0:0:0:0:
64,192,146107,1,0,0:0:0:0:
320,192,146107,1,0,0:0:0:0:
320,192,146232,1,0,0:0:0:0:
320,192,146357,1,0,0:0:0:0:
192,192,146357,1,0,0:0:0:0:
64,192,146357,1,0,0:0:0:0:
192,192,146482,1,0,0:0:0:0:
64,192,146482,1,0,0:0:0:0:
320,192,146607,1,0,0:0:0:0:
448,192,146607,1,0,0:0:0:0:
192,192,146607,1,0,0:0:0:0:
64,192,146607,1,0,0:0:0:0:
448,192,146732,1,0,0:0:0:0:
320,192,146857,1,0,0:0:0:0:
192,192,146857,1,0,0:0:0:0:
64,192,146857,1,0,0:0:0:0:
192,192,146982,1,0,0:0:0:0:
448,192,146982,1,0,0:0:0:0:
320,192,147107,1,0,0:0:0:0:
192,192,147107,1,0,0:0:0:0:
64,192,147107,1,0,0:0:0:0:
448,192,147107,1,0,0:0:0:0:
320,192,147232,1,0,0:0:0:0:
448,192,147357,1,0,0:0:0:0:
192,192,147357,1,0,0:0:0:0:
64,192,147357,1,0,0:0:0:0:
192,192,147482,1,0,0:0:0:0:
64,192,147607,1,0,0:0:0:0:
448,192,147607,1,0,0:0:0:0:
320,192,147607,1,0,0:0:0:0:
192,192,147607,1,0,0:0:0:0:
64,192,147732,1,0,0:0:0:0:
448,192,147857,1,0,0:0:0:0:
192,192,147857,1,0,0:0:0:0:
320,192,147857,1,0,0:0:0:0:
64,192,147982,1,0,0:0:0:0:
448,192,147982,1,0,0:0:0:0:
320,192,148107,1,0,0:0:0:0:
192,192,148107,1,0,0:0:0:0:
64,192,148107,1,0,0:0:0:0:
448,192,148107,1,0,0:0:0:0:
192,192,148232,1,0,0:0:0:0:
320,192,148357,1,0,0:0:0:0:
192,192,148357,1,0,0:0:0:0:
448,192,148357,1,0,0:0:0:0:
320,192,148482,1,0,0:0:0:0:
448,192,148482,1,0,0:0:0:0:
448,192,148607,1,0,0:0:0:0:
320,192,148607,1,0,0:0:0:0:
192,192,148607,1,0,0:0:0:0:
64,192,148607,1,0,0:0:0:0:
192,192,148732,1,0,0:0:0:0:
448,192,148857,1,0,0:0:0:0:
320,192,148857,1,0,0:0:0:0:
64,192,148857,1,0,0:0:0:0:
192,192,148982,1,0,0:0:0:0:
448,192,148982,1,0,0:0:0:0:
448,192,149107,1,0,0:0:0:0:
320,192,149107,1,0,0:0:0:0:
192,192,149107,1,0,0:0:0:0:
64,192,149107,1,0,0:0:0:0:
320,192,149232,1,0,0:0:0:0:
448,192,149357,1,0,0:0:0:0:
192,192,149357,1,0,0:0:0:0:
64,192,149357,1,0,0:0:0:0:
192,192,149482,1,0,0:0:0:0:
448,192,149607,1,0,0:0:0:0:
320,192,149607,1,0,0:0:0:0:
64,192,149607,1,0,0:0:0:0:
192,192,149607,1,0,0:0:0:0:
320,192,149732,1,0,0:0:0:0:
448,192,149857,1,0,0:0:0:0:
192,192,149857,1,0,0:0:0:0:
64,192,149857,1,0,0:0:0:0:
64,192,149982,1,0,0:0:0:0:
320,192,149982,1,0,0:0:0:0:
64,192,150107,1,0,0:0:0:0:
192,192,150107,1,0,0:0:0:0:
320,192,150107,1,0,0:0:0:0:
448,192,150107,1,0,0:0:0:0:
320,192,150232,1,0,0:0:0:0:
448,192,150357,1,0,0:0:0:0:
192,192,150357,1,0,0:0:0:0:
64,192,150357,1,0,0:0:0:0:
64,192,150482,1,0,0:0:0:0:
192,192,150482,1,0,0:0:0:0:
448,192,150607,1,0,0:0:0:0:
320,192,150607,1,0,0:0:0:0:
64,192,150607,1,0,0:0:0:0:
192,192,150607,1,0,0:0:0:0:
320,192,150732,1,0,0:0:0:0:
448,192,150857,1,0,0:0:0:0:
192,192,150857,1,0,0:0:0:0:
64,192,150857,1,0,0:0:0:0:
320,192,150982,1,0,0:0:0:0:
64,192,150982,1,0,0:0:0:0:
448,192,151107,1,0,0:0:0:0:
320,192,151107,1,0,0:0:0:0:
64,192,151107,1,0,0:0:0:0:
192,192,151107,1,0,0:0:0:0:
448,192,151232,1,0,0:0:0:0:
192,192,151232,1,0,0:0:0:0:
320,192,151357,1,0,0:0:0:0:
64,192,151357,1,0,0:0:0:0:
448,192,151357,1,0,0:0:0:0:
64,192,151482,1,0,0:0:0:0:
320,192,151482,1,0,0:0:0:0:
448,192,151607,1,0,0:0:0:0:
320,192,151607,1,0,0:0:0:0:
192,192,151607,1,0,0:0:0:0:
64,192,151607,1,0,0:0:0:0:
448,192,151732,1,0,0:0:0:0:
192,192,151732,1,0,0:0:0:0:
192,192,151857,1,0,0:0:0:0:
64,192,151857,1,0,0:0:0:0:
320,192,151857,1,0,0:0:0:0:
448,192,151982,1,0,0:0:0:0:
64,192,151982,1,0,0:0:0:0:
448,192,152107,1,0,0:0:0:0:
64,192,152107,1,0,0:0:0:0:
192,192,152107,1,0,0:0:0:0:
320,192,152107,1,0,0:0:0:0:
192,192,152232,1,0,0:0:0:0:
320,192,152232,1,0,0:0:0:0:
448,192,152357,1,0,0:0:0:0:
192,192,152357,1,0,0:0:0:0:
64,192,152357,1,0,0:0:0:0:
448,192,152482,1,0,0:0:0:0:
320,192,152482,1,0,0:0:0:0:
192,192,152607,1,0,0:0:0:0:
64,192,152607,1,0,0:0:0:0:
192,192,152732,1,0,0:0:0:0:
64,192,152732,1,0,0:0:0:0:
192,192,152857,1,0,0:0:0:0:
64,192,152857,1,0,0:0:0:0:
192,192,152982,1,0,0:0:0:0:
64,192,152982,1,0,0:0:0:0:
448,192,153107,1,0,0:0:0:0:
320,192,153107,1,0,0:0:0:0:
448,192,153232,1,0,0:0:0:0:
320,192,153232,1,0,0:0:0:0:
448,192,153357,1,0,0:0:0:0:
320,192,153357,1,0,0:0:0:0:
448,192,153482,1,0,0:0:0:0:
320,192,153482,1,0,0:0:0:0:
64,192,153607,1,0,0:0:0:0:
448,192,153607,1,0,0:0:0:0:
192,192,153607,1,0,0:0:0:0:
320,192,153607,1,0,0:0:0:0:
64,192,153732,1,0,0:0:0:0:
192,192,153857,1,0,0:0:0:0:
320,192,153857,1,0,0:0:0:0:
448,192,153857,1,0,0:0:0:0:
64,192,153982,1,0,0:0:0:0:
320,192,153982,1,0,0:0:0:0:
64,192,154107,1,0,0:0:0:0:
320,192,154107,1,0,0:0:0:0:
448,192,154107,1,0,0:0:0:0:
192,192,154107,1,0,0:0:0:0:
192,192,154232,1,0,0:0:0:0:
192,192,154357,1,0,0:0:0:0:
320,192,154357,1,0,0:0:0:0:
448,192,154357,1,0,0:0:0:0:
320,192,154482,1,0,0:0:0:0:
448,192,154482,1,0,0:0:0:0:
192,192,154607,1,0,0:0:0:0:
64,192,154607,1,0,0:0:0:0:
320,192,154607,1,0,0:0:0:0:
448,192,154607,1,0,0:0:0:0:
64,192,154732,1,0,0:0:0:0:
192,192,154857,1,0,0:0:0:0:
320,192,154857,1,0,0:0:0:0:
448,192,154857,1,0,0:0:0:0:
320,192,154982,1,0,0:0:0:0:
64,192,154982,1,0,0:0:0:0:
192,192,155107,1,0,0:0:0:0:
320,192,155107,1,0,0:0:0:0:
448,192,155107,1,0,0:0:0:0:
64,192,155107,1,0,0:0:0:0:
192,192,155232,1,0,0:0:0:0:
64,192,155357,1,0,0:0:0:0:
320,192,155357,1,0,0:0:0:0:
448,192,155357,1,0,0:0:0:0:
320,192,155482,1,0,0:0:0:0:
448,192,155607,1,0,0:0:0:0:
64,192,155607,1,0,0:0:0:0:
192,192,155607,1,0,0:0:0:0:
320,192,155607,1,0,0:0:0:0:
448,192,155732,1,0,0:0:0:0:
64,192,155857,1,0,0:0:0:0:
320,192,155857,1,0,0:0:0:0:
192,192,155857,1,0,0:0:0:0:
448,192,155982,1,0,0:0:0:0:
64,192,155982,1,0,0:0:0:0:
192,192,156107,1,0,0:0:0:0:
320,192,156107,1,0,0:0:0:0:
448,192,156107,1,0,0:0:0:0:
64,192,156107,1,0,0:0:0:0:
320,192,156232,1,0,0:0:0:0:
192,192,156357,1,0,0:0:0:0:
320,192,156357,1,0,0:0:0:0:
64,192,156357,1,0,0:0:0:0:
192,192,156482,1,0,0:0:0:0:
64,192,156482,1,0,0:0:0:0:
64,192,156607,1,0,0:0:0:0:
192,192,156607,1,0,0:0:0:0:
320,192,156607,1,0,0:0:0:0:
448,192,156607,1,0,0:0:0:0:
320,192,156732,1,0,0:0:0:0:
64,192,156857,1,0,0:0:0:0:
192,192,156857,1,0,0:0:0:0:
448,192,156857,1,0,0:0:0:0:
320,192,156982,1,0,0:0:0:0:
64,192,156982,1,0,0:0:0:0:
64,192,157107,1,0,0:0:0:0:
192,192,157107,1,0,0:0:0:0:
320,192,157107,1,0,0:0:0:0:
448,192,157107,1,0,0:0:0:0:
192,192,157232,1,0,0:0:0:0:
64,192,157357,1,0,0:0:0:0:
320,192,157357,1,0,0:0:0:0:
448,192,157357,1,0,0:0:0:0:
320,192,157482,1,0,0:0:0:0:
64,192,157607,1,0,0:0:0:0:
192,192,157607,1,0,0:0:0:0:
448,192,157607,1,0,0:0:0:0:
320,192,157607,1,0,0:0:0:0:
192,192,157732,1,0,0:0:0:0:
64,192,157857,1,0,0:0:0:0:
320,192,157857,1,0,0:0:0:0:
448,192,157857,1,0,0:0:0:0:
448,192,157982,1,0,0:0:0:0:
192,192,157982,1,0,0:0:0:0:
448,192,158107,1,0,0:0:0:0:
320,192,158107,1,0,0:0:0:0:
192,192,158107,1,0,0:0:0:0:
64,192,158107,1,0,0:0:0:0:
192,192,158232,1,0,0:0:0:0:
64,192,158357,1,0,0:0:0:0:
320,192,158357,1,0,0:0:0:0:
448,192,158357,1,0,0:0:0:0:
448,192,158482,1,0,0:0:0:0:
320,192,158482,1,0,0:0:0:0:
64,192,158607,1,0,0:0:0:0:
192,192,158607,1,0,0:0:0:0:
448,192,158607,1,0,0:0:0:0:
320,192,158607,1,0,0:0:0:0:
192,192,158732,1,0,0:0:0:0:
64,192,158857,1,0,0:0:0:0:
320,192,158857,1,0,0:0:0:0:
448,192,158857,1,0,0:0:0:0:
192,192,158982,1,0,0:0:0:0:
448,192,158982,1,0,0:0:0:0:
64,192,159107,1,0,0:0:0:0:
192,192,159107,1,0,0:0:0:0:
448,192,159107,1,0,0:0:0:0:
320,192,159107,1,0,0:0:0:0:
64,192,159232,1,0,0:0:0:0:
320,192,159232,1,0,0:0:0:0:
192,192,159357,1,0,0:0:0:0:
448,192,159357,1,0,0:0:0:0:
64,192,159357,1,0,0:0:0:0:
448,192,159482,1,0,0:0:0:0:
192,192,159482,1,0,0:0:0:0:
64,192,159607,1,0,0:0:0:0:
192,192,159607,1,0,0:0:0:0:
320,192,159607,1,0,0:0:0:0:
448,192,159607,1,0,0:0:0:0:
64,192,159732,1,0,0:0:0:0:
320,192,159732,1,0,0:0:0:0:
320,192,159857,1,0,0:0:0:0:
448,192,159857,1,0,0:0:0:0:
192,192,159857,1,0,0:0:0:0:
64,192,159982,1,0,0:0:0:0:
448,192,159982,1,0,0:0:0:0:
64,192,160107,1,0,0:0:0:0:
448,192,160107,1,0,0:0:0:0:
320,192,160107,1,0,0:0:0:0:
192,192,160107,1,0,0:0:0:0:
320,192,160232,1,0,0:0:0:0:
192,192,160232,1,0,0:0:0:0:
64,192,160357,1,0,0:0:0:0:
320,192,160357,1,0,0:0:0:0:
448,192,160357,1,0,0:0:0:0:
64,192,160482,1,0,0:0:0:0:
320,192,160607,1,0,0:0:0:0:
192,192,160607,1,0,0:0:0:0:
448,192,160732,1,0,0:0:0:0:
64,192,160732,1,0,0:0:0:0:
320,192,160857,1,0,0:0:0:0:
192,192,160857,1,0,0:0:0:0:
448,192,160982,1,0,0:0:0:0:
64,192,160982,1,0,0:0:0:0:
320,192,161107,128,0,161357:0:0:0:0:
192,192,161107,128,0,161357:0:0:0:0:
64,192,161357,128,0,161607:0:0:0:0:
448,192,161357,128,0,161607:0:0:0:0:
192,192,161607,1,0,0:0:0:0:
320,192,161607,1,0,0:0:0:0:
448,192,161648,1,0,0:0:0:0:
64,192,161690,1,0,0:0:0:0:
192,192,161732,1,0,0:0:0:0:
320,192,161773,1,0,0:0:0:0:
448,192,161815,1,0,0:0:0:0:
320,192,161857,1,0,0:0:0:0:
192,192,161898,1,0,0:0:0:0:
64,192,161940,1,0,0:0:0:0:
448,192,161982,1,0,0:0:0:0:
320,192,161982,1,0,0:0:0:0:
192,192,162023,1,0,0:0:0:0:
64,192,162065,1,0,0:0:0:0:
320,192,162107,1,0,0:0:0:0:
448,192,162148,1,0,0:0:0:0:
192,192,162190,1,0,0:0:0:0:
64,192,162232,1,0,0:0:0:0:
448,192,162273,1,0,0:0:0:0:
320,192,162315,1,0,0:0:0:0:
192,192,162357,1,0,0:0:0:0:
64,192,162357,1,0,0:0:0:0:
448,192,162398,1,0,0:0:0:0:
320,192,162440,1,0,0:0:0:0:
192,192,162482,1,0,0:0:0:0:
448,192,162523,1,0,0:0:0:0:
64,192,162565,1,0,0:0:0:0:
192,192,162607,1,0,0:0:0:0:
320,192,162607,1,0,0:0:0:0:
448,192,162648,1,0,0:0:0:0:
64,192,162690,1,0,0:0:0:0:
192,192,162732,1,0,0:0:0:0:
320,192,162773,1,0,0:0:0:0:
448,192,162815,1,0,0:0:0:0:
64,192,162857,1,0,0:0:0:0:
192,192,162898,1,0,0:0:0:0:
320,192,162940,1,0,0:0:0:0:
448,192,162982,1,0,0:0:0:0:
320,192,163023,1,0,0:0:0:0:
192,192,163065,1,0,0:0:0:0:
64,192,163107,1,0,0:0:0:0:
448,192,163107,1,0,0:0:0:0:
320,192,163148,1,0,0:0:0:0:
192,192,163190,1,0,0:0:0:0:
64,192,163232,1,0,0:0:0:0:
192,192,163273,1,0,0:0:0:0:
320,192,163315,1,0,0:0:0:0:
448,192,163357,1,0,0:0:0:0:
64,192,163398,1,0,0:0:0:0:
192,192,163440,1,0,0:0:0:0:
320,192,163482,1,0,0:0:0:0:
448,192,163523,1,0,0:0:0:0:
320,192,163565,1,0,0:0:0:0:
64,192,163607,1,0,0:0:0:0:
192,192,163607,1,0,0:0:0:0:
448,192,163648,1,0,0:0:0:0:
320,192,163690,1,0,0:0:0:0:
192,192,163732,1,0,0:0:0:0:
64,192,163773,1,0,0:0:0:0:
192,192,163815,1,0,0:0:0:0:
320,192,163857,1,0,0:0:0:0:
448,192,163898,1,0,0:0:0:0:
64,192,163940,1,0,0:0:0:0:
192,192,163982,1,0,0:0:0:0:
448,192,163982,1,0,0:0:0:0:
320,192,164023,1,0,0:0:0:0:
192,192,164065,1,0,0:0:0:0:
64,192,164107,1,0,0:0:0:0:
320,192,164148,1,0,0:0:0:0:
448,192,164190,1,0,0:0:0:0:
64,192,164232,1,0,0:0:0:0:
192,192,164273,1,0,0:0:0:0:
320,192,164315,1,0,0:0:0:0:
448,192,164357,1,0,0:0:0:0:
64,192,164357,1,0,0:0:0:0:
192,192,164398,1,0,0:0:0:0:
320,192,164440,1,0,0:0:0:0:
448,192,164482,1,0,0:0:0:0:
192,192,164523,1,0,0:0:0:0:
64,192,164565,1,0,0:0:0:0:
192,192,164607,1,0,0:0:0:0:
448,192,164607,128,0,164857:0:0:0:0:
192,192,164732,1,0,0:0:0:0:
320,192,164857,128,0,164982:0:0:0:0:
64,192,164857,1,0,0:0:0:0:
448,192,164982,128,0,165232:0:0:0:0:
64,192,164982,1,0,0:0:0:0:
192,192,165107,1,0,0:0:0:0:
64,192,165232,128,0,165607:0:0:0:0:
192,192,165232,1,0,0:0:0:0:
320,192,165357,1,0,0:0:0:0:
320,192,165482,1,0,0:0:0:0:
192,192,165607,1,0,0:0:0:0:
320,192,165607,1,0,0:0:0:0:
448,192,165648,1,0,0:0:0:0:
64,192,165690,1,0,0:0:0:0:
192,192,165732,1,0,0:0:0:0:
320,192,165773,1,0,0:0:0:0:
448,192,165815,1,0,0:0:0:0:
320,192,165857,1,0,0:0:0:0:
192,192,165898,1,0,0:0:0:0:
64,192,165940,1,0,0:0:0:0:
448,192,165982,1,0,0:0:0:0:
320,192,165982,1,0,0:0:0:0:
192,192,166023,1,0,0:0:0:0:
64,192,166065,1,0,0:0:0:0:
320,192,166107,1,0,0:0:0:0:
448,192,166148,1,0,0:0:0:0:
192,192,166190,1,0,0:0:0:0:
64,192,166232,1,0,0:0:0:0:
448,192,166273,1,0,0:0:0:0:
320,192,166315,1,0,0:0:0:0:
192,192,166357,1,0,0:0:0:0:
64,192,166357,1,0,0:0:0:0:
448,192,166398,1,0,0:0:0:0:
320,192,166440,1,0,0:0:0:0:
192,192,166482,1,0,0:0:0:0:
448,192,166523,1,0,0:0:0:0:
64,192,166565,1,0,0:0:0:0:
192,192,166607,1,0,0:0:0:0:
320,192,166607,1,0,0:0:0:0:
448,192,166648,1,0,0:0:0:0:
64,192,166690,1,0,0:0:0:0:
192,192,166732,1,0,0:0:0:0:
320,192,166773,1,0,0:0:0:0:
448,192,166815,1,0,0:0:0:0:
64,192,166857,1,0,0:0:0:0:
192,192,166898,1,0,0:0:0:0:
320,192,166940,1,0,0:0:0:0:
448,192,166982,1,0,0:0:0:0:
320,192,167023,1,0,0:0:0:0:
192,192,167065,1,0,0:0:0:0:
64,192,167107,1,0,0:0:0:0:
448,192,167107,1,0,0:0:0:0:
320,192,167148,1,0,0:0:0:0:
192,192,167190,1,0,0:0:0:0:
64,192,167232,1,0,0:0:0:0:
192,192,167273,1,0,0:0:0:0:
320,192,167315,1,0,0:0:0:0:
448,192,167357,1,0,0:0:0:0:
64,192,167398,1,0,0:0:0:0:
192,192,167440,1,0,0:0:0:0:
320,192,167482,1,0,0:0:0:0:
448,192,167523,1,0,0:0:0:0:
320,192,167565,1,0,0:0:0:0:
64,192,167607,1,0,0:0:0:0:
192,192,167607,1,0,0:0:0:0:
448,192,167648,1,0,0:0:0:0:
320,192,167690,1,0,0:0:0:0:
192,192,167732,1,0,0:0:0:0:
64,192,167773,1,0,0:0:0:0:
192,192,167815,1,0,0:0:0:0:
320,192,167857,1,0,0:0:0:0:
448,192,167898,1,0,0:0:0:0:
64,192,167940,1,0,0:0:0:0:
192,192,167982,1,0,0:0:0:0:
448,192,167982,1,0,0:0:0:0:
320,192,168023,1,0,0:0:0:0:
192,192,168065,1,0,0:0:0:0:
64,192,168107,1,0,0:0:0:0:
320,192,168148,1,0,0:0:0:0:
448,192,168190,1,0,0:0:0:0:
64,192,168232,1,0,0:0:0:0:
192,192,168273,1,0,0:0:0:0:
320,192,168315,1,0,0:0:0:0:
448,192,168357,1,0,0:0:0:0:
64,192,168357,1,0,0:0:0:0:
192,192,168398,1,0,0:0:0:0:
320,192,168440,1,0,0:0:0:0:
448,192,168482,1,0,0:0:0:0:
192,192,168523,1,0,0:0:0:0:
64,192,168565,1,0,0:0:0:0:
448,192,168607,1,0,0:0:0:0:
320,192,168607,1,0,0:0:0:0:
320,192,168732,1,0,0:0:0:0:
448,192,168732,1,0,0:0:0:0:
448,192,168857,1,0,0:0:0:0:
64,192,168857,1,0,0:0:0:0:
192,192,168898,1,0,0:0:0:0:
320,192,168940,1,0,0:0:0:0:
448,192,168982,1,0,0:0:0:0:
192,192,169023,1,0,0:0:0:0:
64,192,169065,1,0,0:0:0:0:
320,192,169107,1,0,0:0:0:0:
448,192,169148,1,0,0:0:0:0:
192,192,169190,1,0,0:0:0:0:
64,192,169232,1,0,0:0:0:0:
320,192,169273,1,0,0:0:0:0:
448,192,169315,1,0,0:0:0:0:
192,192,169357,1,0,0:0:0:0:
64,192,169357,1,0,0:0:0:0:
64,192,169482,1,0,0:0:0:0:
320,192,169607,1,0,0:0:0:0:
192,192,169607,1,0,0:0:0:0:
64,192,169648,1,0,0:0:0:0:
448,192,169690,1,0,0:0:0:0:
320,192,169732,1,0,0:0:0:0:
192,192,169773,1,0,0:0:0:0:
64,192,169815,1,0,0:0:0:0:
192,192,169857,1,0,0:0:0:0:
320,192,169898,1,0,0:0:0:0:
448,192,169940,1,0,0:0:0:0:
64,192,169982,1,0,0:0:0:0:
192,192,169982,1,0,0:0:0:0:
320,192,170023,1,0,0:0:0:0:
448,192,170065,1,0,0:0:0:0:
192,192,170107,1,0,0:0:0:0:
64,192,170148,1,0,0:0:0:0:
320,192,170190,1,0,0:0:0:0:
448,192,170232,1,0,0:0:0:0:
64,192,170273,1,0,0:0:0:0:
192,192,170315,1,0,0:0:0:0:
320,192,170357,1,0,0:0:0:0:
448,192,170357,1,0,0:0:0:0:
64,192,170398,1,0,0:0:0:0:
192,192,170440,1,0,0:0:0:0:
320,192,170482,1,0,0:0:0:0:
64,192,170523,1,0,0:0:0:0:
448,192,170565,1,0,0:0:0:0:
320,192,170607,1,0,0:0:0:0:
192,192,170607,1,0,0:0:0:0:
64,192,170648,1,0,0:0:0:0:
448,192,170690,1,0,0:0:0:0:
320,192,170732,1,0,0:0:0:0:
192,192,170773,1,0,0:0:0:0:
64,192,170815,1,0,0:0:0:0:
448,192,170857,1,0,0:0:0:0:
320,192,170898,1,0,0:0:0:0:
192,192,170940,1,0,0:0:0:0:
64,192,170982,1,0,0:0:0:0:
192,192,171023,1,0,0:0:0:0:
320,192,171065,1,0,0:0:0:0:
448,192,171107,1,0,0:0:0:0:
64,192,171107,1,0,0:0:0:0:
192,192,171148,1,0,0:0:0:0:
320,192,171190,1,0,0:0:0:0:
448,192,171232,1,0,0:0:0:0:
320,192,171273,1,0,0:0:0:0:
192,192,171315,1,0,0:0:0:0:
64,192,171357,1,0,0:0:0:0:
448,192,171398,1,0,0:0:0:0:
320,192,171440,1,0,0:0:0:0:
192,192,171482,1,0,0:0:0:0:
64,192,171523,1,0,0:0:0:0:
192,192,171565,1,0,0:0:0:0:
448,192,171607,1,0,0:0:0:0:
320,192,171607,1,0,0:0:0:0:
64,192,171648,1,0,0:0:0:0:
192,192,171690,1,0,0:0:0:0:
320,192,171732,1,0,0:0:0:0:
448,192,171773,1,0,0:0:0:0:
320,192,171815,1,0,0:0:0:0:
192,192,171857,1,0,0:0:0:0:
64,192,171898,1,0,0:0:0:0:
448,192,171940,1,0,0:0:0:0:
320,192,171982,1,0,0:0:0:0:
64,192,171982,1,0,0:0:0:0:
192,192,172023,1,0,0:0:0:0:
320,192,172065,1,0,0:0:0:0:
448,192,172107,1,0,0:0:0:0:
192,192,172148,1,0,0:0:0:0:
64,192,172190,1,0,0:0:0:0:
448,192,172232,1,0,0:0:0:0:
320,192,172273,1,0,0:0:0:0:
192,192,172315,1,0,0:0:0:0:
64,192,172357,1,0,0:0:0:0:
448,192,172357,1,0,0:0:0:0:
320,192,172398,1,0,0:0:0:0:
192,192,172440,1,0,0:0:0:0:
64,192,172482,1,0,0:0:0:0:
320,192,172523,1,0,0:0:0:0:
448,192,172565,1,0,0:0:0:0:
64,192,172607,128,0,172857:0:0:0:0:
320,192,172607,1,0,0:0:0:0:
320,192,172732,1,0,0:0:0:0:
448,192,172857,1,0,0:0:0:0:
192,192,172857,128,0,172982:0:0:0:0:
64,192,172982,128,0,173232:0:0:0:0:
448,192,172982,1,0,0:0:0:0:
320,192,173107,1,0,0:0:0:0:
448,192,173232,128,0,173607:0:0:0:0:
320,192,173232,1,0,0:0:0:0:
192,192,173357,1,0,0:0:0:0:
192,192,173482,1,0,0:0:0:0:
320,192,173607,1,0,0:0:0:0:
192,192,173607,1,0,0:0:0:0:
64,192,173648,1,0,0:0:0:0:
448,192,173690,1,0,0:0:0:0:
320,192,173732,1,0,0:0:0:0:
192,192,173773,1,0,0:0:0:0:
64,192,173815,1,0,0:0:0:0:
192,192,173857,1,0,0:0:0:0:
320,192,173898,1,0,0:0:0:0:
448,192,173940,1,0,0:0:0:0:
64,192,173982,1,0,0:0:0:0:
192,192,173982,1,0,0:0:0:0:
320,192,174023,1,0,0:0:0:0:
448,192,174065,1,0,0:0:0:0:
192,192,174107,1,0,0:0:0:0:
64,192,174148,1,0,0:0:0:0:
320,192,174190,1,0,0:0:0:0:
448,192,174232,1,0,0:0:0:0:
64,192,174273,1,0,0:0:0:0:
192,192,174315,1,0,0:0:0:0:
320,192,174357,1,0,0:0:0:0:
448,192,174357,1,0,0:0:0:0:
64,192,174398,1,0,0:0:0:0:
192,192,174440,1,0,0:0:0:0:
320,192,174482,1,0,0:0:0:0:
64,192,174523,1,0,0:0:0:0:
448,192,174565,1,0,0:0:0:0:
320,192,174607,1,0,0:0:0:0:
192,192,174607,1,0,0:0:0:0:
64,192,174648,1,0,0:0:0:0:
448,192,174690,1,0,0:0:0:0:
320,192,174732,1,0,0:0:0:0:
192,192,174773,1,0,0:0:0:0:
64,192,174815,1,0,0:0:0:0:
448,192,174857,1,0,0:0:0:0:
320,192,174898,1,0,0:0:0:0:
192,192,174940,1,0,0:0:0:0:
64,192,174982,1,0,0:0:0:0:
192,192,175023,1,0,0:0:0:0:
320,192,175065,1,0,0:0:0:0:
448,192,175107,1,0,0:0:0:0:
64,192,175107,1,0,0:0:0:0:
192,192,175148,1,0,0:0:0:0:
320,192,175190,1,0,0:0:0:0:
448,192,175232,1,0,0:0:0:0:
320,192,175273,1,0,0:0:0:0:
192,192,175315,1,0,0:0:0:0:
64,192,175357,1,0,0:0:0:0:
448,192,175398,1,0,0:0:0:0:
320,192,175440,1,0,0:0:0:0:
192,192,175482,1,0,0:0:0:0:
64,192,175523,1,0,0:0:0:0:
192,192,175565,1,0,0:0:0:0:
448,192,175607,1,0,0:0:0:0:
320,192,175607,1,0,0:0:0:0:
64,192,175648,1,0,0:0:0:0:
192,192,175690,1,0,0:0:0:0:
320,192,175732,1,0,0:0:0:0:
448,192,175773,1,0,0:0:0:0:
320,192,175815,1,0,0:0:0:0:
192,192,175857,1,0,0:0:0:0:
64,192,175898,1,0,0:0:0:0:
448,192,175940,1,0,0:0:0:0:
320,192,175982,1,0,0:0:0:0:
64,192,175982,1,0,0:0:0:0:
192,192,176023,1,0,0:0:0:0:
320,192,176065,1,0,0:0:0:0:
448,192,176107,1,0,0:0:0:0:
192,192,176148,1,0,0:0:0:0:
64,192,176190,1,0,0:0:0:0:
448,192,176232,1,0,0:0:0:0:
320,192,176273,1,0,0:0:0:0:
192,192,176315,1,0,0:0:0:0:
64,192,176357,1,0,0:0:0:0:
448,192,176357,1,0,0:0:0:0:
320,192,176398,1,0,0:0:0:0:
192,192,176440,1,0,0:0:0:0:
64,192,176482,1,0,0:0:0:0:
320,192,176523,1,0,0:0:0:0:
448,192,176565,1,0,0:0:0:0:
64,192,176607,1,0,0:0:0:0:
192,192,176607,1,0,0:0:0:0:
192,192,176732,1,0,0:0:0:0:
64,192,176732,1,0,0:0:0:0:
448,192,176857,1,0,0:0:0:0:
64,192,176857,1,0,0:0:0:0:
320,192,176898,1,0,0:0:0:0:
192,192,176940,1,0,0:0:0:0:
64,192,176982,1,0,0:0:0:0:
320,192,177023,1,0,0:0:0:0:
448,192,177065,1,0,0:0:0:0:
192,192,177107,1,0,0:0:0:0:
64,192,177148,1,0,0:0:0:0:
320,192,177190,1,0,0:0:0:0:
448,192,177232,1,0,0:0:0:0:
192,192,177273,1,0,0:0:0:0:
64,192,177315,1,0,0:0:0:0:
448,192,177357,1,0,0:0:0:0:
320,192,177357,1,0,0:0:0:0:
448,192,177482,1,0,0:0:0:0:
64,192,177607,1,0,0:0:0:0:
448,192,177607,1,0,0:0:0:0:
192,192,177607,128,0,178607:0:0:0:0:
320,192,177607,128,0,177940:0:0:0:0:
448,192,177940,128,0,178273:0:0:0:0:
64,192,178273,128,0,178607:0:0:0:0:
448,192,178607,128,0,179607:0:0:0:0:
320,192,178607,128,0,178732:0:0:0:0:
320,192,178857,128,0,178982:0:0:0:0:
192,192,179107,128,0,179232:0:0:0:0:
192,192,179357,128,0,179482:0:0:0:0:
64,192,179607,128,0,179940:0:0:0:0:
320,192,179607,128,0,179940:0:0:0:0:
192,192,179940,128,0,180273:0:0:0:0:
448,192,179940,128,0,180273:0:0:0:0:
320,192,180273,128,0,180607:0:0:0:0:
64,192,180273,128,0,180607:0:0:0:0:
