osu file format v14

[General]
AudioFilename: audio110.mp3
AudioLeadIn: 0
PreviewTime: -1
Countdown: 0
SampleSet: Normal
StackLeniency: 0.7
Mode: 3
LetterboxInBreaks: 0
SpecialStyle: 0
WidescreenStoryboard: 0

[Editor]
Bookmarks: 98567
DistanceSpacing: 1.3
BeatDivisor: 3
GridSize: 4
TimelineZoom: 0.9

[Metadata]
Title:Coco Jambo
TitleUnicode:Coco Jambo
Artist:Mr. President
ArtistUnicode:Mr. President
Creator:LordTimeWaste
Version:Coco Jambo [1,1x Rate]
Source:
Tags:
BeatmapID:1726311
BeatmapSetID:823841

[Difficulty]
HPDrainRate:8
CircleSize:4
OverallDifficulty:8
ApproachRate:5
SliderMultiplier:1.4
SliderTickRate:1

[Events]
//Background and Video events
0,0,"pBPcDpeDb8HfN6a6nMTcmR.jpg",0,0
//Break Periods
//Storyboard Layer 0 (Background)
//Storyboard Layer 1 (Fail)
//Storyboard Layer 2 (Pass)
//Storyboard Layer 3 (Foreground)
//Storyboard Sound Samples

[TimingPoints]
1749,545.454545454545,4,1,0,20,1,0

[HitObjects]
320,192,1749,5,0,0:0:0:0:
64,192,1749,1,0,0:0:0:0:
320,192,1885,1,0,0:0:0:0:
192,192,2022,1,0,0:0:0:0:
448,192,2022,1,0,0:0:0:0:
192,192,2158,1,0,0:0:0:0:
64,192,2295,1,0,0:0:0:0:
448,192,2295,1,0,0:0:0:0:
320,192,2295,1,0,0:0:0:0:
64,192,2431,1,0,0:0:0:0:
448,192,2567,1,0,0:0:0:0:
192,192,2567,1,0,0:0:0:0:
448,192,2704,1,0,0:0:0:0:
320,192,2840,1,0,0:0:0:0:
192,192,2840,1,0,0:0:0:0:
320,192,2976,1,0,0:0:0:0:
64,192,3113,1,0,0:0:0:0:
448,192,3113,1,0,0:0:0:0:
64,192,3249,1,0,0:0:0:0:
192,192,3385,1,0,0:0:0:0:
448,192,3385,1,0,0:0:0:0:
320,192,3385,1,0,0:0:0:0:
192,192,3522,1,0,0:0:0:0:
448,192,3658,1,0,0:0:0:0:
64,192,3658,1,0,0:0:0:0:
448,192,3795,1,0,0:0:0:0:
192,192,3931,1,0,0:0:0:0:
320,192,3931,1,0,0:0:0:0:
192,192,4067,1,0,0:0:0:0:
320,192,4204,1,0,0:0:0:0:
64,192,4204,1,0,0:0:0:0:
320,192,4340,1,0,0:0:0:0:
192,192,4476,1,0,0:0:0:0:
448,192,4476,1,0,0:0:0:0:
64,192,4476,1,0,0:0:0:0:
448,192,4613,1,0,0:0:0:0:
64,192,4749,1,0,0:0:0:0:
320,192,4749,1,0,0:0:0:0:
64,192,4885,1,0,0:0:0:0:
192,192,5022,1,0,0:0:0:0:
448,192,5022,1,0,0:0:0:0:
448,192,5158,1,0,0:0:0:0:
320,192,5295,1,0,0:0:0:0:
64,192,5295,1,0,0:0:0:0:
320,192,5431,1,0,0:0:0:0:
64,192,5567,1,0,0:0:0:0:
448,192,5567,1,0,0:0:0:0:
192,192,5567,1,0,0:0:0:0:
64,192,5704,1,0,0:0:0:0:
192,192,5840,1,0,0:0:0:0:
320,192,5840,1,0,0:0:0:0:
192,192,5976,1,0,0:0:0:0:
448,192,6113,1,0,0:0:0:0:
64,192,6113,1,0,0:0:0:0:
320,192,6158,1,0,0:0:0:0:
192,192,6204,1,0,0:0:0:0:
64,192,6249,1,0,0:0:0:0:
192,192,6295,1,0,0:0:0:0:
320,192,6340,1,0,0:0:0:0:
448,192,6385,1,0,0:0:0:0:
192,192,6431,1,0,0:0:0:0:
64,192,6476,1,0,0:0:0:0:
448,192,6522,1,0,0:0:0:0:
320,192,6522,1,0,0:0:0:0:
192,192,6567,1,0,0:0:0:0:
64,192,6613,1,0,0:0:0:0:
320,192,6658,1,0,0:0:0:0:
448,192,6704,1,0,0:0:0:0:
192,192,6749,1,0,0:0:0:0:
64,192,6795,1,0,0:0:0:0:
448,192,6840,1,0,0:0:0:0:
320,192,6885,1,0,0:0:0:0:
192,192,6931,1,0,0:0:0:0:
64,192,6931,1,0,0:0:0:0:
448,192,6976,1,0,0:0:0:0:
320,192,7022,1,0,0:0:0:0:
192,192,7067,1,0,0:0:0:0:
448,192,7113,1,0,0:0:0:0:
64,192,7158,1,0,0:0:0:0:
192,192,7204,1,0,0:0:0:0:
320,192,7204,1,0,0:0:0:0:
448,192,7249,1,0,0:0:0:0:
64,192,7295,1,0,0:0:0:0:
192,192,7340,1,0,0:0:0:0:
320,192,7385,1,0,0:0:0:0:
448,192,7431,1,0,0:0:0:0:
64,192,7476,1,0,0:0:0:0:
192,192,7522,1,0,0:0:0:0:
320,192,7567,1,0,0:0:0:0:
448,192,7613,1,0,0:0:0:0:
320,192,7658,1,0,0:0:0:0:
192,192,7704,1,0,0:0:0:0:
64,192,7749,1,0,0:0:0:0:
448,192,7749,1,0,0:0:0:0:
320,192,7795,1,0,0:0:0:0:
192,192,7840,1,0,0:0:0:0:
64,192,7885,1,0,0:0:0:0:
192,192,7931,1,0,0:0:0:0:
320,192,7976,1,0,0:0:0:0:
448,192,8022,1,0,0:0:0:0:
64,192,8067,1,0,0:0:0:0:
192,192,8113,1,0,0:0:0:0:
320,192,8158,1,0,0:0:0:0:
448,192,8204,1,0,0:0:0:0:
320,192,8249,1,0,0:0:0:0:
64,192,8295,1,0,0:0:0:0:
192,192,8295,1,0,0:0:0:0:
448,192,8340,1,0,0:0:0:0:
320,192,8385,1,0,0:0:0:0:
192,192,8431,1,0,0:0:0:0:
64,192,8476,1,0,0:0:0:0:
192,192,8522,1,0,0:0:0:0:
320,192,8567,1,0,0:0:0:0:
448,192,8613,1,0,0:0:0:0:
64,192,8658,1,0,0:0:0:0:
192,192,8704,1,0,0:0:0:0:
448,192,8704,1,0,0:0:0:0:
320,192,8749,1,0,0:0:0:0:
192,192,8795,1,0,0:0:0:0:
64,192,8840,1,0,0:0:0:0:
320,192,8885,1,0,0:0:0:0:
448,192,8931,1,0,0:0:0:0:
64,192,8976,1,0,0:0:0:0:
192,192,9022,1,0,0:0:0:0:
320,192,9067,1,0,0:0:0:0:
448,192,9113,1,0,0:0:0:0:
64,192,9113,1,0,0:0:0:0:
192,192,9158,1,0,0:0:0:0:
320,192,9204,1,0,0:0:0:0:
448,192,9249,1,0,0:0:0:0:
192,192,9295,1,0,0:0:0:0:
320,192,9340,1,0,0:0:0:0:
448,192,9385,1,0,0:0:0:0:
64,192,9385,1,0,0:0:0:0:
64,192,9522,1,0,0:0:0:0:
192,192,9658,1,0,0:0:0:0:
448,192,9658,1,0,0:0:0:0:
448,192,9795,1,0,0:0:0:0:
64,192,9931,1,0,0:0:0:0:
320,192,9931,1,0,0:0:0:0:
192,192,9931,1,0,0:0:0:0:
192,192,10067,1,0,0:0:0:0:
320,192,10204,1,0,0:0:0:0:
448,192,10204,1,0,0:0:0:0:
320,192,10340,1,0,0:0:0:0:
64,192,10476,1,0,0:0:0:0:
192,192,10476,1,0,0:0:0:0:
320,192,10476,1,0,0:0:0:0:
448,192,10476,1,0,0:0:0:0:
192,192,10613,1,0,0:0:0:0:
64,192,10749,1,0,0:0:0:0:
320,192,10749,1,0,0:0:0:0:
448,192,10749,1,0,0:0:0:0:
448,192,10885,1,0,0:0:0:0:
192,192,10885,1,0,0:0:0:0:
64,192,11022,1,0,0:0:0:0:
192,192,11022,1,0,0:0:0:0:
320,192,11022,1,0,0:0:0:0:
448,192,11022,1,0,0:0:0:0:
320,192,11158,1,0,0:0:0:0:
192,192,11295,1,0,0:0:0:0:
448,192,11295,1,0,0:0:0:0:
64,192,11295,1,0,0:0:0:0:
64,192,11431,1,0,0:0:0:0:
192,192,11567,1,0,0:0:0:0:
320,192,11567,1,0,0:0:0:0:
448,192,11567,1,0,0:0:0:0:
64,192,11567,1,0,0:0:0:0:
320,192,11704,1,0,0:0:0:0:
192,192,11840,1,0,0:0:0:0:
64,192,11840,1,0,0:0:0:0:
448,192,11840,1,0,0:0:0:0:
64,192,11976,1,0,0:0:0:0:
192,192,11976,1,0,0:0:0:0:
64,192,12113,1,0,0:0:0:0:
192,192,12113,1,0,0:0:0:0:
320,192,12113,1,0,0:0:0:0:
448,192,12113,1,0,0:0:0:0:
320,192,12249,1,0,0:0:0:0:
448,192,12385,1,0,0:0:0:0:
192,192,12385,1,0,0:0:0:0:
64,192,12385,1,0,0:0:0:0:
448,192,12522,1,0,0:0:0:0:
448,192,12658,1,0,0:0:0:0:
320,192,12658,1,0,0:0:0:0:
192,192,12658,1,0,0:0:0:0:
64,192,12658,1,0,0:0:0:0:
320,192,12795,1,0,0:0:0:0:
448,192,12931,1,0,0:0:0:0:
192,192,12931,1,0,0:0:0:0:
64,192,12931,1,0,0:0:0:0:
64,192,13067,1,0,0:0:0:0:
320,192,13067,1,0,0:0:0:0:
448,192,13204,1,0,0:0:0:0:
320,192,13204,1,0,0:0:0:0:
192,192,13204,1,0,0:0:0:0:
64,192,13204,1,0,0:0:0:0:
192,192,13340,1,0,0:0:0:0:
320,192,13476,1,0,0:0:0:0:
64,192,13476,1,0,0:0:0:0:
448,192,13476,1,0,0:0:0:0:
448,192,13613,1,0,0:0:0:0:
320,192,13749,1,0,0:0:0:0:
192,192,13749,1,0,0:0:0:0:
64,192,13749,1,0,0:0:0:0:
448,192,13749,1,0,0:0:0:0:
192,192,13885,1,0,0:0:0:0:
320,192,14022,1,0,0:0:0:0:
448,192,14022,1,0,0:0:0:0:
64,192,14022,1,0,0:0:0:0:
448,192,14158,1,0,0:0:0:0:
320,192,14158,1,0,0:0:0:0:
448,192,14295,1,0,0:0:0:0:
320,192,14295,1,0,0:0:0:0:
192,192,14295,1,0,0:0:0:0:
64,192,14295,1,0,0:0:0:0:
192,192,14431,1,0,0:0:0:0:
64,192,14567,1,0,0:0:0:0:
320,192,14567,1,0,0:0:0:0:
448,192,14567,1,0,0:0:0:0:
64,192,14704,1,0,0:0:0:0:
448,192,14840,1,0,0:0:0:0:
192,192,14840,1,0,0:0:0:0:
320,192,14885,1,0,0:0:0:0:
64,192,14931,1,0,0:0:0:0:
192,192,14976,1,0,0:0:0:0:
320,192,15022,1,0,0:0:0:0:
448,192,15067,1,0,0:0:0:0:
320,192,15113,1,0,0:0:0:0:
192,192,15158,1,0,0:0:0:0:
64,192,15204,1,0,0:0:0:0:
448,192,15249,1,0,0:0:0:0:
320,192,15249,1,0,0:0:0:0:
192,192,15295,1,0,0:0:0:0:
64,192,15340,1,0,0:0:0:0:
320,192,15385,1,0,0:0:0:0:
448,192,15431,1,0,0:0:0:0:
192,192,15476,1,0,0:0:0:0:
64,192,15522,1,0,0:0:0:0:
448,192,15567,1,0,0:0:0:0:
320,192,15613,1,0,0:0:0:0:
192,192,15658,1,0,0:0:0:0:
64,192,15658,1,0,0:0:0:0:
448,192,15704,1,0,0:0:0:0:
320,192,15749,1,0,0:0:0:0:
192,192,15795,1,0,0:0:0:0:
448,192,15840,1,0,0:0:0:0:
64,192,15885,1,0,0:0:0:0:
192,192,15931,1,0,0:0:0:0:
320,192,15931,1,0,0:0:0:0:
448,192,15976,1,0,0:0:0:0:
64,192,16022,1,0,0:0:0:0:
192,192,16067,1,0,0:0:0:0:
320,192,16113,1,0,0:0:0:0:
448,192,16158,1,0,0:0:0:0:
64,192,16204,1,0,0:0:0:0:
192,192,16249,1,0,0:0:0:0:
320,192,16295,1,0,0:0:0:0:
448,192,16340,1,0,0:0:0:0:
320,192,16385,1,0,0:0:0:0:
192,192,16431,1,0,0:0:0:0:
64,192,16476,1,0,0:0:0:0:
448,192,16476,1,0,0:0:0:0:
320,192,16522,1,0,0:0:0:0:
192,192,16567,1,0,0:0:0:0:
64,192,16613,1,0,0:0:0:0:
192,192,16658,1,0,0:0:0:0:
320,192,16704,1,0,0:0:0:0:
448,192,16749,1,0,0:0:0:0:
64,192,16795,1,0,0:0:0:0:
192,192,16840,1,0,0:0:0:0:
320,192,16885,1,0,0:0:0:0:
448,192,16931,1,0,0:0:0:0:
320,192,16976,1,0,0:0:0:0:
64,192,17022,1,0,0:0:0:0:
192,192,17022,1,0,0:0:0:0:
448,192,17067,1,0,0:0:0:0:
320,192,17113,1,0,0:0:0:0:
192,192,17158,1,0,0:0:0:0:
64,192,17204,1,0,0:0:0:0:
192,192,17249,1,0,0:0:0:0:
320,192,17295,1,0,0:0:0:0:
448,192,17340,1,0,0:0:0:0:
64,192,17385,1,0,0:0:0:0:
192,192,17431,1,0,0:0:0:0:
448,192,17431,1,0,0:0:0:0:
320,192,17476,1,0,0:0:0:0:
192,192,17522,1,0,0:0:0:0:
64,192,17567,1,0,0:0:0:0:
320,192,17613,1,0,0:0:0:0:
448,192,17658,1,0,0:0:0:0:
64,192,17704,1,0,0:0:0:0:
192,192,17749,1,0,0:0:0:0:
320,192,17795,1,0,0:0:0:0:
448,192,17840,1,0,0:0:0:0:
64,192,17840,1,0,0:0:0:0:
192,192,17885,1,0,0:0:0:0:
320,192,17931,1,0,0:0:0:0:
448,192,17976,1,0,0:0:0:0:
192,192,18022,1,0,0:0:0:0:
320,192,18067,1,0,0:0:0:0:
448,192,18113,1,0,0:0:0:0:
64,192,18113,1,0,0:0:0:0:
192,192,18249,1,0,0:0:0:0:
320,192,18249,1,0,0:0:0:0:
64,192,18385,1,0,0:0:0:0:
448,192,18385,1,0,0:0:0:0:
192,192,18522,1,0,0:0:0:0:
320,192,18522,1,0,0:0:0:0:
64,192,18658,128,0,18931:0:0:0:0:
448,192,18658,128,0,18931:0:0:0:0:
192,192,18931,128,0,19204:0:0:0:0:
320,192,18931,128,0,19204:0:0:0:0:
64,192,19204,1,0,0:0:0:0:
448,192,19204,1,0,0:0:0:0:
64,192,19340,1,0,0:0:0:0:
192,192,19476,1,0,0:0:0:0:
320,192,19476,1,0,0:0:0:0:
448,192,19476,1,0,0:0:0:0:
64,192,19613,1,0,0:0:0:0:
320,192,19613,1,0,0:0:0:0:
64,192,19749,1,0,0:0:0:0:
320,192,19749,1,0,0:0:0:0:
448,192,19749,1,0,0:0:0:0:
192,192,19749,1,0,0:0:0:0:
192,192,19885,1,0,0:0:0:0:
192,192,20022,1,0,0:0:0:0:
320,192,20022,1,0,0:0:0:0:
448,192,20022,1,0,0:0:0:0:
320,192,20158,1,0,0:0:0:0:
448,192,20158,1,0,0:0:0:0:
192,192,20295,1,0,0:0:0:0:
64,192,20295,1,0,0:0:0:0:
320,192,20295,1,0,0:0:0:0:
448,192,20295,1,0,0:0:0:0:
64,192,20431,1,0,0:0:0:0:
192,192,20567,1,0,0:0:0:0:
320,192,20567,1,0,0:0:0:0:
448,192,20567,1,0,0:0:0:0:
320,192,20704,1,0,0:0:0:0:
64,192,20704,1,0,0:0:0:0:
192,192,20840,1,0,0:0:0:0:
320,192,20840,1,0,0:0:0:0:
448,192,20840,1,0,0:0:0:0:
64,192,20840,1,0,0:0:0:0:
192,192,20976,1,0,0:0:0:0:
64,192,21113,1,0,0:0:0:0:
320,192,21113,1,0,0:0:0:0:
448,192,21113,1,0,0:0:0:0:
320,192,21249,1,0,0:0:0:0:
448,192,21385,1,0,0:0:0:0:
64,192,21385,1,0,0:0:0:0:
192,192,21385,1,0,0:0:0:0:
320,192,21385,1,0,0:0:0:0:
448,192,21522,1,0,0:0:0:0:
64,192,21658,1,0,0:0:0:0:
320,192,21658,1,0,0:0:0:0:
192,192,21658,1,0,0:0:0:0:
448,192,21795,1,0,0:0:0:0:
64,192,21795,1,0,0:0:0:0:
192,192,21931,1,0,0:0:0:0:
320,192,21931,1,0,0:0:0:0:
448,192,21931,1,0,0:0:0:0:
64,192,21931,1,0,0:0:0:0:
320,192,22067,1,0,0:0:0:0:
192,192,22204,1,0,0:0:0:0:
320,192,22204,1,0,0:0:0:0:
64,192,22204,1,0,0:0:0:0:
192,192,22340,1,0,0:0:0:0:
64,192,22340,1,0,0:0:0:0:
64,192,22476,1,0,0:0:0:0:
192,192,22476,1,0,0:0:0:0:
320,192,22476,1,0,0:0:0:0:
448,192,22476,1,0,0:0:0:0:
320,192,22613,1,0,0:0:0:0:
64,192,22749,1,0,0:0:0:0:
192,192,22749,1,0,0:0:0:0:
448,192,22749,1,0,0:0:0:0:
320,192,22885,1,0,0:0:0:0:
64,192,22885,1,0,0:0:0:0:
64,192,23022,1,0,0:0:0:0:
192,192,23022,1,0,0:0:0:0:
320,192,23022,1,0,0:0:0:0:
448,192,23022,1,0,0:0:0:0:
192,192,23158,1,0,0:0:0:0:
64,192,23295,1,0,0:0:0:0:
320,192,23295,1,0,0:0:0:0:
448,192,23295,1,0,0:0:0:0:
320,192,23431,1,0,0:0:0:0:
64,192,23567,1,0,0:0:0:0:
192,192,23567,1,0,0:0:0:0:
448,192,23567,1,0,0:0:0:0:
320,192,23567,1,0,0:0:0:0:
192,192,23704,1,0,0:0:0:0:
64,192,23840,1,0,0:0:0:0:
320,192,23840,1,0,0:0:0:0:
448,192,23840,1,0,0:0:0:0:
448,192,23976,1,0,0:0:0:0:
192,192,23976,1,0,0:0:0:0:
448,192,24113,1,0,0:0:0:0:
320,192,24113,1,0,0:0:0:0:
192,192,24113,1,0,0:0:0:0:
64,192,24113,1,0,0:0:0:0:
192,192,24249,1,0,0:0:0:0:
64,192,24385,1,0,0:0:0:0:
320,192,24385,1,0,0:0:0:0:
448,192,24385,1,0,0:0:0:0:
448,192,24522,1,0,0:0:0:0:
320,192,24522,1,0,0:0:0:0:
64,192,24658,1,0,0:0:0:0:
192,192,24658,1,0,0:0:0:0:
448,192,24658,1,0,0:0:0:0:
320,192,24658,1,0,0:0:0:0:
192,192,24795,1,0,0:0:0:0:
64,192,24931,1,0,0:0:0:0:
320,192,24931,1,0,0:0:0:0:
448,192,24931,1,0,0:0:0:0:
192,192,25067,1,0,0:0:0:0:
448,192,25067,1,0,0:0:0:0:
64,192,25204,1,0,0:0:0:0:
192,192,25204,1,0,0:0:0:0:
448,192,25204,1,0,0:0:0:0:
320,192,25204,1,0,0:0:0:0:
64,192,25340,1,0,0:0:0:0:
320,192,25340,1,0,0:0:0:0:
192,192,25476,1,0,0:0:0:0:
448,192,25476,1,0,0:0:0:0:
64,192,25476,1,0,0:0:0:0:
448,192,25613,1,0,0:0:0:0:
192,192,25613,1,0,0:0:0:0:
64,192,25749,1,0,0:0:0:0:
192,192,25749,1,0,0:0:0:0:
320,192,25749,1,0,0:0:0:0:
448,192,25749,1,0,0:0:0:0:
64,192,25885,1,0,0:0:0:0:
320,192,25885,1,0,0:0:0:0:
320,192,26022,1,0,0:0:0:0:
448,192,26022,1,0,0:0:0:0:
192,192,26022,1,0,0:0:0:0:
64,192,26158,1,0,0:0:0:0:
448,192,26158,1,0,0:0:0:0:
64,192,26295,1,0,0:0:0:0:
448,192,26295,1,0,0:0:0:0:
320,192,26295,1,0,0:0:0:0:
192,192,26295,1,0,0:0:0:0:
320,192,26431,1,0,0:0:0:0:
192,192,26431,1,0,0:0:0:0:
64,192,26567,1,0,0:0:0:0:
320,192,26567,1,0,0:0:0:0:
448,192,26567,1,0,0:0:0:0:
64,192,26704,1,0,0:0:0:0:
192,192,26704,1,0,0:0:0:0:
320,192,26840,1,0,0:0:0:0:
448,192,26840,1,0,0:0:0:0:
320,192,26976,1,0,0:0:0:0:
448,192,26976,1,0,0:0:0:0:
320,192,27113,1,0,0:0:0:0:
448,192,27113,1,0,0:0:0:0:
320,192,27249,1,0,0:0:0:0:
448,192,27249,1,0,0:0:0:0:
64,192,27385,1,0,0:0:0:0:
192,192,27385,1,0,0:0:0:0:
64,192,27522,1,0,0:0:0:0:
192,192,27522,1,0,0:0:0:0:
64,192,27658,1,0,0:0:0:0:
192,192,27658,1,0,0:0:0:0:
64,192,27795,1,0,0:0:0:0:
192,192,27795,1,0,0:0:0:0:
448,192,27931,1,0,0:0:0:0:
64,192,27931,1,0,0:0:0:0:
320,192,27931,1,0,0:0:0:0:
192,192,27931,1,0,0:0:0:0:
448,192,28067,1,0,0:0:0:0:
320,192,28204,1,0,0:0:0:0:
192,192,28204,1,0,0:0:0:0:
64,192,28204,1,0,0:0:0:0:
448,192,28340,1,0,0:0:0:0:
192,192,28340,1,0,0:0:0:0:
448,192,28476,1,0,0:0:0:0:
192,192,28476,1,0,0:0:0:0:
64,192,28476,1,0,0:0:0:0:
320,192,28476,1,0,0:0:0:0:
320,192,28613,1,0,0:0:0:0:
320,192,28749,1,0,0:0:0:0:
192,192,28749,1,0,0:0:0:0:
64,192,28749,1,0,0:0:0:0:
192,192,28885,1,0,0:0:0:0:
64,192,28885,1,0,0:0:0:0:
320,192,29022,1,0,0:0:0:0:
448,192,29022,1,0,0:0:0:0:
192,192,29022,1,0,0:0:0:0:
64,192,29022,1,0,0:0:0:0:
448,192,29158,1,0,0:0:0:0:
320,192,29295,1,0,0:0:0:0:
192,192,29295,1,0,0:0:0:0:
64,192,29295,1,0,0:0:0:0:
192,192,29431,1,0,0:0:0:0:
448,192,29431,1,0,0:0:0:0:
320,192,29567,1,0,0:0:0:0:
192,192,29567,1,0,0:0:0:0:
64,192,29567,1,0,0:0:0:0:
448,192,29567,1,0,0:0:0:0:
320,192,29704,1,0,0:0:0:0:
448,192,29840,1,0,0:0:0:0:
192,192,29840,1,0,0:0:0:0:
64,192,29840,1,0,0:0:0:0:
192,192,29976,1,0,0:0:0:0:
64,192,30113,1,0,0:0:0:0:
448,192,30113,1,0,0:0:0:0:
320,192,30113,1,0,0:0:0:0:
192,192,30113,1,0,0:0:0:0:
64,192,30249,1,0,0:0:0:0:
448,192,30385,1,0,0:0:0:0:
192,192,30385,1,0,0:0:0:0:
320,192,30385,1,0,0:0:0:0:
64,192,30522,1,0,0:0:0:0:
448,192,30522,1,0,0:0:0:0:
320,192,30658,1,0,0:0:0:0:
192,192,30658,1,0,0:0:0:0:
64,192,30658,1,0,0:0:0:0:
448,192,30658,1,0,0:0:0:0:
192,192,30795,1,0,0:0:0:0:
320,192,30931,1,0,0:0:0:0:
192,192,30931,1,0,0:0:0:0:
448,192,30931,1,0,0:0:0:0:
320,192,31067,1,0,0:0:0:0:
448,192,31067,1,0,0:0:0:0:
448,192,31204,1,0,0:0:0:0:
320,192,31204,1,0,0:0:0:0:
192,192,31204,1,0,0:0:0:0:
64,192,31204,1,0,0:0:0:0:
192,192,31340,1,0,0:0:0:0:
448,192,31476,1,0,0:0:0:0:
320,192,31476,1,0,0:0:0:0:
64,192,31476,1,0,0:0:0:0:
192,192,31613,1,0,0:0:0:0:
448,192,31613,1,0,0:0:0:0:
448,192,31749,1,0,0:0:0:0:
320,192,31749,1,0,0:0:0:0:
192,192,31749,1,0,0:0:0:0:
64,192,31749,1,0,0:0:0:0:
320,192,31885,1,0,0:0:0:0:
448,192,32022,1,0,0:0:0:0:
192,192,32022,1,0,0:0:0:0:
64,192,32022,1,0,0:0:0:0:
192,192,32158,1,0,0:0:0:0:
448,192,32295,1,0,0:0:0:0:
320,192,32295,1,0,0:0:0:0:
64,192,32295,1,0,0:0:0:0:
192,192,32295,1,0,0:0:0:0:
320,192,32431,1,0,0:0:0:0:
448,192,32567,1,0,0:0:0:0:
192,192,32567,1,0,0:0:0:0:
64,192,32567,1,0,0:0:0:0:
64,192,32704,1,0,0:0:0:0:
320,192,32704,1,0,0:0:0:0:
64,192,32840,1,0,0:0:0:0:
192,192,32840,1,0,0:0:0:0:
320,192,32840,1,0,0:0:0:0:
448,192,32840,1,0,0:0:0:0:
320,192,32976,1,0,0:0:0:0:
448,192,33113,1,0,0:0:0:0:
192,192,33113,1,0,0:0:0:0:
64,192,33113,1,0,0:0:0:0:
64,192,33249,1,0,0:0:0:0:
192,192,33249,1,0,0:0:0:0:
448,192,33385,1,0,0:0:0:0:
320,192,33385,1,0,0:0:0:0:
64,192,33385,1,0,0:0:0:0:
192,192,33385,1,0,0:0:0:0:
320,192,33522,1,0,0:0:0:0:
448,192,33658,1,0,0:0:0:0:
192,192,33658,1,0,0:0:0:0:
64,192,33658,1,0,0:0:0:0:
320,192,33795,1,0,0:0:0:0:
64,192,33795,1,0,0:0:0:0:
448,192,33931,1,0,0:0:0:0:
320,192,33931,1,0,0:0:0:0:
64,192,33931,1,0,0:0:0:0:
192,192,33931,1,0,0:0:0:0:
448,192,34067,1,0,0:0:0:0:
192,192,34067,1,0,0:0:0:0:
320,192,34204,1,0,0:0:0:0:
64,192,34204,1,0,0:0:0:0:
448,192,34204,1,0,0:0:0:0:
64,192,34340,1,0,0:0:0:0:
320,192,34340,1,0,0:0:0:0:
448,192,34476,1,0,0:0:0:0:
320,192,34476,1,0,0:0:0:0:
192,192,34476,1,0,0:0:0:0:
64,192,34476,1,0,0:0:0:0:
448,192,34613,1,0,0:0:0:0:
192,192,34613,1,0,0:0:0:0:
192,192,34749,1,0,0:0:0:0:
64,192,34749,1,0,0:0:0:0:
320,192,34749,1,0,0:0:0:0:
448,192,34885,1,0,0:0:0:0:
64,192,34885,1,0,0:0:0:0:
448,192,35022,1,0,0:0:0:0:
64,192,35022,1,0,0:0:0:0:
192,192,35022,1,0,0:0:0:0:
320,192,35022,1,0,0:0:0:0:
192,192,35158,1,0,0:0:0:0:
320,192,35158,1,0,0:0:0:0:
448,192,35295,1,0,0:0:0:0:
192,192,35295,1,0,0:0:0:0:
64,192,35295,1,0,0:0:0:0:
448,192,35431,1,0,0:0:0:0:
192,192,35567,1,0,0:0:0:0:
320,192,35567,1,0,0:0:0:0:
64,192,35704,1,0,0:0:0:0:
448,192,35704,1,0,0:0:0:0:
192,192,35840,1,0,0:0:0:0:
320,192,35840,1,0,0:0:0:0:
64,192,35976,1,0,0:0:0:0:
448,192,35976,1,0,0:0:0:0:
192,192,36113,128,0,36385:0:0:0:0:
320,192,36113,128,0,36385:0:0:0:0:
448,192,36385,128,0,36658:0:0:0:0:
64,192,36385,128,0,36658:0:0:0:0:
192,192,36658,1,0,0:0:0:0:
320,192,36658,1,0,0:0:0:0:
320,192,36795,1,0,0:0:0:0:
64,192,36795,1,0,0:0:0:0:
192,192,36931,1,0,0:0:0:0:
448,192,36931,1,0,0:0:0:0:
192,192,37067,1,0,0:0:0:0:
64,192,37067,1,0,0:0:0:0:
320,192,37067,1,0,0:0:0:0:
64,192,37204,1,0,0:0:0:0:
320,192,37204,1,0,0:0:0:0:
448,192,37204,1,0,0:0:0:0:
192,192,37204,1,0,0:0:0:0:
320,192,37340,1,0,0:0:0:0:
192,192,37476,1,0,0:0:0:0:
64,192,37476,1,0,0:0:0:0:
448,192,37476,1,0,0:0:0:0:
192,192,37613,1,0,0:0:0:0:
320,192,37613,1,0,0:0:0:0:
448,192,37613,1,0,0:0:0:0:
64,192,37749,1,0,0:0:0:0:
320,192,37749,1,0,0:0:0:0:
192,192,37749,1,0,0:0:0:0:
64,192,37885,1,0,0:0:0:0:
192,192,38022,1,0,0:0:0:0:
320,192,38022,1,0,0:0:0:0:
448,192,38022,1,0,0:0:0:0:
64,192,38158,1,0,0:0:0:0:
320,192,38158,1,0,0:0:0:0:
448,192,38158,1,0,0:0:0:0:
64,192,38295,1,0,0:0:0:0:
192,192,38295,1,0,0:0:0:0:
448,192,38295,1,0,0:0:0:0:
192,192,38431,1,0,0:0:0:0:
64,192,38567,1,0,0:0:0:0:
320,192,38567,1,0,0:0:0:0:
448,192,38567,1,0,0:0:0:0:
320,192,38704,1,0,0:0:0:0:
64,192,38840,1,0,0:0:0:0:
192,192,38840,1,0,0:0:0:0:
448,192,38840,1,0,0:0:0:0:
320,192,38976,1,0,0:0:0:0:
192,192,38976,1,0,0:0:0:0:
64,192,38976,1,0,0:0:0:0:
448,192,39113,1,0,0:0:0:0:
320,192,39113,1,0,0:0:0:0:
192,192,39113,1,0,0:0:0:0:
64,192,39249,1,0,0:0:0:0:
448,192,39249,1,0,0:0:0:0:
320,192,39249,1,0,0:0:0:0:
64,192,39385,1,0,0:0:0:0:
192,192,39385,1,0,0:0:0:0:
448,192,39385,1,0,0:0:0:0:
320,192,39522,1,0,0:0:0:0:
192,192,39522,1,0,0:0:0:0:
64,192,39522,1,0,0:0:0:0:
448,192,39658,1,0,0:0:0:0:
320,192,39658,1,0,0:0:0:0:
192,192,39658,1,0,0:0:0:0:
64,192,39795,1,0,0:0:0:0:
320,192,39795,1,0,0:0:0:0:
448,192,39795,1,0,0:0:0:0:
192,192,39931,1,0,0:0:0:0:
64,192,39931,1,0,0:0:0:0:
448,192,39931,1,0,0:0:0:0:
192,192,40067,1,0,0:0:0:0:
64,192,40204,1,0,0:0:0:0:
320,192,40204,1,0,0:0:0:0:
448,192,40204,1,0,0:0:0:0:
192,192,40340,1,0,0:0:0:0:
64,192,40340,1,0,0:0:0:0:
320,192,40340,1,0,0:0:0:0:
448,192,40476,1,0,0:0:0:0:
192,192,40476,1,0,0:0:0:0:
64,192,40476,1,0,0:0:0:0:
448,192,40613,1,0,0:0:0:0:
192,192,40749,1,0,0:0:0:0:
320,192,40749,1,0,0:0:0:0:
64,192,40749,1,0,0:0:0:0:
320,192,40885,1,0,0:0:0:0:
448,192,40885,1,0,0:0:0:0:
192,192,40885,1,0,0:0:0:0:
64,192,41022,1,0,0:0:0:0:
192,192,41022,1,0,0:0:0:0:
448,192,41022,1,0,0:0:0:0:
320,192,41158,1,0,0:0:0:0:
64,192,41158,1,0,0:0:0:0:
448,192,41158,1,0,0:0:0:0:
320,192,41295,1,0,0:0:0:0:
192,192,41295,1,0,0:0:0:0:
320,192,41431,1,0,0:0:0:0:
64,192,41431,1,0,0:0:0:0:
192,192,41431,1,0,0:0:0:0:
64,192,41567,1,0,0:0:0:0:
192,192,41567,1,0,0:0:0:0:
320,192,41567,1,0,0:0:0:0:
448,192,41567,1,0,0:0:0:0:
64,192,41704,1,0,0:0:0:0:
448,192,41704,1,0,0:0:0:0:
192,192,41704,1,0,0:0:0:0:
320,192,41840,1,0,0:0:0:0:
448,192,41840,1,0,0:0:0:0:
64,192,41976,1,0,0:0:0:0:
320,192,41976,1,0,0:0:0:0:
192,192,41976,1,0,0:0:0:0:
192,192,42113,1,0,0:0:0:0:
448,192,42113,1,0,0:0:0:0:
64,192,42113,1,0,0:0:0:0:
320,192,42249,1,0,0:0:0:0:
448,192,42249,1,0,0:0:0:0:
64,192,42249,1,0,0:0:0:0:
192,192,42385,1,0,0:0:0:0:
320,192,42385,1,0,0:0:0:0:
64,192,42522,1,0,0:0:0:0:
192,192,42522,1,0,0:0:0:0:
448,192,42522,1,0,0:0:0:0:
320,192,42658,1,0,0:0:0:0:
64,192,42658,1,0,0:0:0:0:
192,192,42658,1,0,0:0:0:0:
448,192,42658,1,0,0:0:0:0:
320,192,42795,1,0,0:0:0:0:
192,192,42931,1,0,0:0:0:0:
64,192,42931,1,0,0:0:0:0:
64,192,43067,1,0,0:0:0:0:
320,192,43067,1,0,0:0:0:0:
448,192,43067,1,0,0:0:0:0:
192,192,43204,1,0,0:0:0:0:
320,192,43204,1,0,0:0:0:0:
448,192,43204,1,0,0:0:0:0:
64,192,43340,1,0,0:0:0:0:
192,192,43340,1,0,0:0:0:0:
448,192,43340,1,0,0:0:0:0:
320,192,43476,1,0,0:0:0:0:
64,192,43476,1,0,0:0:0:0:
192,192,43476,1,0,0:0:0:0:
448,192,43613,1,0,0:0:0:0:
320,192,43613,1,0,0:0:0:0:
64,192,43613,1,0,0:0:0:0:
192,192,43749,1,0,0:0:0:0:
448,192,43749,1,0,0:0:0:0:
320,192,43749,1,0,0:0:0:0:
64,192,43885,1,0,0:0:0:0:
192,192,43885,1,0,0:0:0:0:
448,192,43885,1,0,0:0:0:0:
320,192,44022,1,0,0:0:0:0:
64,192,44022,1,0,0:0:0:0:
192,192,44022,1,0,0:0:0:0:
448,192,44158,1,0,0:0:0:0:
320,192,44158,1,0,0:0:0:0:
64,192,44158,1,0,0:0:0:0:
192,192,44295,1,0,0:0:0:0:
448,192,44295,1,0,0:0:0:0:
320,192,44295,1,0,0:0:0:0:
192,192,44431,1,0,0:0:0:0:
64,192,44567,1,0,0:0:0:0:
320,192,44567,1,0,0:0:0:0:
448,192,44567,1,0,0:0:0:0:
192,192,44704,1,0,0:0:0:0:
64,192,44704,1,0,0:0:0:0:
448,192,44704,1,0,0:0:0:0:
320,192,44840,1,0,0:0:0:0:
192,192,44840,1,0,0:0:0:0:
64,192,44840,1,0,0:0:0:0:
320,192,44976,1,0,0:0:0:0:
192,192,45113,1,0,0:0:0:0:
64,192,45113,1,0,0:0:0:0:
448,192,45113,1,0,0:0:0:0:
320,192,45249,1,0,0:0:0:0:
448,192,45249,1,0,0:0:0:0:
192,192,45249,1,0,0:0:0:0:
64,192,45385,1,0,0:0:0:0:
320,192,45385,1,0,0:0:0:0:
448,192,45385,1,0,0:0:0:0:
192,192,45385,1,0,0:0:0:0:
64,192,45522,1,0,0:0:0:0:
320,192,45658,1,0,0:0:0:0:
192,192,45658,1,0,0:0:0:0:
448,192,45658,1,0,0:0:0:0:
320,192,45795,1,0,0:0:0:0:
448,192,45795,1,0,0:0:0:0:
192,192,45931,1,0,0:0:0:0:
64,192,45931,1,0,0:0:0:0:
320,192,45931,1,0,0:0:0:0:
192,192,46067,1,0,0:0:0:0:
64,192,46204,1,0,0:0:0:0:
448,192,46204,1,0,0:0:0:0:
448,192,46340,1,0,0:0:0:0:
320,192,46340,1,0,0:0:0:0:
192,192,46340,1,0,0:0:0:0:
64,192,46476,1,0,0:0:0:0:
320,192,46476,1,0,0:0:0:0:
192,192,46476,1,0,0:0:0:0:
64,192,46613,1,0,0:0:0:0:
448,192,46749,1,0,0:0:0:0:
320,192,46749,1,0,0:0:0:0:
192,192,46749,1,0,0:0:0:0:
320,192,46885,1,0,0:0:0:0:
64,192,46885,1,0,0:0:0:0:
192,192,46885,1,0,0:0:0:0:
448,192,47022,1,0,0:0:0:0:
320,192,47022,1,0,0:0:0:0:
192,192,47022,1,0,0:0:0:0:
64,192,47022,1,0,0:0:0:0:
448,192,47158,1,0,0:0:0:0:
64,192,47158,1,0,0:0:0:0:
192,192,47158,1,0,0:0:0:0:
192,192,47295,1,0,0:0:0:0:
320,192,47295,1,0,0:0:0:0:
320,192,47431,1,0,0:0:0:0:
64,192,47431,1,0,0:0:0:0:
448,192,47431,1,0,0:0:0:0:
192,192,47567,1,0,0:0:0:0:
64,192,47567,1,0,0:0:0:0:
448,192,47567,1,0,0:0:0:0:
320,192,47704,1,0,0:0:0:0:
192,192,47704,1,0,0:0:0:0:
64,192,47704,1,0,0:0:0:0:
448,192,47840,1,0,0:0:0:0:
320,192,47840,1,0,0:0:0:0:
192,192,47840,1,0,0:0:0:0:
64,192,47976,1,0,0:0:0:0:
320,192,47976,1,0,0:0:0:0:
448,192,47976,1,0,0:0:0:0:
192,192,48113,1,0,0:0:0:0:
64,192,48113,1,0,0:0:0:0:
448,192,48113,1,0,0:0:0:0:
192,192,48249,1,0,0:0:0:0:
320,192,48385,1,0,0:0:0:0:
448,192,48385,1,0,0:0:0:0:
64,192,48522,1,0,0:0:0:0:
320,192,48522,1,0,0:0:0:0:
448,192,48522,1,0,0:0:0:0:
192,192,48658,1,0,0:0:0:0:
64,192,48658,1,0,0:0:0:0:
448,192,48658,1,0,0:0:0:0:
320,192,48795,1,0,0:0:0:0:
192,192,48795,1,0,0:0:0:0:
64,192,48795,1,0,0:0:0:0:
320,192,48931,1,0,0:0:0:0:
448,192,48931,1,0,0:0:0:0:
192,192,49067,1,0,0:0:0:0:
64,192,49067,1,0,0:0:0:0:
448,192,49067,1,0,0:0:0:0:
64,192,49204,1,0,0:0:0:0:
192,192,49204,1,0,0:0:0:0:
320,192,49204,1,0,0:0:0:0:
448,192,49204,1,0,0:0:0:0:
320,192,49340,1,0,0:0:0:0:
192,192,49340,1,0,0:0:0:0:
64,192,49340,1,0,0:0:0:0:
320,192,49476,1,0,0:0:0:0:
448,192,49476,1,0,0:0:0:0:
448,192,49613,1,0,0:0:0:0:
64,192,49749,1,0,0:0:0:0:
192,192,49749,1,0,0:0:0:0:
320,192,49749,1,0,0:0:0:0:
448,192,49885,1,0,0:0:0:0:
320,192,49885,1,0,0:0:0:0:
192,192,49885,1,0,0:0:0:0:
64,192,50022,1,0,0:0:0:0:
192,192,50022,1,0,0:0:0:0:
64,192,50158,1,0,0:0:0:0:
320,192,50158,1,0,0:0:0:0:
448,192,50158,1,0,0:0:0:0:
64,192,50295,1,0,0:0:0:0:
192,192,50295,1,0,0:0:0:0:
320,192,50295,1,0,0:0:0:0:
448,192,50295,1,0,0:0:0:0:
192,192,50431,1,0,0:0:0:0:
320,192,50567,1,0,0:0:0:0:
448,192,50567,1,0,0:0:0:0:
192,192,50704,1,0,0:0:0:0:
64,192,50704,1,0,0:0:0:0:
448,192,50704,1,0,0:0:0:0:
64,192,50840,1,0,0:0:0:0:
192,192,50840,1,0,0:0:0:0:
320,192,50840,1,0,0:0:0:0:
448,192,50840,1,0,0:0:0:0:
320,192,50976,1,0,0:0:0:0:
64,192,50976,1,0,0:0:0:0:
192,192,50976,1,0,0:0:0:0:
448,192,51113,1,0,0:0:0:0:
320,192,51113,1,0,0:0:0:0:
192,192,51113,1,0,0:0:0:0:
64,192,51249,1,0,0:0:0:0:
448,192,51249,1,0,0:0:0:0:
320,192,51249,1,0,0:0:0:0:
192,192,51385,1,0,0:0:0:0:
64,192,51385,1,0,0:0:0:0:
448,192,51385,1,0,0:0:0:0:
192,192,51522,1,0,0:0:0:0:
320,192,51658,1,0,0:0:0:0:
448,192,51658,1,0,0:0:0:0:
64,192,51658,1,0,0:0:0:0:
320,192,51795,1,0,0:0:0:0:
192,192,51931,1,0,0:0:0:0:
320,192,51931,1,0,0:0:0:0:
64,192,52067,1,0,0:0:0:0:
448,192,52204,1,0,0:0:0:0:
320,192,52204,1,0,0:0:0:0:
320,192,52340,1,0,0:0:0:0:
192,192,52340,1,0,0:0:0:0:
448,192,52340,1,0,0:0:0:0:
64,192,52476,1,0,0:0:0:0:
192,192,52476,1,0,0:0:0:0:
320,192,52476,1,0,0:0:0:0:
192,192,52613,1,0,0:0:0:0:
64,192,52749,1,0,0:0:0:0:
320,192,52749,1,0,0:0:0:0:
448,192,52749,1,0,0:0:0:0:
320,192,52885,1,0,0:0:0:0:
64,192,53022,1,0,0:0:0:0:
192,192,53022,1,0,0:0:0:0:
448,192,53022,1,0,0:0:0:0:
448,192,53158,1,0,0:0:0:0:
64,192,53295,1,0,0:0:0:0:
192,192,53295,1,0,0:0:0:0:
320,192,53295,1,0,0:0:0:0:
64,192,53431,1,0,0:0:0:0:
448,192,53567,128,0,53840:0:0:0:0:
64,192,53567,128,0,53840:0:0:0:0:
320,192,53840,128,0,54113:0:0:0:0:
192,192,53840,128,0,54113:0:0:0:0:
448,192,54113,1,0,0:0:0:0:
64,192,54113,1,0,0:0:0:0:
448,192,54249,1,0,0:0:0:0:
320,192,54385,1,0,0:0:0:0:
192,192,54385,1,0,0:0:0:0:
64,192,54385,1,0,0:0:0:0:
448,192,54522,1,0,0:0:0:0:
192,192,54522,1,0,0:0:0:0:
448,192,54658,1,0,0:0:0:0:
192,192,54658,1,0,0:0:0:0:
64,192,54658,1,0,0:0:0:0:
320,192,54658,1,0,0:0:0:0:
320,192,54795,1,0,0:0:0:0:
320,192,54931,1,0,0:0:0:0:
192,192,54931,1,0,0:0:0:0:
64,192,54931,1,0,0:0:0:0:
192,192,55067,1,0,0:0:0:0:
64,192,55067,1,0,0:0:0:0:
320,192,55204,1,0,0:0:0:0:
448,192,55204,1,0,0:0:0:0:
192,192,55204,1,0,0:0:0:0:
64,192,55204,1,0,0:0:0:0:
448,192,55340,1,0,0:0:0:0:
320,192,55476,1,0,0:0:0:0:
192,192,55476,1,0,0:0:0:0:
64,192,55476,1,0,0:0:0:0:
192,192,55613,1,0,0:0:0:0:
448,192,55613,1,0,0:0:0:0:
320,192,55749,1,0,0:0:0:0:
192,192,55749,1,0,0:0:0:0:
64,192,55749,1,0,0:0:0:0:
448,192,55749,1,0,0:0:0:0:
320,192,55885,1,0,0:0:0:0:
448,192,56022,1,0,0:0:0:0:
192,192,56022,1,0,0:0:0:0:
64,192,56022,1,0,0:0:0:0:
192,192,56158,1,0,0:0:0:0:
64,192,56295,1,0,0:0:0:0:
448,192,56295,1,0,0:0:0:0:
320,192,56295,1,0,0:0:0:0:
192,192,56295,1,0,0:0:0:0:
64,192,56431,1,0,0:0:0:0:
448,192,56567,1,0,0:0:0:0:
192,192,56567,1,0,0:0:0:0:
320,192,56567,1,0,0:0:0:0:
64,192,56704,1,0,0:0:0:0:
448,192,56704,1,0,0:0:0:0:
320,192,56840,1,0,0:0:0:0:
192,192,56840,1,0,0:0:0:0:
64,192,56840,1,0,0:0:0:0:
448,192,56840,1,0,0:0:0:0:
192,192,56976,1,0,0:0:0:0:
320,192,57113,1,0,0:0:0:0:
192,192,57113,1,0,0:0:0:0:
448,192,57113,1,0,0:0:0:0:
320,192,57249,1,0,0:0:0:0:
448,192,57249,1,0,0:0:0:0:
448,192,57385,1,0,0:0:0:0:
320,192,57385,1,0,0:0:0:0:
192,192,57385,1,0,0:0:0:0:
64,192,57385,1,0,0:0:0:0:
192,192,57522,1,0,0:0:0:0:
448,192,57658,1,0,0:0:0:0:
320,192,57658,1,0,0:0:0:0:
64,192,57658,1,0,0:0:0:0:
192,192,57795,1,0,0:0:0:0:
448,192,57795,1,0,0:0:0:0:
448,192,57931,1,0,0:0:0:0:
320,192,57931,1,0,0:0:0:0:
192,192,57931,1,0,0:0:0:0:
64,192,57931,1,0,0:0:0:0:
320,192,58067,1,0,0:0:0:0:
448,192,58204,1,0,0:0:0:0:
192,192,58204,1,0,0:0:0:0:
64,192,58204,1,0,0:0:0:0:
192,192,58340,1,0,0:0:0:0:
448,192,58476,1,0,0:0:0:0:
320,192,58476,1,0,0:0:0:0:
64,192,58476,1,0,0:0:0:0:
192,192,58476,1,0,0:0:0:0:
320,192,58613,1,0,0:0:0:0:
448,192,58749,1,0,0:0:0:0:
192,192,58749,1,0,0:0:0:0:
64,192,58749,1,0,0:0:0:0:
64,192,58885,1,0,0:0:0:0:
320,192,58885,1,0,0:0:0:0:
64,192,59022,1,0,0:0:0:0:
192,192,59022,1,0,0:0:0:0:
320,192,59022,1,0,0:0:0:0:
448,192,59022,1,0,0:0:0:0:
320,192,59158,1,0,0:0:0:0:
448,192,59295,1,0,0:0:0:0:
192,192,59295,1,0,0:0:0:0:
64,192,59295,1,0,0:0:0:0:
64,192,59431,1,0,0:0:0:0:
192,192,59431,1,0,0:0:0:0:
448,192,59567,1,0,0:0:0:0:
320,192,59567,1,0,0:0:0:0:
64,192,59567,1,0,0:0:0:0:
192,192,59567,1,0,0:0:0:0:
320,192,59704,1,0,0:0:0:0:
448,192,59840,1,0,0:0:0:0:
192,192,59840,1,0,0:0:0:0:
64,192,59840,1,0,0:0:0:0:
320,192,59976,1,0,0:0:0:0:
64,192,59976,1,0,0:0:0:0:
448,192,60113,1,0,0:0:0:0:
320,192,60113,1,0,0:0:0:0:
64,192,60113,1,0,0:0:0:0:
192,192,60113,1,0,0:0:0:0:
448,192,60249,1,0,0:0:0:0:
192,192,60249,1,0,0:0:0:0:
320,192,60385,1,0,0:0:0:0:
64,192,60385,1,0,0:0:0:0:
448,192,60385,1,0,0:0:0:0:
64,192,60522,1,0,0:0:0:0:
320,192,60522,1,0,0:0:0:0:
448,192,60658,1,0,0:0:0:0:
320,192,60658,1,0,0:0:0:0:
192,192,60658,1,0,0:0:0:0:
64,192,60658,1,0,0:0:0:0:
448,192,60795,1,0,0:0:0:0:
192,192,60795,1,0,0:0:0:0:
192,192,60931,1,0,0:0:0:0:
64,192,60931,1,0,0:0:0:0:
320,192,60931,1,0,0:0:0:0:
448,192,61067,1,0,0:0:0:0:
64,192,61067,1,0,0:0:0:0:
448,192,61204,1,0,0:0:0:0:
64,192,61204,1,0,0:0:0:0:
192,192,61204,1,0,0:0:0:0:
320,192,61204,1,0,0:0:0:0:
192,192,61340,1,0,0:0:0:0:
320,192,61340,1,0,0:0:0:0:
448,192,61476,1,0,0:0:0:0:
192,192,61476,1,0,0:0:0:0:
64,192,61476,1,0,0:0:0:0:
448,192,61613,1,0,0:0:0:0:
320,192,61613,1,0,0:0:0:0:
192,192,61749,1,0,0:0:0:0:
64,192,61749,1,0,0:0:0:0:
192,192,61885,1,0,0:0:0:0:
64,192,61885,1,0,0:0:0:0:
192,192,62022,1,0,0:0:0:0:
64,192,62022,1,0,0:0:0:0:
192,192,62158,1,0,0:0:0:0:
64,192,62158,1,0,0:0:0:0:
448,192,62295,1,0,0:0:0:0:
320,192,62295,1,0,0:0:0:0:
448,192,62431,1,0,0:0:0:0:
320,192,62431,1,0,0:0:0:0:
448,192,62567,1,0,0:0:0:0:
320,192,62567,1,0,0:0:0:0:
448,192,62704,1,0,0:0:0:0:
320,192,62704,1,0,0:0:0:0:
64,192,62840,1,0,0:0:0:0:
448,192,62840,1,0,0:0:0:0:
192,192,62840,1,0,0:0:0:0:
320,192,62840,1,0,0:0:0:0:
64,192,62976,1,0,0:0:0:0:
192,192,63113,1,0,0:0:0:0:
320,192,63113,1,0,0:0:0:0:
448,192,63113,1,0,0:0:0:0:
64,192,63249,1,0,0:0:0:0:
320,192,63249,1,0,0:0:0:0:
64,192,63385,1,0,0:0:0:0:
320,192,63385,1,0,0:0:0:0:
448,192,63385,1,0,0:0:0:0:
192,192,63385,1,0,0:0:0:0:
192,192,63522,1,0,0:0:0:0:
192,192,63658,1,0,0:0:0:0:
320,192,63658,1,0,0:0:0:0:
448,192,63658,1,0,0:0:0:0:
320,192,63795,1,0,0:0:0:0:
448,192,63795,1,0,0:0:0:0:
192,192,63931,1,0,0:0:0:0:
64,192,63931,1,0,0:0:0:0:
320,192,63931,1,0,0:0:0:0:
448,192,63931,1,0,0:0:0:0:
64,192,64067,1,0,0:0:0:0:
192,192,64204,1,0,0:0:0:0:
320,192,64204,1,0,0:0:0:0:
448,192,64204,1,0,0:0:0:0:
320,192,64340,1,0,0:0:0:0:
64,192,64340,1,0,0:0:0:0:
192,192,64476,1,0,0:0:0:0:
320,192,64476,1,0,0:0:0:0:
448,192,64476,1,0,0:0:0:0:
64,192,64476,1,0,0:0:0:0:
192,192,64613,1,0,0:0:0:0:
64,192,64749,1,0,0:0:0:0:
320,192,64749,1,0,0:0:0:0:
448,192,64749,1,0,0:0:0:0:
320,192,64885,1,0,0:0:0:0:
448,192,65022,1,0,0:0:0:0:
64,192,65022,1,0,0:0:0:0:
192,192,65022,1,0,0:0:0:0:
320,192,65022,1,0,0:0:0:0:
448,192,65158,1,0,0:0:0:0:
64,192,65295,1,0,0:0:0:0:
320,192,65295,1,0,0:0:0:0:
192,192,65295,1,0,0:0:0:0:
448,192,65431,1,0,0:0:0:0:
64,192,65431,1,0,0:0:0:0:
192,192,65567,1,0,0:0:0:0:
320,192,65567,1,0,0:0:0:0:
448,192,65567,1,0,0:0:0:0:
64,192,65567,1,0,0:0:0:0:
320,192,65704,1,0,0:0:0:0:
192,192,65840,1,0,0:0:0:0:
320,192,65840,1,0,0:0:0:0:
64,192,65840,1,0,0:0:0:0:
192,192,65976,1,0,0:0:0:0:
64,192,65976,1,0,0:0:0:0:
64,192,66113,1,0,0:0:0:0:
192,192,66113,1,0,0:0:0:0:
320,192,66113,1,0,0:0:0:0:
448,192,66113,1,0,0:0:0:0:
320,192,66249,1,0,0:0:0:0:
64,192,66385,1,0,0:0:0:0:
192,192,66385,1,0,0:0:0:0:
448,192,66385,1,0,0:0:0:0:
320,192,66522,1,0,0:0:0:0:
64,192,66522,1,0,0:0:0:0:
64,192,66658,1,0,0:0:0:0:
192,192,66658,1,0,0:0:0:0:
320,192,66658,1,0,0:0:0:0:
448,192,66658,1,0,0:0:0:0:
192,192,66795,1,0,0:0:0:0:
64,192,66931,1,0,0:0:0:0:
320,192,66931,1,0,0:0:0:0:
448,192,66931,1,0,0:0:0:0:
320,192,67067,1,0,0:0:0:0:
64,192,67204,1,0,0:0:0:0:
192,192,67204,1,0,0:0:0:0:
448,192,67204,1,0,0:0:0:0:
320,192,67204,1,0,0:0:0:0:
192,192,67340,1,0,0:0:0:0:
64,192,67476,1,0,0:0:0:0:
320,192,67476,1,0,0:0:0:0:
448,192,67476,1,0,0:0:0:0:
448,192,67613,1,0,0:0:0:0:
192,192,67613,1,0,0:0:0:0:
448,192,67749,1,0,0:0:0:0:
320,192,67749,1,0,0:0:0:0:
192,192,67749,1,0,0:0:0:0:
64,192,67749,1,0,0:0:0:0:
192,192,67885,1,0,0:0:0:0:
64,192,68022,1,0,0:0:0:0:
320,192,68022,1,0,0:0:0:0:
448,192,68022,1,0,0:0:0:0:
448,192,68158,1,0,0:0:0:0:
320,192,68158,1,0,0:0:0:0:
64,192,68295,1,0,0:0:0:0:
192,192,68295,1,0,0:0:0:0:
448,192,68295,1,0,0:0:0:0:
320,192,68295,1,0,0:0:0:0:
192,192,68431,1,0,0:0:0:0:
64,192,68567,1,0,0:0:0:0:
320,192,68567,1,0,0:0:0:0:
448,192,68567,1,0,0:0:0:0:
192,192,68704,1,0,0:0:0:0:
448,192,68704,1,0,0:0:0:0:
64,192,68840,1,0,0:0:0:0:
192,192,68840,1,0,0:0:0:0:
448,192,68840,1,0,0:0:0:0:
320,192,68840,1,0,0:0:0:0:
64,192,68976,1,0,0:0:0:0:
320,192,68976,1,0,0:0:0:0:
192,192,69113,1,0,0:0:0:0:
448,192,69113,1,0,0:0:0:0:
64,192,69113,1,0,0:0:0:0:
448,192,69249,1,0,0:0:0:0:
192,192,69249,1,0,0:0:0:0:
64,192,69385,1,0,0:0:0:0:
192,192,69385,1,0,0:0:0:0:
320,192,69385,1,0,0:0:0:0:
448,192,69385,1,0,0:0:0:0:
64,192,69522,1,0,0:0:0:0:
320,192,69522,1,0,0:0:0:0:
320,192,69658,1,0,0:0:0:0:
448,192,69658,1,0,0:0:0:0:
192,192,69658,1,0,0:0:0:0:
64,192,69795,1,0,0:0:0:0:
448,192,69795,1,0,0:0:0:0:
64,192,69931,1,0,0:0:0:0:
448,192,69931,1,0,0:0:0:0:
320,192,69931,1,0,0:0:0:0:
192,192,69931,1,0,0:0:0:0:
320,192,70067,1,0,0:0:0:0:
192,192,70067,1,0,0:0:0:0:
64,192,70204,1,0,0:0:0:0:
320,192,70204,1,0,0:0:0:0:
448,192,70204,1,0,0:0:0:0:
64,192,70340,1,0,0:0:0:0:
320,192,70476,1,0,0:0:0:0:
192,192,70476,1,0,0:0:0:0:
448,192,70613,1,0,0:0:0:0:
64,192,70613,1,0,0:0:0:0:
320,192,70749,1,0,0:0:0:0:
192,192,70749,1,0,0:0:0:0:
448,192,70885,1,0,0:0:0:0:
64,192,70885,1,0,0:0:0:0:
320,192,71022,128,0,71295:0:0:0:0:
192,192,71022,128,0,71295:0:0:0:0:
64,192,71295,128,0,71567:0:0:0:0:
448,192,71295,128,0,71567:0:0:0:0:
192,192,71567,1,0,0:0:0:0:
320,192,71567,1,0,0:0:0:0:
448,192,71613,1,0,0:0:0:0:
64,192,71658,1,0,0:0:0:0:
192,192,71704,1,0,0:0:0:0:
320,192,71749,1,0,0:0:0:0:
448,192,71795,1,0,0:0:0:0:
320,192,71840,1,0,0:0:0:0:
192,192,71885,1,0,0:0:0:0:
64,192,71931,1,0,0:0:0:0:
448,192,71976,1,0,0:0:0:0:
320,192,71976,1,0,0:0:0:0:
192,192,72022,1,0,0:0:0:0:
64,192,72067,1,0,0:0:0:0:
320,192,72113,1,0,0:0:0:0:
448,192,72158,1,0,0:0:0:0:
192,192,72204,1,0,0:0:0:0:
64,192,72249,1,0,0:0:0:0:
448,192,72295,1,0,0:0:0:0:
320,192,72340,1,0,0:0:0:0:
192,192,72385,1,0,0:0:0:0:
64,192,72385,1,0,0:0:0:0:
448,192,72431,1,0,0:0:0:0:
320,192,72476,1,0,0:0:0:0:
192,192,72522,1,0,0:0:0:0:
448,192,72567,1,0,0:0:0:0:
64,192,72613,1,0,0:0:0:0:
192,192,72658,1,0,0:0:0:0:
320,192,72658,1,0,0:0:0:0:
448,192,72704,1,0,0:0:0:0:
64,192,72749,1,0,0:0:0:0:
192,192,72795,1,0,0:0:0:0:
320,192,72840,1,0,0:0:0:0:
448,192,72885,1,0,0:0:0:0:
64,192,72931,1,0,0:0:0:0:
192,192,72976,1,0,0:0:0:0:
320,192,73022,1,0,0:0:0:0:
448,192,73067,1,0,0:0:0:0:
320,192,73113,1,0,0:0:0:0:
192,192,73158,1,0,0:0:0:0:
64,192,73204,1,0,0:0:0:0:
448,192,73204,1,0,0:0:0:0:
320,192,73249,1,0,0:0:0:0:
192,192,73295,1,0,0:0:0:0:
64,192,73340,1,0,0:0:0:0:
192,192,73385,1,0,0:0:0:0:
320,192,73431,1,0,0:0:0:0:
448,192,73476,1,0,0:0:0:0:
64,192,73522,1,0,0:0:0:0:
192,192,73567,1,0,0:0:0:0:
320,192,73613,1,0,0:0:0:0:
448,192,73658,1,0,0:0:0:0:
320,192,73704,1,0,0:0:0:0:
64,192,73749,1,0,0:0:0:0:
192,192,73749,1,0,0:0:0:0:
448,192,73795,1,0,0:0:0:0:
320,192,73840,1,0,0:0:0:0:
192,192,73885,1,0,0:0:0:0:
64,192,73931,1,0,0:0:0:0:
192,192,73976,1,0,0:0:0:0:
320,192,74022,1,0,0:0:0:0:
448,192,74067,1,0,0:0:0:0:
64,192,74113,1,0,0:0:0:0:
192,192,74158,1,0,0:0:0:0:
448,192,74158,1,0,0:0:0:0:
320,192,74204,1,0,0:0:0:0:
192,192,74249,1,0,0:0:0:0:
64,192,74295,1,0,0:0:0:0:
320,192,74340,1,0,0:0:0:0:
448,192,74385,1,0,0:0:0:0:
64,192,74431,1,0,0:0:0:0:
192,192,74476,1,0,0:0:0:0:
320,192,74522,1,0,0:0:0:0:
448,192,74567,1,0,0:0:0:0:
64,192,74567,1,0,0:0:0:0:
192,192,74613,1,0,0:0:0:0:
320,192,74658,1,0,0:0:0:0:
448,192,74704,1,0,0:0:0:0:
192,192,74749,1,0,0:0:0:0:
320,192,74795,1,0,0:0:0:0:
448,192,74840,1,0,0:0:0:0:
64,192,74840,1,0,0:0:0:0:
64,192,74976,1,0,0:0:0:0:
192,192,75113,1,0,0:0:0:0:
320,192,75113,1,0,0:0:0:0:
320,192,75249,1,0,0:0:0:0:
448,192,75249,1,0,0:0:0:0:
64,192,75385,1,0,0:0:0:0:
192,192,75385,1,0,0:0:0:0:
448,192,75385,1,0,0:0:0:0:
192,192,75522,1,0,0:0:0:0:
64,192,75658,1,0,0:0:0:0:
320,192,75658,1,0,0:0:0:0:
64,192,75795,1,0,0:0:0:0:
192,192,75931,1,0,0:0:0:0:
320,192,75931,1,0,0:0:0:0:
448,192,75976,1,0,0:0:0:0:
64,192,76022,1,0,0:0:0:0:
192,192,76067,1,0,0:0:0:0:
320,192,76113,1,0,0:0:0:0:
448,192,76158,1,0,0:0:0:0:
320,192,76204,1,0,0:0:0:0:
192,192,76249,1,0,0:0:0:0:
64,192,76295,1,0,0:0:0:0:
448,192,76340,1,0,0:0:0:0:
320,192,76340,1,0,0:0:0:0:
192,192,76385,1,0,0:0:0:0:
64,192,76431,1,0,0:0:0:0:
320,192,76476,1,0,0:0:0:0:
448,192,76522,1,0,0:0:0:0:
192,192,76567,1,0,0:0:0:0:
64,192,76613,1,0,0:0:0:0:
448,192,76658,1,0,0:0:0:0:
320,192,76704,1,0,0:0:0:0:
192,192,76749,1,0,0:0:0:0:
64,192,76749,1,0,0:0:0:0:
448,192,76795,1,0,0:0:0:0:
320,192,76840,1,0,0:0:0:0:
192,192,76885,1,0,0:0:0:0:
448,192,76931,1,0,0:0:0:0:
64,192,76976,1,0,0:0:0:0:
192,192,77022,1,0,0:0:0:0:
320,192,77022,1,0,0:0:0:0:
448,192,77067,1,0,0:0:0:0:
64,192,77113,1,0,0:0:0:0:
192,192,77158,1,0,0:0:0:0:
320,192,77204,1,0,0:0:0:0:
448,192,77249,1,0,0:0:0:0:
64,192,77295,1,0,0:0:0:0:
192,192,77340,1,0,0:0:0:0:
320,192,77385,1,0,0:0:0:0:
448,192,77431,1,0,0:0:0:0:
320,192,77476,1,0,0:0:0:0:
192,192,77522,1,0,0:0:0:0:
64,192,77567,1,0,0:0:0:0:
448,192,77567,1,0,0:0:0:0:
320,192,77613,1,0,0:0:0:0:
192,192,77658,1,0,0:0:0:0:
64,192,77704,1,0,0:0:0:0:
192,192,77749,1,0,0:0:0:0:
320,192,77795,1,0,0:0:0:0:
448,192,77840,1,0,0:0:0:0:
64,192,77885,1,0,0:0:0:0:
192,192,77931,1,0,0:0:0:0:
320,192,77976,1,0,0:0:0:0:
448,192,78022,1,0,0:0:0:0:
320,192,78067,1,0,0:0:0:0:
64,192,78113,1,0,0:0:0:0:
192,192,78113,1,0,0:0:0:0:
448,192,78158,1,0,0:0:0:0:
320,192,78204,1,0,0:0:0:0:
192,192,78249,1,0,0:0:0:0:
64,192,78295,1,0,0:0:0:0:
192,192,78340,1,0,0:0:0:0:
320,192,78385,1,0,0:0:0:0:
448,192,78431,1,0,0:0:0:0:
64,192,78476,1,0,0:0:0:0:
192,192,78522,1,0,0:0:0:0:
448,192,78522,1,0,0:0:0:0:
320,192,78567,1,0,0:0:0:0:
192,192,78613,1,0,0:0:0:0:
64,192,78658,1,0,0:0:0:0:
320,192,78704,1,0,0:0:0:0:
448,192,78749,1,0,0:0:0:0:
64,192,78795,1,0,0:0:0:0:
192,192,78840,1,0,0:0:0:0:
320,192,78885,1,0,0:0:0:0:
448,192,78931,1,0,0:0:0:0:
64,192,78931,1,0,0:0:0:0:
192,192,78976,1,0,0:0:0:0:
320,192,79022,1,0,0:0:0:0:
448,192,79067,1,0,0:0:0:0:
192,192,79113,1,0,0:0:0:0:
64,192,79158,1,0,0:0:0:0:
448,192,79204,1,0,0:0:0:0:
320,192,79204,1,0,0:0:0:0:
320,192,79340,1,0,0:0:0:0:
448,192,79476,1,0,0:0:0:0:
64,192,79476,1,0,0:0:0:0:
192,192,79522,1,0,0:0:0:0:
320,192,79567,1,0,0:0:0:0:
448,192,79613,1,0,0:0:0:0:
192,192,79658,1,0,0:0:0:0:
64,192,79704,1,0,0:0:0:0:
448,192,79749,1,0,0:0:0:0:
320,192,79795,1,0,0:0:0:0:
192,192,79840,1,0,0:0:0:0:
64,192,79885,1,0,0:0:0:0:
320,192,79931,1,0,0:0:0:0:
192,192,79976,1,0,0:0:0:0:
64,192,80022,1,0,0:0:0:0:
448,192,80022,1,0,0:0:0:0:
448,192,80158,1,0,0:0:0:0:
192,192,80295,1,0,0:0:0:0:
320,192,80295,1,0,0:0:0:0:
448,192,80340,1,0,0:0:0:0:
64,192,80385,1,0,0:0:0:0:
192,192,80431,1,0,0:0:0:0:
320,192,80476,1,0,0:0:0:0:
448,192,80522,1,0,0:0:0:0:
320,192,80567,1,0,0:0:0:0:
192,192,80613,1,0,0:0:0:0:
64,192,80658,1,0,0:0:0:0:
448,192,80704,1,0,0:0:0:0:
320,192,80704,1,0,0:0:0:0:
192,192,80749,1,0,0:0:0:0:
64,192,80795,1,0,0:0:0:0:
320,192,80840,1,0,0:0:0:0:
448,192,80885,1,0,0:0:0:0:
192,192,80931,1,0,0:0:0:0:
64,192,80976,1,0,0:0:0:0:
448,192,81022,1,0,0:0:0:0:
320,192,81067,1,0,0:0:0:0:
192,192,81113,1,0,0:0:0:0:
64,192,81113,1,0,0:0:0:0:
448,192,81158,1,0,0:0:0:0:
320,192,81204,1,0,0:0:0:0:
192,192,81249,1,0,0:0:0:0:
448,192,81295,1,0,0:0:0:0:
64,192,81340,1,0,0:0:0:0:
192,192,81385,1,0,0:0:0:0:
320,192,81385,1,0,0:0:0:0:
448,192,81431,1,0,0:0:0:0:
64,192,81476,1,0,0:0:0:0:
192,192,81522,1,0,0:0:0:0:
320,192,81567,1,0,0:0:0:0:
448,192,81613,1,0,0:0:0:0:
64,192,81658,1,0,0:0:0:0:
192,192,81704,1,0,0:0:0:0:
320,192,81749,1,0,0:0:0:0:
448,192,81795,1,0,0:0:0:0:
320,192,81840,1,0,0:0:0:0:
192,192,81885,1,0,0:0:0:0:
64,192,81931,1,0,0:0:0:0:
448,192,81931,1,0,0:0:0:0:
320,192,81976,1,0,0:0:0:0:
192,192,82022,1,0,0:0:0:0:
64,192,82067,1,0,0:0:0:0:
192,192,82113,1,0,0:0:0:0:
320,192,82158,1,0,0:0:0:0:
448,192,82204,1,0,0:0:0:0:
64,192,82249,1,0,0:0:0:0:
192,192,82295,1,0,0:0:0:0:
320,192,82340,1,0,0:0:0:0:
448,192,82385,1,0,0:0:0:0:
320,192,82431,1,0,0:0:0:0:
64,192,82476,1,0,0:0:0:0:
192,192,82476,1,0,0:0:0:0:
448,192,82522,1,0,0:0:0:0:
320,192,82567,1,0,0:0:0:0:
192,192,82613,1,0,0:0:0:0:
64,192,82658,1,0,0:0:0:0:
192,192,82704,1,0,0:0:0:0:
320,192,82749,1,0,0:0:0:0:
448,192,82795,1,0,0:0:0:0:
64,192,82840,1,0,0:0:0:0:
192,192,82885,1,0,0:0:0:0:
448,192,82885,1,0,0:0:0:0:
320,192,82931,1,0,0:0:0:0:
192,192,82976,1,0,0:0:0:0:
64,192,83022,1,0,0:0:0:0:
320,192,83067,1,0,0:0:0:0:
448,192,83113,1,0,0:0:0:0:
64,192,83158,1,0,0:0:0:0:
192,192,83204,1,0,0:0:0:0:
320,192,83249,1,0,0:0:0:0:
448,192,83295,1,0,0:0:0:0:
64,192,83295,1,0,0:0:0:0:
192,192,83340,1,0,0:0:0:0:
320,192,83385,1,0,0:0:0:0:
448,192,83431,1,0,0:0:0:0:
192,192,83476,1,0,0:0:0:0:
320,192,83522,1,0,0:0:0:0:
448,192,83567,1,0,0:0:0:0:
64,192,83567,1,0,0:0:0:0:
192,192,83567,1,0,0:0:0:0:
64,192,83704,1,0,0:0:0:0:
192,192,83840,1,0,0:0:0:0:
448,192,83840,1,0,0:0:0:0:
192,192,83976,1,0,0:0:0:0:
320,192,83976,1,0,0:0:0:0:
64,192,84113,1,0,0:0:0:0:
320,192,84113,1,0,0:0:0:0:
448,192,84113,1,0,0:0:0:0:
64,192,84249,1,0,0:0:0:0:
192,192,84385,1,0,0:0:0:0:
448,192,84385,1,0,0:0:0:0:
448,192,84522,1,0,0:0:0:0:
192,192,84658,1,0,0:0:0:0:
320,192,84658,1,0,0:0:0:0:
448,192,84704,1,0,0:0:0:0:
64,192,84749,1,0,0:0:0:0:
192,192,84795,1,0,0:0:0:0:
320,192,84840,1,0,0:0:0:0:
448,192,84885,1,0,0:0:0:0:
320,192,84931,1,0,0:0:0:0:
192,192,84976,1,0,0:0:0:0:
64,192,85022,1,0,0:0:0:0:
448,192,85067,1,0,0:0:0:0:
320,192,85067,1,0,0:0:0:0:
192,192,85113,1,0,0:0:0:0:
64,192,85158,1,0,0:0:0:0:
320,192,85204,1,0,0:0:0:0:
448,192,85249,1,0,0:0:0:0:
192,192,85295,1,0,0:0:0:0:
64,192,85340,1,0,0:0:0:0:
448,192,85385,1,0,0:0:0:0:
320,192,85431,1,0,0:0:0:0:
192,192,85476,1,0,0:0:0:0:
64,192,85476,1,0,0:0:0:0:
448,192,85522,1,0,0:0:0:0:
320,192,85567,1,0,0:0:0:0:
192,192,85613,1,0,0:0:0:0:
448,192,85658,1,0,0:0:0:0:
64,192,85704,1,0,0:0:0:0:
192,192,85749,1,0,0:0:0:0:
320,192,85749,1,0,0:0:0:0:
448,192,85795,1,0,0:0:0:0:
64,192,85840,1,0,0:0:0:0:
192,192,85885,1,0,0:0:0:0:
320,192,85931,1,0,0:0:0:0:
448,192,85976,1,0,0:0:0:0:
64,192,86022,1,0,0:0:0:0:
192,192,86067,1,0,0:0:0:0:
320,192,86113,1,0,0:0:0:0:
448,192,86158,1,0,0:0:0:0:
320,192,86204,1,0,0:0:0:0:
192,192,86249,1,0,0:0:0:0:
64,192,86295,1,0,0:0:0:0:
448,192,86295,1,0,0:0:0:0:
320,192,86340,1,0,0:0:0:0:
192,192,86385,1,0,0:0:0:0:
64,192,86431,1,0,0:0:0:0:
192,192,86476,1,0,0:0:0:0:
320,192,86522,1,0,0:0:0:0:
448,192,86567,1,0,0:0:0:0:
64,192,86613,1,0,0:0:0:0:
192,192,86658,1,0,0:0:0:0:
320,192,86704,1,0,0:0:0:0:
448,192,86749,1,0,0:0:0:0:
320,192,86795,1,0,0:0:0:0:
64,192,86840,1,0,0:0:0:0:
192,192,86840,1,0,0:0:0:0:
448,192,86885,1,0,0:0:0:0:
320,192,86931,1,0,0:0:0:0:
192,192,86976,1,0,0:0:0:0:
64,192,87022,1,0,0:0:0:0:
192,192,87067,1,0,0:0:0:0:
320,192,87113,1,0,0:0:0:0:
448,192,87158,1,0,0:0:0:0:
64,192,87204,1,0,0:0:0:0:
192,192,87249,1,0,0:0:0:0:
448,192,87249,1,0,0:0:0:0:
320,192,87295,1,0,0:0:0:0:
192,192,87340,1,0,0:0:0:0:
64,192,87385,1,0,0:0:0:0:
320,192,87431,1,0,0:0:0:0:
448,192,87476,1,0,0:0:0:0:
64,192,87522,1,0,0:0:0:0:
192,192,87567,1,0,0:0:0:0:
320,192,87613,1,0,0:0:0:0:
448,192,87658,1,0,0:0:0:0:
64,192,87658,1,0,0:0:0:0:
192,192,87704,1,0,0:0:0:0:
320,192,87749,1,0,0:0:0:0:
448,192,87795,1,0,0:0:0:0:
192,192,87840,1,0,0:0:0:0:
64,192,87885,1,0,0:0:0:0:
448,192,87931,1,0,0:0:0:0:
320,192,87931,1,0,0:0:0:0:
320,192,88067,1,0,0:0:0:0:
448,192,88204,1,0,0:0:0:0:
64,192,88204,1,0,0:0:0:0:
192,192,88249,1,0,0:0:0:0:
320,192,88295,1,0,0:0:0:0:
448,192,88340,1,0,0:0:0:0:
192,192,88385,1,0,0:0:0:0:
64,192,88431,1,0,0:0:0:0:
448,192,88476,1,0,0:0:0:0:
320,192,88522,1,0,0:0:0:0:
192,192,88567,1,0,0:0:0:0:
64,192,88613,1,0,0:0:0:0:
320,192,88658,1,0,0:0:0:0:
192,192,88704,1,0,0:0:0:0:
448,192,88749,128,0,89022:0:0:0:0:
64,192,88749,128,0,89022:0:0:0:0:
320,192,89022,1,0,0:0:0:0:
192,192,89022,1,0,0:0:0:0:
320,192,89158,1,0,0:0:0:0:
448,192,89295,1,0,0:0:0:0:
192,192,89295,1,0,0:0:0:0:
64,192,89295,1,0,0:0:0:0:
64,192,89431,1,0,0:0:0:0:
192,192,89431,1,0,0:0:0:0:
448,192,89567,1,0,0:0:0:0:
192,192,89567,1,0,0:0:0:0:
64,192,89567,1,0,0:0:0:0:
320,192,89567,1,0,0:0:0:0:
320,192,89704,1,0,0:0:0:0:
320,192,89840,1,0,0:0:0:0:
192,192,89840,1,0,0:0:0:0:
64,192,89840,1,0,0:0:0:0:
192,192,89976,1,0,0:0:0:0:
64,192,89976,1,0,0:0:0:0:
320,192,90113,1,0,0:0:0:0:
448,192,90113,1,0,0:0:0:0:
192,192,90113,1,0,0:0:0:0:
64,192,90113,1,0,0:0:0:0:
448,192,90249,1,0,0:0:0:0:
320,192,90385,1,0,0:0:0:0:
192,192,90385,1,0,0:0:0:0:
64,192,90385,1,0,0:0:0:0:
192,192,90522,1,0,0:0:0:0:
448,192,90522,1,0,0:0:0:0:
320,192,90658,1,0,0:0:0:0:
192,192,90658,1,0,0:0:0:0:
64,192,90658,1,0,0:0:0:0:
448,192,90658,1,0,0:0:0:0:
320,192,90795,1,0,0:0:0:0:
448,192,90931,1,0,0:0:0:0:
192,192,90931,1,0,0:0:0:0:
64,192,90931,1,0,0:0:0:0:
192,192,91067,1,0,0:0:0:0:
64,192,91204,1,0,0:0:0:0:
448,192,91204,1,0,0:0:0:0:
320,192,91204,1,0,0:0:0:0:
192,192,91204,1,0,0:0:0:0:
64,192,91340,1,0,0:0:0:0:
448,192,91476,1,0,0:0:0:0:
192,192,91476,1,0,0:0:0:0:
320,192,91476,1,0,0:0:0:0:
64,192,91613,1,0,0:0:0:0:
448,192,91613,1,0,0:0:0:0:
320,192,91749,1,0,0:0:0:0:
192,192,91749,1,0,0:0:0:0:
64,192,91749,1,0,0:0:0:0:
448,192,91749,1,0,0:0:0:0:
192,192,91885,1,0,0:0:0:0:
320,192,92022,1,0,0:0:0:0:
192,192,92022,1,0,0:0:0:0:
448,192,92022,1,0,0:0:0:0:
320,192,92158,1,0,0:0:0:0:
448,192,92158,1,0,0:0:0:0:
448,192,92295,1,0,0:0:0:0:
320,192,92295,1,0,0:0:0:0:
192,192,92295,1,0,0:0:0:0:
64,192,92295,1,0,0:0:0:0:
192,192,92431,1,0,0:0:0:0:
448,192,92567,1,0,0:0:0:0:
320,192,92567,1,0,0:0:0:0:
64,192,92567,1,0,0:0:0:0:
192,192,92704,1,0,0:0:0:0:
448,192,92704,1,0,0:0:0:0:
448,192,92840,1,0,0:0:0:0:
320,192,92840,1,0,0:0:0:0:
192,192,92840,1,0,0:0:0:0:
64,192,92840,1,0,0:0:0:0:
320,192,92976,1,0,0:0:0:0:
448,192,93113,1,0,0:0:0:0:
192,192,93113,1,0,0:0:0:0:
64,192,93113,1,0,0:0:0:0:
192,192,93249,1,0,0:0:0:0:
448,192,93385,1,0,0:0:0:0:
320,192,93385,1,0,0:0:0:0:
64,192,93385,1,0,0:0:0:0:
192,192,93385,128,0,93419:0:0:0:0:
320,192,93522,128,0,93555:0:0:0:0:
192,192,93658,1,0,0:0:0:0:
64,192,93658,1,0,0:0:0:0:
448,192,93658,128,0,93692:0:0:0:0:
64,192,93795,1,0,0:0:0:0:
320,192,93795,128,0,93828:0:0:0:0:
192,192,93931,1,0,0:0:0:0:
320,192,93931,1,0,0:0:0:0:
448,192,93931,1,0,0:0:0:0:
64,192,93931,128,0,93965:0:0:0:0:
320,192,94067,128,0,94101:0:0:0:0:
448,192,94204,1,0,0:0:0:0:
64,192,94204,1,0,0:0:0:0:
192,192,94204,128,0,94237:0:0:0:0:
192,192,94340,1,0,0:0:0:0:
64,192,94340,128,0,94374:0:0:0:0:
320,192,94476,1,0,0:0:0:0:
64,192,94476,1,0,0:0:0:0:
192,192,94476,1,0,0:0:0:0:
448,192,94476,128,0,94510:0:0:0:0:
320,192,94613,128,0,94646:0:0:0:0:
448,192,94749,1,0,0:0:0:0:
64,192,94749,1,0,0:0:0:0:
192,192,94749,128,0,94783:0:0:0:0:
320,192,94885,1,0,0:0:0:0:
64,192,94885,128,0,94919:0:0:0:0:
320,192,95022,1,0,0:0:0:0:
64,192,95022,1,0,0:0:0:0:
192,192,95022,1,0,0:0:0:0:
448,192,95022,128,0,95055:0:0:0:0:
448,192,95158,1,0,0:0:0:0:
192,192,95158,128,0,95192:0:0:0:0:
64,192,95295,1,0,0:0:0:0:
448,192,95295,1,0,0:0:0:0:
320,192,95295,128,0,95328:0:0:0:0:
320,192,95431,1,0,0:0:0:0:
64,192,95431,128,0,95465:0:0:0:0:
448,192,95567,1,0,0:0:0:0:
320,192,95567,1,0,0:0:0:0:
64,192,95567,1,0,0:0:0:0:
192,192,95567,128,0,95601:0:0:0:0:
192,192,95704,1,0,0:0:0:0:
448,192,95704,128,0,95737:0:0:0:0:
192,192,95840,1,0,0:0:0:0:
64,192,95840,1,0,0:0:0:0:
320,192,95840,128,0,95874:0:0:0:0:
448,192,95976,1,0,0:0:0:0:
64,192,95976,128,0,96010:0:0:0:0:
64,192,96113,1,0,0:0:0:0:
192,192,96113,1,0,0:0:0:0:
320,192,96113,1,0,0:0:0:0:
448,192,96113,128,0,96146:0:0:0:0:
192,192,96249,1,0,0:0:0:0:
320,192,96249,128,0,96283:0:0:0:0:
448,192,96385,1,0,0:0:0:0:
64,192,96385,1,0,0:0:0:0:
192,192,96385,128,0,96419:0:0:0:0:
448,192,96522,128,0,96555:0:0:0:0:
192,192,96658,1,0,0:0:0:0:
320,192,96658,1,0,0:0:0:0:
448,192,96658,1,0,0:0:0:0:
64,192,96658,128,0,96692:0:0:0:0:
192,192,96795,128,0,96828:0:0:0:0:
448,192,96931,128,0,96965:0:0:0:0:
320,192,97067,128,0,97101:0:0:0:0:
448,192,97204,1,0,0:0:0:0:
64,192,97204,128,0,97237:0:0:0:0:
64,192,97340,128,0,97374:0:0:0:0:
320,192,97476,128,0,97510:0:0:0:0:
320,192,97613,128,0,97646:0:0:0:0:
64,192,97749,1,0,0:0:0:0:
448,192,97749,1,0,0:0:0:0:
192,192,97749,1,0,0:0:0:0:
320,192,97749,1,0,0:0:0:0:
64,192,97885,1,0,0:0:0:0:
192,192,97885,1,0,0:0:0:0:
192,192,98022,1,0,0:0:0:0:
320,192,98022,1,0,0:0:0:0:
448,192,98022,1,0,0:0:0:0:
64,192,98158,1,0,0:0:0:0:
320,192,98158,1,0,0:0:0:0:
448,192,98158,1,0,0:0:0:0:
64,192,98295,1,0,0:0:0:0:
448,192,98295,1,0,0:0:0:0:
192,192,98295,1,0,0:0:0:0:
192,192,98431,1,0,0:0:0:0:
64,192,98431,1,0,0:0:0:0:
320,192,98431,1,0,0:0:0:0:
192,192,98567,1,0,0:0:0:0:
320,192,98567,1,0,0:0:0:0:
448,192,98567,1,0,0:0:0:0:
320,192,98704,1,0,0:0:0:0:
448,192,98704,1,0,0:0:0:0:
64,192,98704,1,0,0:0:0:0:
192,192,98840,1,0,0:0:0:0:
64,192,98840,1,0,0:0:0:0:
448,192,98840,1,0,0:0:0:0:
64,192,98976,1,0,0:0:0:0:
192,192,99113,1,0,0:0:0:0:
320,192,99113,1,0,0:0:0:0:
448,192,99113,1,0,0:0:0:0:
320,192,99249,1,0,0:0:0:0:
64,192,99249,1,0,0:0:0:0:
448,192,99249,1,0,0:0:0:0:
192,192,99385,1,0,0:0:0:0:
448,192,99385,1,0,0:0:0:0:
64,192,99385,1,0,0:0:0:0:
192,192,99522,1,0,0:0:0:0:
64,192,99658,1,0,0:0:0:0:
320,192,99658,1,0,0:0:0:0:
448,192,99658,1,0,0:0:0:0:
448,192,99795,1,0,0:0:0:0:
192,192,99795,1,0,0:0:0:0:
64,192,99795,1,0,0:0:0:0:
64,192,99931,1,0,0:0:0:0:
192,192,99931,1,0,0:0:0:0:
320,192,99931,1,0,0:0:0:0:
448,192,100067,1,0,0:0:0:0:
320,192,100067,1,0,0:0:0:0:
192,192,100067,1,0,0:0:0:0:
448,192,100204,1,0,0:0:0:0:
64,192,100204,1,0,0:0:0:0:
320,192,100204,1,0,0:0:0:0:
448,192,100340,1,0,0:0:0:0:
64,192,100340,1,0,0:0:0:0:
192,192,100340,1,0,0:0:0:0:
192,192,100476,1,0,0:0:0:0:
320,192,100476,1,0,0:0:0:0:
64,192,100476,1,0,0:0:0:0:
320,192,100613,1,0,0:0:0:0:
448,192,100613,1,0,0:0:0:0:
192,192,100613,1,0,0:0:0:0:
192,192,100749,1,0,0:0:0:0:
320,192,100749,1,0,0:0:0:0:
64,192,100749,1,0,0:0:0:0:
192,192,100885,1,0,0:0:0:0:
64,192,100885,1,0,0:0:0:0:
448,192,100885,1,0,0:0:0:0:
64,192,101022,1,0,0:0:0:0:
320,192,101022,1,0,0:0:0:0:
448,192,101022,1,0,0:0:0:0:
320,192,101158,1,0,0:0:0:0:
192,192,101158,1,0,0:0:0:0:
448,192,101158,1,0,0:0:0:0:
64,192,101295,1,0,0:0:0:0:
320,192,101295,1,0,0:0:0:0:
448,192,101295,1,0,0:0:0:0:
192,192,101431,1,0,0:0:0:0:
64,192,101431,1,0,0:0:0:0:
448,192,101431,1,0,0:0:0:0:
64,192,101567,1,0,0:0:0:0:
192,192,101567,1,0,0:0:0:0:
320,192,101567,1,0,0:0:0:0:
192,192,101704,1,0,0:0:0:0:
64,192,101840,1,0,0:0:0:0:
320,192,101840,1,0,0:0:0:0:
448,192,101840,1,0,0:0:0:0:
448,192,101976,1,0,0:0:0:0:
192,192,101976,1,0,0:0:0:0:
64,192,101976,1,0,0:0:0:0:
64,192,102113,1,0,0:0:0:0:
192,192,102113,1,0,0:0:0:0:
320,192,102113,1,0,0:0:0:0:
192,192,102249,1,0,0:0:0:0:
64,192,102249,1,0,0:0:0:0:
448,192,102249,1,0,0:0:0:0:
64,192,102385,1,0,0:0:0:0:
320,192,102385,1,0,0:0:0:0:
448,192,102385,1,0,0:0:0:0:
448,192,102522,1,0,0:0:0:0:
192,192,102522,1,0,0:0:0:0:
320,192,102522,1,0,0:0:0:0:
448,192,102658,1,0,0:0:0:0:
320,192,102658,1,0,0:0:0:0:
64,192,102658,1,0,0:0:0:0:
64,192,102795,1,0,0:0:0:0:
192,192,102931,1,0,0:0:0:0:
320,192,102931,1,0,0:0:0:0:
448,192,102931,1,0,0:0:0:0:
448,192,103067,1,0,0:0:0:0:
320,192,103067,1,0,0:0:0:0:
64,192,103067,1,0,0:0:0:0:
192,192,103204,1,0,0:0:0:0:
448,192,103204,1,0,0:0:0:0:
320,192,103204,1,0,0:0:0:0:
192,192,103340,1,0,0:0:0:0:
64,192,103476,1,0,0:0:0:0:
320,192,103476,1,0,0:0:0:0:
448,192,103476,1,0,0:0:0:0:
192,192,103613,1,0,0:0:0:0:
448,192,103613,1,0,0:0:0:0:
320,192,103613,1,0,0:0:0:0:
64,192,103749,1,0,0:0:0:0:
192,192,103749,1,0,0:0:0:0:
448,192,103749,1,0,0:0:0:0:
64,192,103885,1,0,0:0:0:0:
320,192,103885,1,0,0:0:0:0:
192,192,103885,1,0,0:0:0:0:
192,192,104022,1,0,0:0:0:0:
448,192,104022,1,0,0:0:0:0:
64,192,104022,1,0,0:0:0:0:
448,192,104158,1,0,0:0:0:0:
192,192,104158,1,0,0:0:0:0:
320,192,104158,1,0,0:0:0:0:
64,192,104295,1,0,0:0:0:0:
320,192,104295,1,0,0:0:0:0:
448,192,104295,1,0,0:0:0:0:
64,192,104431,1,0,0:0:0:0:
320,192,104431,1,0,0:0:0:0:
320,192,104567,1,0,0:0:0:0:
448,192,104567,1,0,0:0:0:0:
192,192,104567,1,0,0:0:0:0:
64,192,104704,1,0,0:0:0:0:
448,192,104704,1,0,0:0:0:0:
192,192,104704,1,0,0:0:0:0:
448,192,104840,1,0,0:0:0:0:
320,192,104840,1,0,0:0:0:0:
192,192,104840,1,0,0:0:0:0:
320,192,104976,1,0,0:0:0:0:
192,192,104976,1,0,0:0:0:0:
64,192,104976,1,0,0:0:0:0:
64,192,105113,1,0,0:0:0:0:
320,192,105113,1,0,0:0:0:0:
448,192,105113,1,0,0:0:0:0:
64,192,105249,1,0,0:0:0:0:
192,192,105249,1,0,0:0:0:0:
320,192,105385,1,0,0:0:0:0:
448,192,105385,1,0,0:0:0:0:
192,192,105385,1,0,0:0:0:0:
320,192,105522,1,0,0:0:0:0:
448,192,105522,1,0,0:0:0:0:
64,192,105522,1,0,0:0:0:0:
192,192,105658,1,0,0:0:0:0:
448,192,105658,1,0,0:0:0:0:
64,192,105658,1,0,0:0:0:0:
320,192,105795,1,0,0:0:0:0:
192,192,105795,1,0,0:0:0:0:
64,192,105795,1,0,0:0:0:0:
192,192,105931,1,0,0:0:0:0:
320,192,105931,1,0,0:0:0:0:
448,192,105931,1,0,0:0:0:0:
64,192,106067,1,0,0:0:0:0:
448,192,106067,1,0,0:0:0:0:
64,192,106204,1,0,0:0:0:0:
192,192,106204,1,0,0:0:0:0:
320,192,106204,1,0,0:0:0:0:
192,192,106340,1,0,0:0:0:0:
448,192,106340,1,0,0:0:0:0:
448,192,106476,1,0,0:0:0:0:
64,192,106476,1,0,0:0:0:0:
192,192,106476,1,0,0:0:0:0:
448,192,106613,1,0,0:0:0:0:
320,192,106613,1,0,0:0:0:0:
64,192,106613,1,0,0:0:0:0:
320,192,106749,1,0,0:0:0:0:
192,192,106749,1,0,0:0:0:0:
448,192,106749,1,0,0:0:0:0:
448,192,106885,1,0,0:0:0:0:
192,192,106885,1,0,0:0:0:0:
64,192,106885,1,0,0:0:0:0:
192,192,107022,1,0,0:0:0:0:
64,192,107022,1,0,0:0:0:0:
320,192,107022,1,0,0:0:0:0:
320,192,107158,1,0,0:0:0:0:
448,192,107158,1,0,0:0:0:0:
320,192,107295,1,0,0:0:0:0:
192,192,107295,1,0,0:0:0:0:
64,192,107295,1,0,0:0:0:0:
192,192,107431,1,0,0:0:0:0:
64,192,107431,1,0,0:0:0:0:
448,192,107431,1,0,0:0:0:0:
320,192,107567,1,0,0:0:0:0:
448,192,107567,1,0,0:0:0:0:
64,192,107567,1,0,0:0:0:0:
448,192,107704,1,0,0:0:0:0:
192,192,107704,1,0,0:0:0:0:
320,192,107704,1,0,0:0:0:0:
320,192,107840,1,0,0:0:0:0:
192,192,107840,1,0,0:0:0:0:
64,192,107840,1,0,0:0:0:0:
192,192,107976,1,0,0:0:0:0:
448,192,107976,1,0,0:0:0:0:
320,192,107976,1,0,0:0:0:0:
320,192,108113,1,0,0:0:0:0:
64,192,108113,1,0,0:0:0:0:
448,192,108113,1,0,0:0:0:0:
320,192,108249,1,0,0:0:0:0:
192,192,108249,1,0,0:0:0:0:
448,192,108385,1,0,0:0:0:0:
192,192,108385,1,0,0:0:0:0:
64,192,108385,1,0,0:0:0:0:
192,192,108522,1,0,0:0:0:0:
320,192,108522,1,0,0:0:0:0:
64,192,108658,1,0,0:0:0:0:
448,192,108658,1,0,0:0:0:0:
320,192,108658,1,0,0:0:0:0:
64,192,108795,1,0,0:0:0:0:
448,192,108931,1,0,0:0:0:0:
192,192,108931,1,0,0:0:0:0:
320,192,108931,1,0,0:0:0:0:
64,192,109067,1,0,0:0:0:0:
448,192,109067,1,0,0:0:0:0:
320,192,109067,1,0,0:0:0:0:
192,192,109204,1,0,0:0:0:0:
64,192,109204,1,0,0:0:0:0:
448,192,109204,1,0,0:0:0:0:
192,192,109340,1,0,0:0:0:0:
320,192,109340,1,0,0:0:0:0:
64,192,109340,1,0,0:0:0:0:
320,192,109476,1,0,0:0:0:0:
192,192,109476,1,0,0:0:0:0:
448,192,109476,1,0,0:0:0:0:
64,192,109613,1,0,0:0:0:0:
448,192,109613,1,0,0:0:0:0:
320,192,109749,1,0,0:0:0:0:
192,192,109749,1,0,0:0:0:0:
64,192,109749,1,0,0:0:0:0:
192,192,109885,1,0,0:0:0:0:
64,192,109885,1,0,0:0:0:0:
448,192,109885,1,0,0:0:0:0:
448,192,110022,1,0,0:0:0:0:
320,192,110022,1,0,0:0:0:0:
64,192,110022,1,0,0:0:0:0:
192,192,110158,1,0,0:0:0:0:
448,192,110158,1,0,0:0:0:0:
320,192,110158,1,0,0:0:0:0:
320,192,110295,1,0,0:0:0:0:
192,192,110295,1,0,0:0:0:0:
64,192,110295,1,0,0:0:0:0:
320,192,110431,1,0,0:0:0:0:
448,192,110567,1,0,0:0:0:0:
192,192,110567,1,0,0:0:0:0:
64,192,110567,1,0,0:0:0:0:
192,192,110704,1,0,0:0:0:0:
320,192,110704,1,0,0:0:0:0:
448,192,110840,1,0,0:0:0:0:
320,192,110840,1,0,0:0:0:0:
64,192,110840,1,0,0:0:0:0:
320,192,110976,1,0,0:0:0:0:
448,192,111113,1,0,0:0:0:0:
192,192,111113,1,0,0:0:0:0:
64,192,111113,1,0,0:0:0:0:
64,192,111249,1,0,0:0:0:0:
320,192,111249,1,0,0:0:0:0:
448,192,111249,1,0,0:0:0:0:
192,192,111385,1,0,0:0:0:0:
320,192,111385,1,0,0:0:0:0:
448,192,111385,1,0,0:0:0:0:
320,192,111522,1,0,0:0:0:0:
448,192,111658,1,0,0:0:0:0:
192,192,111658,1,0,0:0:0:0:
64,192,111658,1,0,0:0:0:0:
64,192,111795,1,0,0:0:0:0:
192,192,111795,1,0,0:0:0:0:
320,192,111795,1,0,0:0:0:0:
448,192,111931,1,0,0:0:0:0:
320,192,111931,1,0,0:0:0:0:
192,192,111931,1,0,0:0:0:0:
320,192,112067,1,0,0:0:0:0:
448,192,112204,1,0,0:0:0:0:
192,192,112204,1,0,0:0:0:0:
64,192,112204,1,0,0:0:0:0:
320,192,112340,1,0,0:0:0:0:
64,192,112340,1,0,0:0:0:0:
448,192,112476,1,0,0:0:0:0:
320,192,112476,1,0,0:0:0:0:
192,192,112476,1,0,0:0:0:0:
448,192,112613,1,0,0:0:0:0:
192,192,112613,1,0,0:0:0:0:
320,192,112749,1,0,0:0:0:0:
64,192,112749,1,0,0:0:0:0:
448,192,112749,1,0,0:0:0:0:
64,192,112885,1,0,0:0:0:0:
320,192,112885,1,0,0:0:0:0:
448,192,113022,1,0,0:0:0:0:
192,192,113022,1,0,0:0:0:0:
64,192,113022,1,0,0:0:0:0:
448,192,113158,1,0,0:0:0:0:
320,192,113158,1,0,0:0:0:0:
64,192,113158,1,0,0:0:0:0:
192,192,113295,1,0,0:0:0:0:
448,192,113295,1,0,0:0:0:0:
320,192,113295,1,0,0:0:0:0:
448,192,113431,1,0,0:0:0:0:
64,192,113431,1,0,0:0:0:0:
320,192,113431,1,0,0:0:0:0:
448,192,113567,1,0,0:0:0:0:
64,192,113567,1,0,0:0:0:0:
192,192,113567,1,0,0:0:0:0:
192,192,113704,1,0,0:0:0:0:
448,192,113840,1,0,0:0:0:0:
320,192,113840,1,0,0:0:0:0:
64,192,113840,1,0,0:0:0:0:
320,192,113976,1,0,0:0:0:0:
192,192,114113,1,0,0:0:0:0:
448,192,114113,1,0,0:0:0:0:
64,192,114113,1,0,0:0:0:0:
448,192,114249,1,0,0:0:0:0:
192,192,114385,1,0,0:0:0:0:
320,192,114385,1,0,0:0:0:0:
64,192,114385,1,0,0:0:0:0:
64,192,114522,1,0,0:0:0:0:
320,192,114522,1,0,0:0:0:0:
448,192,114658,128,0,114931:0:0:0:0:
64,192,114658,128,0,114931:0:0:0:0:
320,192,114931,128,0,115204:0:0:0:0:
192,192,114931,128,0,115204:0:0:0:0:
448,192,115204,1,0,0:0:0:0:
64,192,115204,1,0,0:0:0:0:
448,192,115340,1,0,0:0:0:0:
320,192,115476,1,0,0:0:0:0:
192,192,115476,1,0,0:0:0:0:
64,192,115476,1,0,0:0:0:0:
448,192,115613,1,0,0:0:0:0:
192,192,115613,1,0,0:0:0:0:
448,192,115749,1,0,0:0:0:0:
192,192,115749,1,0,0:0:0:0:
64,192,115749,1,0,0:0:0:0:
320,192,115749,1,0,0:0:0:0:
320,192,115885,1,0,0:0:0:0:
320,192,116022,1,0,0:0:0:0:
192,192,116022,1,0,0:0:0:0:
64,192,116022,1,0,0:0:0:0:
192,192,116158,1,0,0:0:0:0:
64,192,116158,1,0,0:0:0:0:
320,192,116295,1,0,0:0:0:0:
448,192,116295,1,0,0:0:0:0:
192,192,116295,1,0,0:0:0:0:
64,192,116295,1,0,0:0:0:0:
448,192,116431,1,0,0:0:0:0:
320,192,116567,1,0,0:0:0:0:
192,192,116567,1,0,0:0:0:0:
64,192,116567,1,0,0:0:0:0:
192,192,116704,1,0,0:0:0:0:
448,192,116704,1,0,0:0:0:0:
320,192,116840,1,0,0:0:0:0:
192,192,116840,1,0,0:0:0:0:
64,192,116840,1,0,0:0:0:0:
448,192,116840,1,0,0:0:0:0:
320,192,116976,1,0,0:0:0:0:
448,192,117113,1,0,0:0:0:0:
192,192,117113,1,0,0:0:0:0:
64,192,117113,1,0,0:0:0:0:
192,192,117249,1,0,0:0:0:0:
64,192,117385,1,0,0:0:0:0:
448,192,117385,1,0,0:0:0:0:
320,192,117385,1,0,0:0:0:0:
192,192,117385,1,0,0:0:0:0:
64,192,117522,1,0,0:0:0:0:
448,192,117658,1,0,0:0:0:0:
192,192,117658,1,0,0:0:0:0:
320,192,117658,1,0,0:0:0:0:
64,192,117795,1,0,0:0:0:0:
448,192,117795,1,0,0:0:0:0:
320,192,117931,1,0,0:0:0:0:
192,192,117931,1,0,0:0:0:0:
64,192,117931,1,0,0:0:0:0:
448,192,117931,1,0,0:0:0:0:
192,192,118067,1,0,0:0:0:0:
320,192,118204,1,0,0:0:0:0:
192,192,118204,1,0,0:0:0:0:
448,192,118204,1,0,0:0:0:0:
320,192,118340,1,0,0:0:0:0:
448,192,118340,1,0,0:0:0:0:
448,192,118476,1,0,0:0:0:0:
320,192,118476,1,0,0:0:0:0:
192,192,118476,1,0,0:0:0:0:
64,192,118476,1,0,0:0:0:0:
192,192,118613,1,0,0:0:0:0:
448,192,118749,1,0,0:0:0:0:
320,192,118749,1,0,0:0:0:0:
64,192,118749,1,0,0:0:0:0:
192,192,118885,1,0,0:0:0:0:
448,192,118885,1,0,0:0:0:0:
448,192,119022,1,0,0:0:0:0:
320,192,119022,1,0,0:0:0:0:
192,192,119022,1,0,0:0:0:0:
64,192,119022,1,0,0:0:0:0:
320,192,119158,1,0,0:0:0:0:
448,192,119295,1,0,0:0:0:0:
192,192,119295,1,0,0:0:0:0:
64,192,119295,1,0,0:0:0:0:
192,192,119431,1,0,0:0:0:0:
448,192,119567,1,0,0:0:0:0:
320,192,119567,1,0,0:0:0:0:
64,192,119567,1,0,0:0:0:0:
192,192,119567,1,0,0:0:0:0:
320,192,119704,1,0,0:0:0:0:
448,192,119840,1,0,0:0:0:0:
192,192,119840,1,0,0:0:0:0:
64,192,119840,1,0,0:0:0:0:
64,192,119976,1,0,0:0:0:0:
320,192,119976,1,0,0:0:0:0:
64,192,120113,1,0,0:0:0:0:
192,192,120113,1,0,0:0:0:0:
320,192,120113,1,0,0:0:0:0:
448,192,120113,1,0,0:0:0:0:
320,192,120249,1,0,0:0:0:0:
448,192,120385,1,0,0:0:0:0:
192,192,120385,1,0,0:0:0:0:
64,192,120385,1,0,0:0:0:0:
64,192,120522,1,0,0:0:0:0:
192,192,120522,1,0,0:0:0:0:
448,192,120658,1,0,0:0:0:0:
320,192,120658,1,0,0:0:0:0:
64,192,120658,1,0,0:0:0:0:
192,192,120658,1,0,0:0:0:0:
320,192,120795,1,0,0:0:0:0:
448,192,120931,1,0,0:0:0:0:
192,192,120931,1,0,0:0:0:0:
64,192,120931,1,0,0:0:0:0:
320,192,121067,1,0,0:0:0:0:
64,192,121067,1,0,0:0:0:0:
448,192,121204,1,0,0:0:0:0:
320,192,121204,1,0,0:0:0:0:
64,192,121204,1,0,0:0:0:0:
192,192,121204,1,0,0:0:0:0:
448,192,121340,1,0,0:0:0:0:
192,192,121340,1,0,0:0:0:0:
320,192,121476,1,0,0:0:0:0:
64,192,121476,1,0,0:0:0:0:
448,192,121476,1,0,0:0:0:0:
64,192,121613,1,0,0:0:0:0:
320,192,121613,1,0,0:0:0:0:
448,192,121749,1,0,0:0:0:0:
320,192,121749,1,0,0:0:0:0:
192,192,121749,1,0,0:0:0:0:
64,192,121749,1,0,0:0:0:0:
448,192,121885,1,0,0:0:0:0:
192,192,121885,1,0,0:0:0:0:
192,192,122022,1,0,0:0:0:0:
64,192,122022,1,0,0:0:0:0:
320,192,122022,1,0,0:0:0:0:
448,192,122158,1,0,0:0:0:0:
64,192,122158,1,0,0:0:0:0:
448,192,122295,1,0,0:0:0:0:
64,192,122295,1,0,0:0:0:0:
192,192,122295,1,0,0:0:0:0:
320,192,122295,1,0,0:0:0:0:
192,192,122431,1,0,0:0:0:0:
320,192,122431,1,0,0:0:0:0:
448,192,122567,1,0,0:0:0:0:
192,192,122567,1,0,0:0:0:0:
64,192,122567,1,0,0:0:0:0:
448,192,122704,1,0,0:0:0:0:
320,192,122704,1,0,0:0:0:0:
192,192,122840,1,0,0:0:0:0:
64,192,122840,1,0,0:0:0:0:
192,192,122976,1,0,0:0:0:0:
64,192,122976,1,0,0:0:0:0:
192,192,123113,1,0,0:0:0:0:
64,192,123113,1,0,0:0:0:0:
192,192,123249,1,0,0:0:0:0:
64,192,123249,1,0,0:0:0:0:
448,192,123385,1,0,0:0:0:0:
320,192,123385,1,0,0:0:0:0:
448,192,123522,1,0,0:0:0:0:
320,192,123522,1,0,0:0:0:0:
448,192,123658,1,0,0:0:0:0:
320,192,123658,1,0,0:0:0:0:
448,192,123795,1,0,0:0:0:0:
320,192,123795,1,0,0:0:0:0:
64,192,123931,1,0,0:0:0:0:
448,192,123931,1,0,0:0:0:0:
192,192,123931,1,0,0:0:0:0:
320,192,123931,1,0,0:0:0:0:
64,192,124067,1,0,0:0:0:0:
192,192,124204,1,0,0:0:0:0:
320,192,124204,1,0,0:0:0:0:
448,192,124204,1,0,0:0:0:0:
64,192,124340,1,0,0:0:0:0:
320,192,124340,1,0,0:0:0:0:
64,192,124476,1,0,0:0:0:0:
320,192,124476,1,0,0:0:0:0:
448,192,124476,1,0,0:0:0:0:
192,192,124476,1,0,0:0:0:0:
192,192,124613,1,0,0:0:0:0:
192,192,124749,1,0,0:0:0:0:
320,192,124749,1,0,0:0:0:0:
448,192,124749,1,0,0:0:0:0:
320,192,124885,1,0,0:0:0:0:
448,192,124885,1,0,0:0:0:0:
192,192,125022,1,0,0:0:0:0:
64,192,125022,1,0,0:0:0:0:
320,192,125022,1,0,0:0:0:0:
448,192,125022,1,0,0:0:0:0:
64,192,125158,1,0,0:0:0:0:
192,192,125295,1,0,0:0:0:0:
320,192,125295,1,0,0:0:0:0:
448,192,125295,1,0,0:0:0:0:
320,192,125431,1,0,0:0:0:0:
64,192,125431,1,0,0:0:0:0:
192,192,125567,1,0,0:0:0:0:
320,192,125567,1,0,0:0:0:0:
448,192,125567,1,0,0:0:0:0:
64,192,125567,1,0,0:0:0:0:
192,192,125704,1,0,0:0:0:0:
64,192,125840,1,0,0:0:0:0:
320,192,125840,1,0,0:0:0:0:
448,192,125840,1,0,0:0:0:0:
320,192,125976,1,0,0:0:0:0:
448,192,126113,1,0,0:0:0:0:
64,192,126113,1,0,0:0:0:0:
192,192,126113,1,0,0:0:0:0:
320,192,126113,1,0,0:0:0:0:
448,192,126249,1,0,0:0:0:0:
64,192,126385,1,0,0:0:0:0:
320,192,126385,1,0,0:0:0:0:
192,192,126385,1,0,0:0:0:0:
448,192,126522,1,0,0:0:0:0:
64,192,126522,1,0,0:0:0:0:
192,192,126658,1,0,0:0:0:0:
320,192,126658,1,0,0:0:0:0:
448,192,126658,1,0,0:0:0:0:
64,192,126658,1,0,0:0:0:0:
320,192,126795,1,0,0:0:0:0:
192,192,126931,1,0,0:0:0:0:
320,192,126931,1,0,0:0:0:0:
64,192,126931,1,0,0:0:0:0:
192,192,127067,1,0,0:0:0:0:
64,192,127067,1,0,0:0:0:0:
64,192,127204,1,0,0:0:0:0:
192,192,127204,1,0,0:0:0:0:
320,192,127204,1,0,0:0:0:0:
448,192,127204,1,0,0:0:0:0:
320,192,127340,1,0,0:0:0:0:
64,192,127476,1,0,0:0:0:0:
192,192,127476,1,0,0:0:0:0:
448,192,127476,1,0,0:0:0:0:
320,192,127613,1,0,0:0:0:0:
64,192,127613,1,0,0:0:0:0:
64,192,127749,1,0,0:0:0:0:
192,192,127749,1,0,0:0:0:0:
320,192,127749,1,0,0:0:0:0:
448,192,127749,1,0,0:0:0:0:
192,192,127885,1,0,0:0:0:0:
64,192,128022,1,0,0:0:0:0:
320,192,128022,1,0,0:0:0:0:
448,192,128022,1,0,0:0:0:0:
320,192,128158,1,0,0:0:0:0:
64,192,128295,1,0,0:0:0:0:
192,192,128295,1,0,0:0:0:0:
448,192,128295,1,0,0:0:0:0:
320,192,128295,1,0,0:0:0:0:
192,192,128431,1,0,0:0:0:0:
64,192,128567,1,0,0:0:0:0:
320,192,128567,1,0,0:0:0:0:
448,192,128567,1,0,0:0:0:0:
448,192,128704,1,0,0:0:0:0:
192,192,128704,1,0,0:0:0:0:
448,192,128840,1,0,0:0:0:0:
320,192,128840,1,0,0:0:0:0:
192,192,128840,1,0,0:0:0:0:
64,192,128840,1,0,0:0:0:0:
192,192,128976,1,0,0:0:0:0:
64,192,129113,1,0,0:0:0:0:
320,192,129113,1,0,0:0:0:0:
448,192,129113,1,0,0:0:0:0:
448,192,129249,1,0,0:0:0:0:
320,192,129249,1,0,0:0:0:0:
64,192,129385,1,0,0:0:0:0:
192,192,129385,1,0,0:0:0:0:
448,192,129385,1,0,0:0:0:0:
320,192,129385,1,0,0:0:0:0:
192,192,129522,1,0,0:0:0:0:
64,192,129658,1,0,0:0:0:0:
320,192,129658,1,0,0:0:0:0:
448,192,129658,1,0,0:0:0:0:
192,192,129795,1,0,0:0:0:0:
448,192,129795,1,0,0:0:0:0:
64,192,129931,1,0,0:0:0:0:
192,192,129931,1,0,0:0:0:0:
448,192,129931,1,0,0:0:0:0:
320,192,129931,1,0,0:0:0:0:
64,192,130067,1,0,0:0:0:0:
320,192,130067,1,0,0:0:0:0:
192,192,130204,1,0,0:0:0:0:
448,192,130204,1,0,0:0:0:0:
64,192,130204,1,0,0:0:0:0:
448,192,130340,1,0,0:0:0:0:
192,192,130340,1,0,0:0:0:0:
64,192,130476,1,0,0:0:0:0:
192,192,130476,1,0,0:0:0:0:
320,192,130476,1,0,0:0:0:0:
448,192,130476,1,0,0:0:0:0:
64,192,130613,1,0,0:0:0:0:
320,192,130613,1,0,0:0:0:0:
320,192,130749,1,0,0:0:0:0:
448,192,130749,1,0,0:0:0:0:
192,192,130749,1,0,0:0:0:0:
64,192,130885,1,0,0:0:0:0:
448,192,130885,1,0,0:0:0:0:
64,192,131022,1,0,0:0:0:0:
448,192,131022,1,0,0:0:0:0:
320,192,131022,1,0,0:0:0:0:
192,192,131022,1,0,0:0:0:0:
320,192,131158,1,0,0:0:0:0:
192,192,131158,1,0,0:0:0:0:
64,192,131295,1,0,0:0:0:0:
320,192,131295,1,0,0:0:0:0:
448,192,131295,1,0,0:0:0:0:
64,192,131431,1,0,0:0:0:0:
320,192,131567,1,0,0:0:0:0:
192,192,131567,1,0,0:0:0:0:
448,192,131704,1,0,0:0:0:0:
64,192,131704,1,0,0:0:0:0:
320,192,131840,1,0,0:0:0:0:
192,192,131840,1,0,0:0:0:0:
448,192,131976,1,0,0:0:0:0:
64,192,131976,1,0,0:0:0:0:
320,192,132113,128,0,132385:0:0:0:0:
192,192,132113,128,0,132385:0:0:0:0:
64,192,132385,128,0,132658:0:0:0:0:
448,192,132385,128,0,132658:0:0:0:0:
192,192,132658,1,0,0:0:0:0:
320,192,132658,1,0,0:0:0:0:
448,192,132704,1,0,0:0:0:0:
64,192,132749,1,0,0:0:0:0:
192,192,132795,1,0,0:0:0:0:
320,192,132840,1,0,0:0:0:0:
448,192,132885,1,0,0:0:0:0:
320,192,132931,1,0,0:0:0:0:
192,192,132976,1,0,0:0:0:0:
64,192,133022,1,0,0:0:0:0:
448,192,133067,1,0,0:0:0:0:
320,192,133067,1,0,0:0:0:0:
192,192,133113,1,0,0:0:0:0:
64,192,133158,1,0,0:0:0:0:
320,192,133204,1,0,0:0:0:0:
448,192,133249,1,0,0:0:0:0:
192,192,133295,1,0,0:0:0:0:
64,192,133340,1,0,0:0:0:0:
448,192,133385,1,0,0:0:0:0:
320,192,133431,1,0,0:0:0:0:
192,192,133476,1,0,0:0:0:0:
64,192,133476,1,0,0:0:0:0:
448,192,133522,1,0,0:0:0:0:
320,192,133567,1,0,0:0:0:0:
192,192,133613,1,0,0:0:0:0:
448,192,133658,1,0,0:0:0:0:
64,192,133704,1,0,0:0:0:0:
192,192,133749,1,0,0:0:0:0:
320,192,133749,1,0,0:0:0:0:
448,192,133795,1,0,0:0:0:0:
64,192,133840,1,0,0:0:0:0:
192,192,133885,1,0,0:0:0:0:
320,192,133931,1,0,0:0:0:0:
448,192,133976,1,0,0:0:0:0:
64,192,134022,1,0,0:0:0:0:
192,192,134067,1,0,0:0:0:0:
320,192,134113,1,0,0:0:0:0:
448,192,134158,1,0,0:0:0:0:
320,192,134204,1,0,0:0:0:0:
192,192,134249,1,0,0:0:0:0:
64,192,134295,1,0,0:0:0:0:
448,192,134295,1,0,0:0:0:0:
320,192,134340,1,0,0:0:0:0:
192,192,134385,1,0,0:0:0:0:
64,192,134431,1,0,0:0:0:0:
192,192,134476,1,0,0:0:0:0:
320,192,134522,1,0,0:0:0:0:
448,192,134567,1,0,0:0:0:0:
64,192,134613,1,0,0:0:0:0:
192,192,134658,1,0,0:0:0:0:
320,192,134704,1,0,0:0:0:0:
448,192,134749,1,0,0:0:0:0:
320,192,134795,1,0,0:0:0:0:
64,192,134840,1,0,0:0:0:0:
192,192,134840,1,0,0:0:0:0:
448,192,134885,1,0,0:0:0:0:
320,192,134931,1,0,0:0:0:0:
192,192,134976,1,0,0:0:0:0:
64,192,135022,1,0,0:0:0:0:
192,192,135067,1,0,0:0:0:0:
320,192,135113,1,0,0:0:0:0:
448,192,135158,1,0,0:0:0:0:
64,192,135204,1,0,0:0:0:0:
192,192,135249,1,0,0:0:0:0:
448,192,135249,1,0,0:0:0:0:
320,192,135295,1,0,0:0:0:0:
192,192,135340,1,0,0:0:0:0:
64,192,135385,1,0,0:0:0:0:
320,192,135431,1,0,0:0:0:0:
448,192,135476,1,0,0:0:0:0:
64,192,135522,1,0,0:0:0:0:
192,192,135567,1,0,0:0:0:0:
320,192,135613,1,0,0:0:0:0:
448,192,135658,1,0,0:0:0:0:
64,192,135658,1,0,0:0:0:0:
192,192,135704,1,0,0:0:0:0:
320,192,135749,1,0,0:0:0:0:
448,192,135795,1,0,0:0:0:0:
192,192,135840,1,0,0:0:0:0:
320,192,135885,1,0,0:0:0:0:
448,192,135931,1,0,0:0:0:0:
64,192,135931,1,0,0:0:0:0:
64,192,136067,1,0,0:0:0:0:
192,192,136204,1,0,0:0:0:0:
320,192,136204,1,0,0:0:0:0:
320,192,136340,1,0,0:0:0:0:
448,192,136340,1,0,0:0:0:0:
64,192,136476,1,0,0:0:0:0:
192,192,136476,1,0,0:0:0:0:
448,192,136476,1,0,0:0:0:0:
192,192,136613,1,0,0:0:0:0:
64,192,136749,1,0,0:0:0:0:
320,192,136749,1,0,0:0:0:0:
64,192,136885,1,0,0:0:0:0:
192,192,137022,1,0,0:0:0:0:
320,192,137022,1,0,0:0:0:0:
448,192,137067,1,0,0:0:0:0:
64,192,137113,1,0,0:0:0:0:
192,192,137158,1,0,0:0:0:0:
320,192,137204,1,0,0:0:0:0:
448,192,137249,1,0,0:0:0:0:
320,192,137295,1,0,0:0:0:0:
192,192,137340,1,0,0:0:0:0:
64,192,137385,1,0,0:0:0:0:
448,192,137431,1,0,0:0:0:0:
320,192,137431,1,0,0:0:0:0:
192,192,137476,1,0,0:0:0:0:
64,192,137522,1,0,0:0:0:0:
320,192,137567,1,0,0:0:0:0:
448,192,137613,1,0,0:0:0:0:
192,192,137658,1,0,0:0:0:0:
64,192,137704,1,0,0:0:0:0:
448,192,137749,1,0,0:0:0:0:
320,192,137795,1,0,0:0:0:0:
192,192,137840,1,0,0:0:0:0:
64,192,137840,1,0,0:0:0:0:
448,192,137885,1,0,0:0:0:0:
320,192,137931,1,0,0:0:0:0:
192,192,137976,1,0,0:0:0:0:
448,192,138022,1,0,0:0:0:0:
64,192,138067,1,0,0:0:0:0:
192,192,138113,1,0,0:0:0:0:
320,192,138113,1,0,0:0:0:0:
448,192,138158,1,0,0:0:0:0:
64,192,138204,1,0,0:0:0:0:
192,192,138249,1,0,0:0:0:0:
320,192,138295,1,0,0:0:0:0:
448,192,138340,1,0,0:0:0:0:
64,192,138385,1,0,0:0:0:0:
192,192,138431,1,0,0:0:0:0:
320,192,138476,1,0,0:0:0:0:
448,192,138522,1,0,0:0:0:0:
320,192,138567,1,0,0:0:0:0:
192,192,138613,1,0,0:0:0:0:
64,192,138658,1,0,0:0:0:0:
448,192,138658,1,0,0:0:0:0:
320,192,138704,1,0,0:0:0:0:
192,192,138749,1,0,0:0:0:0:
64,192,138795,1,0,0:0:0:0:
192,192,138840,1,0,0:0:0:0:
320,192,138885,1,0,0:0:0:0:
448,192,138931,1,0,0:0:0:0:
64,192,138976,1,0,0:0:0:0:
192,192,139022,1,0,0:0:0:0:
320,192,139067,1,0,0:0:0:0:
448,192,139113,1,0,0:0:0:0:
320,192,139158,1,0,0:0:0:0:
64,192,139204,1,0,0:0:0:0:
192,192,139204,1,0,0:0:0:0:
448,192,139249,1,0,0:0:0:0:
320,192,139295,1,0,0:0:0:0:
192,192,139340,1,0,0:0:0:0:
64,192,139385,1,0,0:0:0:0:
192,192,139431,1,0,0:0:0:0:
320,192,139476,1,0,0:0:0:0:
448,192,139522,1,0,0:0:0:0:
64,192,139567,1,0,0:0:0:0:
192,192,139613,1,0,0:0:0:0:
448,192,139613,1,0,0:0:0:0:
320,192,139658,1,0,0:0:0:0:
192,192,139704,1,0,0:0:0:0:
64,192,139749,1,0,0:0:0:0:
320,192,139795,1,0,0:0:0:0:
448,192,139840,1,0,0:0:0:0:
64,192,139885,1,0,0:0:0:0:
192,192,139931,1,0,0:0:0:0:
320,192,139976,1,0,0:0:0:0:
448,192,140022,1,0,0:0:0:0:
64,192,140022,1,0,0:0:0:0:
192,192,140067,1,0,0:0:0:0:
320,192,140113,1,0,0:0:0:0:
448,192,140158,1,0,0:0:0:0:
192,192,140204,1,0,0:0:0:0:
64,192,140249,1,0,0:0:0:0:
448,192,140295,1,0,0:0:0:0:
320,192,140295,1,0,0:0:0:0:
320,192,140431,1,0,0:0:0:0:
448,192,140431,1,0,0:0:0:0:
320,192,140567,1,0,0:0:0:0:
448,192,140567,1,0,0:0:0:0:
320,192,140704,1,0,0:0:0:0:
448,192,140704,1,0,0:0:0:0:
192,192,140840,1,0,0:0:0:0:
448,192,140840,1,0,0:0:0:0:
64,192,140840,1,0,0:0:0:0:
192,192,140976,1,0,0:0:0:0:
64,192,141113,1,0,0:0:0:0:
320,192,141113,1,0,0:0:0:0:
448,192,141113,1,0,0:0:0:0:
64,192,141249,1,0,0:0:0:0:
192,192,141385,1,0,0:0:0:0:
320,192,141385,1,0,0:0:0:0:
448,192,141431,1,0,0:0:0:0:
64,192,141476,1,0,0:0:0:0:
192,192,141522,1,0,0:0:0:0:
320,192,141567,1,0,0:0:0:0:
448,192,141613,1,0,0:0:0:0:
320,192,141658,1,0,0:0:0:0:
192,192,141704,1,0,0:0:0:0:
64,192,141749,1,0,0:0:0:0:
448,192,141795,1,0,0:0:0:0:
320,192,141840,1,0,0:0:0:0:
192,192,141885,1,0,0:0:0:0:
64,192,141931,1,0,0:0:0:0:
320,192,141976,1,0,0:0:0:0:
448,192,142022,1,0,0:0:0:0:
192,192,142067,1,0,0:0:0:0:
64,192,142113,1,0,0:0:0:0:
320,192,142158,1,0,0:0:0:0:
192,192,142204,1,0,0:0:0:0:
448,192,142249,1,0,0:0:0:0:
320,192,142295,1,0,0:0:0:0:
192,192,142340,1,0,0:0:0:0:
448,192,142385,1,0,0:0:0:0:
64,192,142431,1,0,0:0:0:0:
192,192,142476,1,0,0:0:0:0:
320,192,142522,1,0,0:0:0:0:
448,192,142567,1,0,0:0:0:0:
64,192,142613,1,0,0:0:0:0:
192,192,142658,1,0,0:0:0:0:
320,192,142704,1,0,0:0:0:0:
192,192,142749,1,0,0:0:0:0:
64,192,142795,1,0,0:0:0:0:
320,192,142840,1,0,0:0:0:0:
448,192,142885,1,0,0:0:0:0:
320,192,142931,1,0,0:0:0:0:
192,192,142976,1,0,0:0:0:0:
64,192,143022,1,0,0:0:0:0:
320,192,143067,1,0,0:0:0:0:
448,192,143113,1,0,0:0:0:0:
64,192,143158,1,0,0:0:0:0:
192,192,143204,1,0,0:0:0:0:
320,192,143249,1,0,0:0:0:0:
448,192,143295,1,0,0:0:0:0:
64,192,143340,1,0,0:0:0:0:
192,192,143385,1,0,0:0:0:0:
320,192,143431,1,0,0:0:0:0:
448,192,143476,1,0,0:0:0:0:
320,192,143522,1,0,0:0:0:0:
64,192,143567,1,0,0:0:0:0:
192,192,143613,1,0,0:0:0:0:
320,192,143658,1,0,0:0:0:0:
448,192,143704,1,0,0:0:0:0:
64,192,143749,1,0,0:0:0:0:
192,192,143795,1,0,0:0:0:0:
320,192,143840,1,0,0:0:0:0:
448,192,143885,1,0,0:0:0:0:
64,192,143931,1,0,0:0:0:0:
192,192,143976,1,0,0:0:0:0:
320,192,144022,1,0,0:0:0:0:
192,192,144067,1,0,0:0:0:0:
64,192,144113,1,0,0:0:0:0:
448,192,144158,1,0,0:0:0:0:
320,192,144204,1,0,0:0:0:0:
64,192,144249,1,0,0:0:0:0:
192,192,144295,1,0,0:0:0:0:
320,192,144340,1,0,0:0:0:0:
64,192,144385,1,0,0:0:0:0:
192,192,144431,1,0,0:0:0:0:
320,192,144476,1,0,0:0:0:0:
448,192,144522,1,0,0:0:0:0:
192,192,144567,1,0,0:0:0:0:
320,192,144613,1,0,0:0:0:0:
448,192,144658,1,0,0:0:0:0:
192,192,144658,1,0,0:0:0:0:
64,192,144658,128,0,144692:0:0:0:0:
64,192,144795,128,0,144828:0:0:0:0:
192,192,144931,128,0,144965:0:0:0:0:
192,192,145067,128,0,145101:0:0:0:0:
320,192,145204,1,0,0:0:0:0:
448,192,145204,128,0,145237:0:0:0:0:
448,192,145340,128,0,145374:0:0:0:0:
320,192,145476,128,0,145510:0:0:0:0:
320,192,145613,128,0,145646:0:0:0:0:
64,192,145749,1,0,0:0:0:0:
320,192,145749,1,0,0:0:0:0:
192,192,145795,1,0,0:0:0:0:
448,192,145840,1,0,0:0:0:0:
320,192,145885,1,0,0:0:0:0:
192,192,145931,1,0,0:0:0:0:
64,192,145976,1,0,0:0:0:0:
320,192,146022,1,0,0:0:0:0:
192,192,146067,1,0,0:0:0:0:
64,192,146113,1,0,0:0:0:0:
448,192,146158,1,0,0:0:0:0:
320,192,146204,1,0,0:0:0:0:
192,192,146249,1,0,0:0:0:0:
64,192,146295,1,0,0:0:0:0:
320,192,146340,1,0,0:0:0:0:
448,192,146385,1,0,0:0:0:0:
192,192,146431,1,0,0:0:0:0:
64,192,146476,1,0,0:0:0:0:
320,192,146522,1,0,0:0:0:0:
192,192,146567,1,0,0:0:0:0:
448,192,146613,1,0,0:0:0:0:
320,192,146658,1,0,0:0:0:0:
192,192,146704,1,0,0:0:0:0:
448,192,146749,1,0,0:0:0:0:
64,192,146795,1,0,0:0:0:0:
192,192,146840,1,0,0:0:0:0:
320,192,146885,1,0,0:0:0:0:
448,192,146931,1,0,0:0:0:0:
64,192,146976,1,0,0:0:0:0:
192,192,147022,1,0,0:0:0:0:
320,192,147067,1,0,0:0:0:0:
192,192,147113,1,0,0:0:0:0:
64,192,147158,1,0,0:0:0:0:
320,192,147204,1,0,0:0:0:0:
448,192,147249,1,0,0:0:0:0:
320,192,147295,1,0,0:0:0:0:
192,192,147340,1,0,0:0:0:0:
64,192,147385,1,0,0:0:0:0:
320,192,147431,1,0,0:0:0:0:
448,192,147476,1,0,0:0:0:0:
64,192,147522,1,0,0:0:0:0:
192,192,147567,1,0,0:0:0:0:
320,192,147613,1,0,0:0:0:0:
448,192,147658,1,0,0:0:0:0:
64,192,147704,1,0,0:0:0:0:
192,192,147749,1,0,0:0:0:0:
320,192,147795,1,0,0:0:0:0:
448,192,147840,1,0,0:0:0:0:
320,192,147885,1,0,0:0:0:0:
64,192,147931,1,0,0:0:0:0:
192,192,147976,1,0,0:0:0:0:
320,192,148022,1,0,0:0:0:0:
448,192,148067,1,0,0:0:0:0:
64,192,148113,1,0,0:0:0:0:
192,192,148158,1,0,0:0:0:0:
320,192,148204,1,0,0:0:0:0:
448,192,148249,1,0,0:0:0:0:
64,192,148295,1,0,0:0:0:0:
192,192,148340,1,0,0:0:0:0:
320,192,148385,1,0,0:0:0:0:
192,192,148431,1,0,0:0:0:0:
64,192,148476,1,0,0:0:0:0:
448,192,148522,1,0,0:0:0:0:
320,192,148567,1,0,0:0:0:0:
64,192,148613,1,0,0:0:0:0:
192,192,148658,1,0,0:0:0:0:
320,192,148704,1,0,0:0:0:0:
64,192,148749,1,0,0:0:0:0:
192,192,148795,1,0,0:0:0:0:
320,192,148840,1,0,0:0:0:0:
448,192,148885,1,0,0:0:0:0:
192,192,148931,1,0,0:0:0:0:
320,192,148976,1,0,0:0:0:0:
64,192,149022,128,0,150113:0:0:0:0:
448,192,149022,128,0,149158:0:0:0:0:
320,192,149158,128,0,149295:0:0:0:0:
192,192,149295,128,0,149431:0:0:0:0:
448,192,149431,128,0,149567:0:0:0:0:
320,192,149567,128,0,149840:0:0:0:0:
448,192,149840,128,0,150113:0:0:0:0:
192,192,150113,1,0,0:0:0:0:
320,192,150113,1,0,0:0:0:0:
320,192,150249,1,0,0:0:0:0:
64,192,150385,1,0,0:0:0:0:
192,192,150385,1,0,0:0:0:0:
192,192,150522,1,0,0:0:0:0:
64,192,150658,1,0,0:0:0:0:
320,192,150658,1,0,0:0:0:0:
448,192,150658,1,0,0:0:0:0:
448,192,150795,1,0,0:0:0:0:
64,192,150931,1,0,0:0:0:0:
192,192,150931,1,0,0:0:0:0:
64,192,151067,1,0,0:0:0:0:
192,192,151204,1,0,0:0:0:0:
320,192,151204,1,0,0:0:0:0:
448,192,151204,1,0,0:0:0:0:
320,192,151340,1,0,0:0:0:0:
192,192,151476,1,0,0:0:0:0:
64,192,151476,1,0,0:0:0:0:
192,192,151613,1,0,0:0:0:0:
320,192,151749,1,0,0:0:0:0:
448,192,151749,1,0,0:0:0:0:
64,192,151749,1,0,0:0:0:0:
320,192,151885,1,0,0:0:0:0:
192,192,152022,1,0,0:0:0:0:
64,192,152022,1,0,0:0:0:0:
448,192,152022,1,0,0:0:0:0:
192,192,152158,1,0,0:0:0:0:
320,192,152295,1,0,0:0:0:0:
448,192,152295,1,0,0:0:0:0:
64,192,152295,1,0,0:0:0:0:
64,192,152431,1,0,0:0:0:0:
192,192,152567,1,0,0:0:0:0:
448,192,152567,1,0,0:0:0:0:
448,192,152704,1,0,0:0:0:0:
64,192,152840,1,0,0:0:0:0:
192,192,152840,1,0,0:0:0:0:
320,192,152840,1,0,0:0:0:0:
192,192,152976,1,0,0:0:0:0:
320,192,153113,1,0,0:0:0:0:
448,192,153113,1,0,0:0:0:0:
320,192,153249,1,0,0:0:0:0:
64,192,153385,1,0,0:0:0:0:
192,192,153385,1,0,0:0:0:0:
448,192,153385,1,0,0:0:0:0:
64,192,153522,1,0,0:0:0:0:
320,192,153658,1,0,0:0:0:0:
192,192,153658,1,0,0:0:0:0:
320,192,153795,1,0,0:0:0:0:
192,192,153931,1,0,0:0:0:0:
64,192,153931,1,0,0:0:0:0:
448,192,153931,1,0,0:0:0:0:
192,192,154067,1,0,0:0:0:0:
320,192,154204,1,0,0:0:0:0:
448,192,154204,1,0,0:0:0:0:
64,192,154204,1,0,0:0:0:0:
448,192,154340,1,0,0:0:0:0:
192,192,154476,1,0,0:0:0:0:
320,192,154476,1,0,0:0:0:0:
64,192,154476,1,0,0:0:0:0:
192,192,154613,1,0,0:0:0:0:
320,192,154749,1,0,0:0:0:0:
448,192,154749,1,0,0:0:0:0:
320,192,154885,1,0,0:0:0:0:
64,192,155022,1,0,0:0:0:0:
192,192,155022,1,0,0:0:0:0:
448,192,155022,1,0,0:0:0:0:
64,192,155158,1,0,0:0:0:0:
320,192,155295,1,0,0:0:0:0:
448,192,155295,1,0,0:0:0:0:
448,192,155431,1,0,0:0:0:0:
64,192,155567,1,0,0:0:0:0:
192,192,155567,1,0,0:0:0:0:
320,192,155567,1,0,0:0:0:0:
192,192,155704,1,0,0:0:0:0:
448,192,155840,1,0,0:0:0:0:
320,192,155840,1,0,0:0:0:0:
320,192,155976,1,0,0:0:0:0:
448,192,156113,1,0,0:0:0:0:
64,192,156113,1,0,0:0:0:0:
192,192,156113,1,0,0:0:0:0:
192,192,156249,1,0,0:0:0:0:
64,192,156385,1,0,0:0:0:0:
448,192,156385,1,0,0:0:0:0:
320,192,156385,1,0,0:0:0:0:
320,192,156522,1,0,0:0:0:0:
448,192,156658,1,0,0:0:0:0:
64,192,156658,1,0,0:0:0:0:
192,192,156658,1,0,0:0:0:0:
448,192,156795,1,0,0:0:0:0:
64,192,156931,1,0,0:0:0:0:
320,192,156931,1,0,0:0:0:0:
64,192,157067,1,0,0:0:0:0:
192,192,157204,1,0,0:0:0:0:
320,192,157204,1,0,0:0:0:0:
448,192,157204,1,0,0:0:0:0:
320,192,157340,1,0,0:0:0:0:
64,192,157476,1,0,0:0:0:0:
192,192,157476,1,0,0:0:0:0:
192,192,157613,1,0,0:0:0:0:
320,192,157749,1,0,0:0:0:0:
448,192,157749,1,0,0:0:0:0:
320,192,157885,1,0,0:0:0:0:
320,192,158022,1,0,0:0:0:0:
320,192,158158,1,0,0:0:0:0:
448,192,158295,128,0,158567:0:0:0:0:
64,192,158295,128,0,158567:0:0:0:0:
320,192,158567,128,0,158840:0:0:0:0:
192,192,158567,128,0,158840:0:0:0:0:
448,192,158840,1,0,0:0:0:0:
64,192,158840,1,0,0:0:0:0:
448,192,158976,1,0,0:0:0:0:
320,192,159113,1,0,0:0:0:0:
192,192,159113,1,0,0:0:0:0:
64,192,159113,1,0,0:0:0:0:
448,192,159249,1,0,0:0:0:0:
192,192,159249,1,0,0:0:0:0:
448,192,159385,1,0,0:0:0:0:
192,192,159385,1,0,0:0:0:0:
64,192,159385,1,0,0:0:0:0:
320,192,159385,1,0,0:0:0:0:
320,192,159522,1,0,0:0:0:0:
320,192,159658,1,0,0:0:0:0:
192,192,159658,1,0,0:0:0:0:
64,192,159658,1,0,0:0:0:0:
192,192,159795,1,0,0:0:0:0:
64,192,159795,1,0,0:0:0:0:
320,192,159931,1,0,0:0:0:0:
448,192,159931,1,0,0:0:0:0:
192,192,159931,1,0,0:0:0:0:
64,192,159931,1,0,0:0:0:0:
448,192,160067,1,0,0:0:0:0:
320,192,160204,1,0,0:0:0:0:
192,192,160204,1,0,0:0:0:0:
64,192,160204,1,0,0:0:0:0:
192,192,160340,1,0,0:0:0:0:
448,192,160340,1,0,0:0:0:0:
320,192,160476,1,0,0:0:0:0:
192,192,160476,1,0,0:0:0:0:
64,192,160476,1,0,0:0:0:0:
448,192,160476,1,0,0:0:0:0:
320,192,160613,1,0,0:0:0:0:
448,192,160749,1,0,0:0:0:0:
192,192,160749,1,0,0:0:0:0:
64,192,160749,1,0,0:0:0:0:
192,192,160885,1,0,0:0:0:0:
64,192,161022,1,0,0:0:0:0:
448,192,161022,1,0,0:0:0:0:
320,192,161022,1,0,0:0:0:0:
192,192,161022,1,0,0:0:0:0:
64,192,161158,1,0,0:0:0:0:
448,192,161295,1,0,0:0:0:0:
192,192,161295,1,0,0:0:0:0:
320,192,161295,1,0,0:0:0:0:
64,192,161431,1,0,0:0:0:0:
448,192,161431,1,0,0:0:0:0:
320,192,161567,1,0,0:0:0:0:
192,192,161567,1,0,0:0:0:0:
64,192,161567,1,0,0:0:0:0:
448,192,161567,1,0,0:0:0:0:
192,192,161704,1,0,0:0:0:0:
320,192,161840,1,0,0:0:0:0:
192,192,161840,1,0,0:0:0:0:
448,192,161840,1,0,0:0:0:0:
320,192,161976,1,0,0:0:0:0:
448,192,161976,1,0,0:0:0:0:
448,192,162113,1,0,0:0:0:0:
320,192,162113,1,0,0:0:0:0:
192,192,162113,1,0,0:0:0:0:
64,192,162113,1,0,0:0:0:0:
192,192,162249,1,0,0:0:0:0:
448,192,162385,1,0,0:0:0:0:
320,192,162385,1,0,0:0:0:0:
64,192,162385,1,0,0:0:0:0:
192,192,162522,1,0,0:0:0:0:
448,192,162522,1,0,0:0:0:0:
448,192,162658,1,0,0:0:0:0:
320,192,162658,1,0,0:0:0:0:
192,192,162658,1,0,0:0:0:0:
64,192,162658,1,0,0:0:0:0:
320,192,162795,1,0,0:0:0:0:
448,192,162931,1,0,0:0:0:0:
192,192,162931,1,0,0:0:0:0:
64,192,162931,1,0,0:0:0:0:
192,192,163067,1,0,0:0:0:0:
448,192,163204,1,0,0:0:0:0:
320,192,163204,1,0,0:0:0:0:
64,192,163204,1,0,0:0:0:0:
192,192,163204,1,0,0:0:0:0:
320,192,163340,1,0,0:0:0:0:
448,192,163476,1,0,0:0:0:0:
192,192,163476,1,0,0:0:0:0:
64,192,163476,1,0,0:0:0:0:
64,192,163613,1,0,0:0:0:0:
320,192,163613,1,0,0:0:0:0:
64,192,163749,1,0,0:0:0:0:
192,192,163749,1,0,0:0:0:0:
320,192,163749,1,0,0:0:0:0:
448,192,163749,1,0,0:0:0:0:
320,192,163885,1,0,0:0:0:0:
448,192,164022,1,0,0:0:0:0:
192,192,164022,1,0,0:0:0:0:
64,192,164022,1,0,0:0:0:0:
64,192,164158,1,0,0:0:0:0:
192,192,164158,1,0,0:0:0:0:
448,192,164295,1,0,0:0:0:0:
320,192,164295,1,0,0:0:0:0:
64,192,164295,1,0,0:0:0:0:
192,192,164295,1,0,0:0:0:0:
320,192,164431,1,0,0:0:0:0:
448,192,164567,1,0,0:0:0:0:
192,192,164567,1,0,0:0:0:0:
64,192,164567,1,0,0:0:0:0:
320,192,164704,1,0,0:0:0:0:
64,192,164704,1,0,0:0:0:0:
448,192,164840,1,0,0:0:0:0:
320,192,164840,1,0,0:0:0:0:
64,192,164840,1,0,0:0:0:0:
192,192,164840,1,0,0:0:0:0:
448,192,164976,1,0,0:0:0:0:
192,192,164976,1,0,0:0:0:0:
320,192,165113,1,0,0:0:0:0:
64,192,165113,1,0,0:0:0:0:
448,192,165113,1,0,0:0:0:0:
64,192,165249,1,0,0:0:0:0:
320,192,165249,1,0,0:0:0:0:
448,192,165385,1,0,0:0:0:0:
320,192,165385,1,0,0:0:0:0:
192,192,165385,1,0,0:0:0:0:
64,192,165385,1,0,0:0:0:0:
448,192,165522,1,0,0:0:0:0:
192,192,165522,1,0,0:0:0:0:
192,192,165658,1,0,0:0:0:0:
64,192,165658,1,0,0:0:0:0:
320,192,165658,1,0,0:0:0:0:
448,192,165795,1,0,0:0:0:0:
64,192,165795,1,0,0:0:0:0:
448,192,165931,1,0,0:0:0:0:
64,192,165931,1,0,0:0:0:0:
192,192,165931,1,0,0:0:0:0:
320,192,165931,1,0,0:0:0:0:
192,192,166067,1,0,0:0:0:0:
320,192,166067,1,0,0:0:0:0:
448,192,166204,1,0,0:0:0:0:
192,192,166204,1,0,0:0:0:0:
64,192,166204,1,0,0:0:0:0:
448,192,166340,1,0,0:0:0:0:
320,192,166340,1,0,0:0:0:0:
192,192,166476,1,0,0:0:0:0:
64,192,166476,1,0,0:0:0:0:
192,192,166613,1,0,0:0:0:0:
64,192,166613,1,0,0:0:0:0:
192,192,166749,1,0,0:0:0:0:
64,192,166749,1,0,0:0:0:0:
192,192,166885,1,0,0:0:0:0:
64,192,166885,1,0,0:0:0:0:
448,192,167022,1,0,0:0:0:0:
320,192,167022,1,0,0:0:0:0:
448,192,167158,1,0,0:0:0:0:
320,192,167158,1,0,0:0:0:0:
448,192,167295,1,0,0:0:0:0:
320,192,167295,1,0,0:0:0:0:
448,192,167431,1,0,0:0:0:0:
320,192,167431,1,0,0:0:0:0:
64,192,167567,1,0,0:0:0:0:
448,192,167567,1,0,0:0:0:0:
192,192,167567,1,0,0:0:0:0:
320,192,167567,1,0,0:0:0:0:
64,192,167704,1,0,0:0:0:0:
192,192,167840,1,0,0:0:0:0:
320,192,167840,1,0,0:0:0:0:
448,192,167840,1,0,0:0:0:0:
64,192,167976,1,0,0:0:0:0:
320,192,167976,1,0,0:0:0:0:
64,192,168113,1,0,0:0:0:0:
320,192,168113,1,0,0:0:0:0:
448,192,168113,1,0,0:0:0:0:
192,192,168113,1,0,0:0:0:0:
192,192,168249,1,0,0:0:0:0:
192,192,168385,1,0,0:0:0:0:
320,192,168385,1,0,0:0:0:0:
448,192,168385,1,0,0:0:0:0:
320,192,168522,1,0,0:0:0:0:
448,192,168522,1,0,0:0:0:0:
192,192,168658,1,0,0:0:0:0:
64,192,168658,1,0,0:0:0:0:
320,192,168658,1,0,0:0:0:0:
448,192,168658,1,0,0:0:0:0:
64,192,168795,1,0,0:0:0:0:
192,192,168931,1,0,0:0:0:0:
320,192,168931,1,0,0:0:0:0:
448,192,168931,1,0,0:0:0:0:
320,192,169067,1,0,0:0:0:0:
64,192,169067,1,0,0:0:0:0:
192,192,169204,1,0,0:0:0:0:
320,192,169204,1,0,0:0:0:0:
448,192,169204,1,0,0:0:0:0:
64,192,169204,1,0,0:0:0:0:
192,192,169340,1,0,0:0:0:0:
64,192,169476,1,0,0:0:0:0:
320,192,169476,1,0,0:0:0:0:
448,192,169476,1,0,0:0:0:0:
320,192,169613,1,0,0:0:0:0:
448,192,169749,1,0,0:0:0:0:
64,192,169749,1,0,0:0:0:0:
192,192,169749,1,0,0:0:0:0:
320,192,169749,1,0,0:0:0:0:
448,192,169885,1,0,0:0:0:0:
64,192,170022,1,0,0:0:0:0:
320,192,170022,1,0,0:0:0:0:
192,192,170022,1,0,0:0:0:0:
448,192,170158,1,0,0:0:0:0:
64,192,170158,1,0,0:0:0:0:
192,192,170295,1,0,0:0:0:0:
320,192,170295,1,0,0:0:0:0:
448,192,170295,1,0,0:0:0:0:
64,192,170295,1,0,0:0:0:0:
320,192,170431,1,0,0:0:0:0:
192,192,170567,1,0,0:0:0:0:
320,192,170567,1,0,0:0:0:0:
64,192,170567,1,0,0:0:0:0:
192,192,170704,1,0,0:0:0:0:
64,192,170704,1,0,0:0:0:0:
64,192,170840,1,0,0:0:0:0:
192,192,170840,1,0,0:0:0:0:
320,192,170840,1,0,0:0:0:0:
448,192,170840,1,0,0:0:0:0:
320,192,170976,1,0,0:0:0:0:
64,192,171113,1,0,0:0:0:0:
192,192,171113,1,0,0:0:0:0:
448,192,171113,1,0,0:0:0:0:
320,192,171249,1,0,0:0:0:0:
64,192,171249,1,0,0:0:0:0:
64,192,171385,1,0,0:0:0:0:
192,192,171385,1,0,0:0:0:0:
320,192,171385,1,0,0:0:0:0:
448,192,171385,1,0,0:0:0:0:
192,192,171522,1,0,0:0:0:0:
64,192,171658,1,0,0:0:0:0:
320,192,171658,1,0,0:0:0:0:
448,192,171658,1,0,0:0:0:0:
320,192,171795,1,0,0:0:0:0:
64,192,171931,1,0,0:0:0:0:
192,192,171931,1,0,0:0:0:0:
448,192,171931,1,0,0:0:0:0:
320,192,171931,1,0,0:0:0:0:
192,192,172067,1,0,0:0:0:0:
64,192,172204,1,0,0:0:0:0:
320,192,172204,1,0,0:0:0:0:
448,192,172204,1,0,0:0:0:0:
448,192,172340,1,0,0:0:0:0:
192,192,172340,1,0,0:0:0:0:
448,192,172476,1,0,0:0:0:0:
320,192,172476,1,0,0:0:0:0:
192,192,172476,1,0,0:0:0:0:
64,192,172476,1,0,0:0:0:0:
192,192,172613,1,0,0:0:0:0:
64,192,172749,1,0,0:0:0:0:
320,192,172749,1,0,0:0:0:0:
448,192,172749,1,0,0:0:0:0:
448,192,172885,1,0,0:0:0:0:
320,192,172885,1,0,0:0:0:0:
64,192,173022,1,0,0:0:0:0:
192,192,173022,1,0,0:0:0:0:
448,192,173022,1,0,0:0:0:0:
320,192,173022,1,0,0:0:0:0:
192,192,173158,1,0,0:0:0:0:
64,192,173295,1,0,0:0:0:0:
320,192,173295,1,0,0:0:0:0:
448,192,173295,1,0,0:0:0:0:
192,192,173431,1,0,0:0:0:0:
448,192,173431,1,0,0:0:0:0:
64,192,173567,1,0,0:0:0:0:
192,192,173567,1,0,0:0:0:0:
448,192,173567,1,0,0:0:0:0:
320,192,173567,1,0,0:0:0:0:
64,192,173704,1,0,0:0:0:0:
320,192,173704,1,0,0:0:0:0:
192,192,173840,1,0,0:0:0:0:
448,192,173840,1,0,0:0:0:0:
64,192,173840,1,0,0:0:0:0:
448,192,173976,1,0,0:0:0:0:
192,192,173976,1,0,0:0:0:0:
64,192,174113,1,0,0:0:0:0:
192,192,174113,1,0,0:0:0:0:
320,192,174113,1,0,0:0:0:0:
448,192,174113,1,0,0:0:0:0:
64,192,174249,1,0,0:0:0:0:
320,192,174249,1,0,0:0:0:0:
320,192,174385,1,0,0:0:0:0:
448,192,174385,1,0,0:0:0:0:
192,192,174385,1,0,0:0:0:0:
64,192,174522,1,0,0:0:0:0:
448,192,174522,1,0,0:0:0:0:
64,192,174658,1,0,0:0:0:0:
448,192,174658,1,0,0:0:0:0:
320,192,174658,1,0,0:0:0:0:
192,192,174658,1,0,0:0:0:0:
320,192,174795,1,0,0:0:0:0:
192,192,174795,1,0,0:0:0:0:
64,192,174931,1,0,0:0:0:0:
320,192,174931,1,0,0:0:0:0:
448,192,174931,1,0,0:0:0:0:
64,192,175067,1,0,0:0:0:0:
320,192,175204,1,0,0:0:0:0:
192,192,175204,1,0,0:0:0:0:
448,192,175340,1,0,0:0:0:0:
64,192,175340,1,0,0:0:0:0:
320,192,175476,1,0,0:0:0:0:
192,192,175476,1,0,0:0:0:0:
448,192,175613,1,0,0:0:0:0:
64,192,175613,1,0,0:0:0:0:
320,192,175749,128,0,176022:0:0:0:0:
192,192,175749,128,0,176022:0:0:0:0:
64,192,176022,128,0,176295:0:0:0:0:
448,192,176022,128,0,176295:0:0:0:0:
192,192,176295,1,0,0:0:0:0:
320,192,176295,1,0,0:0:0:0:
448,192,176340,1,0,0:0:0:0:
64,192,176385,1,0,0:0:0:0:
192,192,176431,1,0,0:0:0:0:
320,192,176476,1,0,0:0:0:0:
448,192,176522,1,0,0:0:0:0:
320,192,176567,1,0,0:0:0:0:
192,192,176613,1,0,0:0:0:0:
64,192,176658,1,0,0:0:0:0:
448,192,176704,1,0,0:0:0:0:
320,192,176704,1,0,0:0:0:0:
192,192,176749,1,0,0:0:0:0:
64,192,176795,1,0,0:0:0:0:
320,192,176840,1,0,0:0:0:0:
448,192,176885,1,0,0:0:0:0:
192,192,176931,1,0,0:0:0:0:
64,192,176976,1,0,0:0:0:0:
448,192,177022,1,0,0:0:0:0:
320,192,177067,1,0,0:0:0:0:
192,192,177113,1,0,0:0:0:0:
64,192,177113,1,0,0:0:0:0:
448,192,177158,1,0,0:0:0:0:
320,192,177204,1,0,0:0:0:0:
192,192,177249,1,0,0:0:0:0:
448,192,177295,1,0,0:0:0:0:
64,192,177340,1,0,0:0:0:0:
192,192,177385,1,0,0:0:0:0:
320,192,177385,1,0,0:0:0:0:
448,192,177431,1,0,0:0:0:0:
64,192,177476,1,0,0:0:0:0:
192,192,177522,1,0,0:0:0:0:
320,192,177567,1,0,0:0:0:0:
448,192,177613,1,0,0:0:0:0:
64,192,177658,1,0,0:0:0:0:
192,192,177704,1,0,0:0:0:0:
320,192,177749,1,0,0:0:0:0:
448,192,177795,1,0,0:0:0:0:
320,192,177840,1,0,0:0:0:0:
192,192,177885,1,0,0:0:0:0:
64,192,177931,1,0,0:0:0:0:
448,192,177931,1,0,0:0:0:0:
320,192,177976,1,0,0:0:0:0:
192,192,178022,1,0,0:0:0:0:
64,192,178067,1,0,0:0:0:0:
192,192,178113,1,0,0:0:0:0:
320,192,178158,1,0,0:0:0:0:
448,192,178204,1,0,0:0:0:0:
64,192,178249,1,0,0:0:0:0:
192,192,178295,1,0,0:0:0:0:
320,192,178340,1,0,0:0:0:0:
448,192,178385,1,0,0:0:0:0:
320,192,178431,1,0,0:0:0:0:
64,192,178476,1,0,0:0:0:0:
192,192,178476,1,0,0:0:0:0:
448,192,178522,1,0,0:0:0:0:
320,192,178567,1,0,0:0:0:0:
192,192,178613,1,0,0:0:0:0:
64,192,178658,1,0,0:0:0:0:
192,192,178704,1,0,0:0:0:0:
320,192,178749,1,0,0:0:0:0:
448,192,178795,1,0,0:0:0:0:
64,192,178840,1,0,0:0:0:0:
192,192,178885,1,0,0:0:0:0:
448,192,178885,1,0,0:0:0:0:
320,192,178931,1,0,0:0:0:0:
192,192,178976,1,0,0:0:0:0:
64,192,179022,1,0,0:0:0:0:
320,192,179067,1,0,0:0:0:0:
448,192,179113,1,0,0:0:0:0:
64,192,179158,1,0,0:0:0:0:
192,192,179204,1,0,0:0:0:0:
320,192,179249,1,0,0:0:0:0:
448,192,179295,1,0,0:0:0:0:
64,192,179295,1,0,0:0:0:0:
192,192,179340,1,0,0:0:0:0:
320,192,179385,1,0,0:0:0:0:
448,192,179431,1,0,0:0:0:0:
192,192,179476,1,0,0:0:0:0:
64,192,179522,1,0,0:0:0:0:
192,192,179567,1,0,0:0:0:0:
448,192,179567,128,0,179840:0:0:0:0:
192,192,179704,1,0,0:0:0:0:
320,192,179840,128,0,179976:0:0:0:0:
64,192,179840,1,0,0:0:0:0:
448,192,179976,128,0,180249:0:0:0:0:
64,192,179976,1,0,0:0:0:0:
192,192,180113,1,0,0:0:0:0:
64,192,180249,128,0,180658:0:0:0:0:
192,192,180249,1,0,0:0:0:0:
320,192,180385,1,0,0:0:0:0:
320,192,180522,1,0,0:0:0:0:
192,192,180658,1,0,0:0:0:0:
320,192,180658,1,0,0:0:0:0:
448,192,180704,1,0,0:0:0:0:
64,192,180749,1,0,0:0:0:0:
192,192,180795,1,0,0:0:0:0:
320,192,180840,1,0,0:0:0:0:
448,192,180885,1,0,0:0:0:0:
320,192,180931,1,0,0:0:0:0:
192,192,180976,1,0,0:0:0:0:
64,192,181022,1,0,0:0:0:0:
448,192,181067,1,0,0:0:0:0:
320,192,181067,1,0,0:0:0:0:
192,192,181113,1,0,0:0:0:0:
64,192,181158,1,0,0:0:0:0:
320,192,181204,1,0,0:0:0:0:
448,192,181249,1,0,0:0:0:0:
192,192,181295,1,0,0:0:0:0:
64,192,181340,1,0,0:0:0:0:
448,192,181385,1,0,0:0:0:0:
320,192,181431,1,0,0:0:0:0:
192,192,181476,1,0,0:0:0:0:
64,192,181476,1,0,0:0:0:0:
448,192,181522,1,0,0:0:0:0:
320,192,181567,1,0,0:0:0:0:
192,192,181613,1,0,0:0:0:0:
448,192,181658,1,0,0:0:0:0:
64,192,181704,1,0,0:0:0:0:
192,192,181749,1,0,0:0:0:0:
320,192,181749,1,0,0:0:0:0:
448,192,181795,1,0,0:0:0:0:
64,192,181840,1,0,0:0:0:0:
192,192,181885,1,0,0:0:0:0:
320,192,181931,1,0,0:0:0:0:
448,192,181976,1,0,0:0:0:0:
64,192,182022,1,0,0:0:0:0:
192,192,182067,1,0,0:0:0:0:
320,192,182113,1,0,0:0:0:0:
448,192,182158,1,0,0:0:0:0:
320,192,182204,1,0,0:0:0:0:
192,192,182249,1,0,0:0:0:0:
64,192,182295,1,0,0:0:0:0:
448,192,182295,1,0,0:0:0:0:
320,192,182340,1,0,0:0:0:0:
192,192,182385,1,0,0:0:0:0:
64,192,182431,1,0,0:0:0:0:
192,192,182476,1,0,0:0:0:0:
320,192,182522,1,0,0:0:0:0:
448,192,182567,1,0,0:0:0:0:
64,192,182613,1,0,0:0:0:0:
192,192,182658,1,0,0:0:0:0:
320,192,182704,1,0,0:0:0:0:
448,192,182749,1,0,0:0:0:0:
320,192,182795,1,0,0:0:0:0:
64,192,182840,1,0,0:0:0:0:
192,192,182840,1,0,0:0:0:0:
448,192,182885,1,0,0:0:0:0:
320,192,182931,1,0,0:0:0:0:
192,192,182976,1,0,0:0:0:0:
64,192,183022,1,0,0:0:0:0:
192,192,183067,1,0,0:0:0:0:
320,192,183113,1,0,0:0:0:0:
448,192,183158,1,0,0:0:0:0:
64,192,183204,1,0,0:0:0:0:
192,192,183249,1,0,0:0:0:0:
448,192,183249,1,0,0:0:0:0:
320,192,183295,1,0,0:0:0:0:
192,192,183340,1,0,0:0:0:0:
64,192,183385,1,0,0:0:0:0:
320,192,183431,1,0,0:0:0:0:
448,192,183476,1,0,0:0:0:0:
64,192,183522,1,0,0:0:0:0:
192,192,183567,1,0,0:0:0:0:
320,192,183613,1,0,0:0:0:0:
448,192,183658,1,0,0:0:0:0:
64,192,183658,1,0,0:0:0:0:
192,192,183704,1,0,0:0:0:0:
320,192,183749,1,0,0:0:0:0:
448,192,183795,1,0,0:0:0:0:
192,192,183840,1,0,0:0:0:0:
64,192,183885,1,0,0:0:0:0:
448,192,183931,1,0,0:0:0:0:
320,192,183931,1,0,0:0:0:0:
320,192,184067,1,0,0:0:0:0:
448,192,184067,1,0,0:0:0:0:
448,192,184204,1,0,0:0:0:0:
64,192,184204,1,0,0:0:0:0:
192,192,184249,1,0,0:0:0:0:
320,192,184295,1,0,0:0:0:0:
448,192,184340,1,0,0:0:0:0:
192,192,184385,1,0,0:0:0:0:
64,192,184431,1,0,0:0:0:0:
320,192,184476,1,0,0:0:0:0:
448,192,184522,1,0,0:0:0:0:
192,192,184567,1,0,0:0:0:0:
64,192,184613,1,0,0:0:0:0:
320,192,184658,1,0,0:0:0:0:
448,192,184704,1,0,0:0:0:0:
192,192,184749,1,0,0:0:0:0:
64,192,184749,1,0,0:0:0:0:
64,192,184885,1,0,0:0:0:0:
320,192,185022,1,0,0:0:0:0:
192,192,185022,1,0,0:0:0:0:
64,192,185067,1,0,0:0:0:0:
448,192,185113,1,0,0:0:0:0:
320,192,185158,1,0,0:0:0:0:
192,192,185204,1,0,0:0:0:0:
64,192,185249,1,0,0:0:0:0:
192,192,185295,1,0,0:0:0:0:
320,192,185340,1,0,0:0:0:0:
448,192,185385,1,0,0:0:0:0:
64,192,185431,1,0,0:0:0:0:
192,192,185431,1,0,0:0:0:0:
320,192,185476,1,0,0:0:0:0:
448,192,185522,1,0,0:0:0:0:
192,192,185567,1,0,0:0:0:0:
64,192,185613,1,0,0:0:0:0:
320,192,185658,1,0,0:0:0:0:
448,192,185704,1,0,0:0:0:0:
64,192,185749,1,0,0:0:0:0:
192,192,185795,1,0,0:0:0:0:
320,192,185840,1,0,0:0:0:0:
448,192,185840,1,0,0:0:0:0:
64,192,185885,1,0,0:0:0:0:
192,192,185931,1,0,0:0:0:0:
320,192,185976,1,0,0:0:0:0:
64,192,186022,1,0,0:0:0:0:
448,192,186067,1,0,0:0:0:0:
320,192,186113,1,0,0:0:0:0:
192,192,186113,1,0,0:0:0:0:
64,192,186158,1,0,0:0:0:0:
448,192,186204,1,0,0:0:0:0:
320,192,186249,1,0,0:0:0:0:
192,192,186295,1,0,0:0:0:0:
64,192,186340,1,0,0:0:0:0:
448,192,186385,1,0,0:0:0:0:
320,192,186431,1,0,0:0:0:0:
192,192,186476,1,0,0:0:0:0:
64,192,186522,1,0,0:0:0:0:
192,192,186567,1,0,0:0:0:0:
320,192,186613,1,0,0:0:0:0:
448,192,186658,1,0,0:0:0:0:
64,192,186658,1,0,0:0:0:0:
192,192,186704,1,0,0:0:0:0:
320,192,186749,1,0,0:0:0:0:
448,192,186795,1,0,0:0:0:0:
320,192,186840,1,0,0:0:0:0:
192,192,186885,1,0,0:0:0:0:
64,192,186931,1,0,0:0:0:0:
448,192,186976,1,0,0:0:0:0:
320,192,187022,1,0,0:0:0:0:
192,192,187067,1,0,0:0:0:0:
64,192,187113,1,0,0:0:0:0:
192,192,187158,1,0,0:0:0:0:
448,192,187204,1,0,0:0:0:0:
320,192,187204,1,0,0:0:0:0:
64,192,187249,1,0,0:0:0:0:
192,192,187295,1,0,0:0:0:0:
320,192,187340,1,0,0:0:0:0:
448,192,187385,1,0,0:0:0:0:
320,192,187431,1,0,0:0:0:0:
192,192,187476,1,0,0:0:0:0:
64,192,187522,1,0,0:0:0:0:
448,192,187567,1,0,0:0:0:0:
320,192,187613,1,0,0:0:0:0:
64,192,187613,1,0,0:0:0:0:
192,192,187658,1,0,0:0:0:0:
320,192,187704,1,0,0:0:0:0:
448,192,187749,1,0,0:0:0:0:
192,192,187795,1,0,0:0:0:0:
64,192,187840,1,0,0:0:0:0:
448,192,187885,1,0,0:0:0:0:
320,192,187931,1,0,0:0:0:0:
192,192,187976,1,0,0:0:0:0:
64,192,188022,1,0,0:0:0:0:
448,192,188022,1,0,0:0:0:0:
320,192,188067,1,0,0:0:0:0:
192,192,188113,1,0,0:0:0:0:
64,192,188158,1,0,0:0:0:0:
320,192,188204,1,0,0:0:0:0:
448,192,188249,1,0,0:0:0:0:
64,192,188295,128,0,188567:0:0:0:0:
320,192,188295,1,0,0:0:0:0:
320,192,188431,1,0,0:0:0:0:
448,192,188567,1,0,0:0:0:0:
192,192,188567,128,0,188704:0:0:0:0:
64,192,188704,128,0,188976:0:0:0:0:
448,192,188704,1,0,0:0:0:0:
320,192,188840,1,0,0:0:0:0:
448,192,188976,128,0,189385:0:0:0:0:
320,192,188976,1,0,0:0:0:0:
192,192,189113,1,0,0:0:0:0:
192,192,189249,1,0,0:0:0:0:
320,192,189385,1,0,0:0:0:0:
192,192,189385,1,0,0:0:0:0:
64,192,189431,1,0,0:0:0:0:
448,192,189476,1,0,0:0:0:0:
320,192,189522,1,0,0:0:0:0:
192,192,189567,1,0,0:0:0:0:
64,192,189613,1,0,0:0:0:0:
192,192,189658,1,0,0:0:0:0:
320,192,189704,1,0,0:0:0:0:
448,192,189749,1,0,0:0:0:0:
64,192,189795,1,0,0:0:0:0:
192,192,189795,1,0,0:0:0:0:
320,192,189840,1,0,0:0:0:0:
448,192,189885,1,0,0:0:0:0:
192,192,189931,1,0,0:0:0:0:
64,192,189976,1,0,0:0:0:0:
320,192,190022,1,0,0:0:0:0:
448,192,190067,1,0,0:0:0:0:
64,192,190113,1,0,0:0:0:0:
192,192,190158,1,0,0:0:0:0:
320,192,190204,1,0,0:0:0:0:
448,192,190204,1,0,0:0:0:0:
64,192,190249,1,0,0:0:0:0:
192,192,190295,1,0,0:0:0:0:
320,192,190340,1,0,0:0:0:0:
64,192,190385,1,0,0:0:0:0:
448,192,190431,1,0,0:0:0:0:
320,192,190476,1,0,0:0:0:0:
192,192,190476,1,0,0:0:0:0:
64,192,190522,1,0,0:0:0:0:
448,192,190567,1,0,0:0:0:0:
320,192,190613,1,0,0:0:0:0:
192,192,190658,1,0,0:0:0:0:
64,192,190704,1,0,0:0:0:0:
448,192,190749,1,0,0:0:0:0:
320,192,190795,1,0,0:0:0:0:
192,192,190840,1,0,0:0:0:0:
64,192,190885,1,0,0:0:0:0:
192,192,190931,1,0,0:0:0:0:
320,192,190976,1,0,0:0:0:0:
448,192,191022,1,0,0:0:0:0:
64,192,191022,1,0,0:0:0:0:
192,192,191067,1,0,0:0:0:0:
320,192,191113,1,0,0:0:0:0:
448,192,191158,1,0,0:0:0:0:
320,192,191204,1,0,0:0:0:0:
192,192,191249,1,0,0:0:0:0:
64,192,191295,1,0,0:0:0:0:
448,192,191340,1,0,0:0:0:0:
320,192,191385,1,0,0:0:0:0:
192,192,191431,1,0,0:0:0:0:
64,192,191476,1,0,0:0:0:0:
192,192,191522,1,0,0:0:0:0:
448,192,191567,1,0,0:0:0:0:
320,192,191567,1,0,0:0:0:0:
64,192,191613,1,0,0:0:0:0:
192,192,191658,1,0,0:0:0:0:
320,192,191704,1,0,0:0:0:0:
448,192,191749,1,0,0:0:0:0:
320,192,191795,1,0,0:0:0:0:
192,192,191840,1,0,0:0:0:0:
64,192,191885,1,0,0:0:0:0:
448,192,191931,1,0,0:0:0:0:
320,192,191976,1,0,0:0:0:0:
64,192,191976,1,0,0:0:0:0:
192,192,192022,1,0,0:0:0:0:
320,192,192067,1,0,0:0:0:0:
448,192,192113,1,0,0:0:0:0:
192,192,192158,1,0,0:0:0:0:
64,192,192204,1,0,0:0:0:0:
448,192,192249,1,0,0:0:0:0:
320,192,192295,1,0,0:0:0:0:
192,192,192340,1,0,0:0:0:0:
64,192,192385,1,0,0:0:0:0:
448,192,192385,1,0,0:0:0:0:
320,192,192431,1,0,0:0:0:0:
192,192,192476,1,0,0:0:0:0:
64,192,192522,1,0,0:0:0:0:
320,192,192567,1,0,0:0:0:0:
448,192,192613,1,0,0:0:0:0:
64,192,192658,1,0,0:0:0:0:
192,192,192658,1,0,0:0:0:0:
192,192,192795,1,0,0:0:0:0:
64,192,192795,1,0,0:0:0:0:
448,192,192931,1,0,0:0:0:0:
64,192,192931,1,0,0:0:0:0:
320,192,192976,1,0,0:0:0:0:
192,192,193022,1,0,0:0:0:0:
64,192,193067,1,0,0:0:0:0:
320,192,193113,1,0,0:0:0:0:
448,192,193158,1,0,0:0:0:0:
192,192,193204,1,0,0:0:0:0:
64,192,193249,1,0,0:0:0:0:
320,192,193295,1,0,0:0:0:0:
448,192,193340,1,0,0:0:0:0:
192,192,193385,1,0,0:0:0:0:
64,192,193431,1,0,0:0:0:0:
448,192,193476,1,0,0:0:0:0:
320,192,193476,1,0,0:0:0:0:
448,192,193613,1,0,0:0:0:0:
64,192,193749,1,0,0:0:0:0:
448,192,193749,1,0,0:0:0:0:
192,192,193749,128,0,194840:0:0:0:0:
320,192,193749,128,0,194113:0:0:0:0:
448,192,194113,128,0,194476:0:0:0:0:
64,192,194476,128,0,194840:0:0:0:0:
448,192,194840,128,0,195931:0:0:0:0:
320,192,194840,128,0,194976:0:0:0:0:
320,192,195113,128,0,195249:0:0:0:0:
192,192,195385,128,0,195522:0:0:0:0:
192,192,195658,128,0,195795:0:0:0:0:
64,192,195931,128,0,196295:0:0:0:0:
320,192,195931,128,0,196295:0:0:0:0:
192,192,196295,128,0,196658:0:0:0:0:
448,192,196295,128,0,196658:0:0:0:0:
320,192,196658,128,0,197022:0:0:0:0:
64,192,196658,128,0,197022:0:0:0:0:
