osu file format v14

[General]
AudioFilename: audio.mp3
AudioLeadIn: 0
PreviewTime: 22786
Countdown: 1
SampleSet: Normal
StackLeniency: 0.7
Mode: 0
LetterboxInBreaks: 0
EpilepsyWarning: 1
WidescreenStoryboard: 0

[Editor]
DistanceSpacing: 1.1
BeatDivisor: 4
GridSize: 4
TimelineZoom: 1.8

[Metadata]
Title:Navi Sparta Remix (EXTENDED)
TitleUnicode:Navi Sparta Remix (EXTENDED)
Artist:Mr. Link. Productions
ArtistUnicode:Mr. Link. Productions
Creator:Swash
Version:Annoyed
Source:
Tags:
BeatmapID:1062197
BeatmapSetID:499012

[Difficulty]
HPDrainRate:5
CircleSize:5
OverallDifficulty:8
ApproachRate:8
SliderMultiplier:2
SliderTickRate:1

[Events]
//Background and Video events
0,0,"Navi VS SParta.png",0,0
//Break Periods
//Storyboard Layer 0 (Background)
//Storyboard Layer 1 (Fail)
//Storyboard Layer 2 (Pass)
//Storyboard Layer 3 (Foreground)
//Storyboard Sound Samples

[TimingPoints]
2219,428.571428571429,4,1,0,65,1,0

[HitObjects]
256,192,2215,5,0,2:0:0:0:
256,192,3076,1,0,2:0:0:0:
256,192,3933,1,0,2:0:0:0:
196,116,5647,5,8,0:0:0:0:
252,116,5754,1,0,0:0:0:0:
362,116,5969,1,0,0:0:0:0:
416,116,6076,1,0,0:0:0:0:
416,225,6290,1,0,0:0:0:0:
416,279,6397,1,0,0:0:0:0:
377,317,6504,1,0,0:0:0:0:
266,317,6719,1,0,0:0:0:0:
156,317,6933,1,0,0:0:0:0:
216,224,7147,1,0,0:0:0:0:
254,185,7254,1,0,0:0:0:0:
254,130,7361,5,8,0:0:0:0:
214,90,7469,1,0,0:0:0:0:
159,90,7576,1,0,0:0:0:0:
112,188,7790,1,0,0:0:0:0:
34,265,8004,1,0,0:0:0:0:
34,319,8111,1,0,0:0:0:0:
73,358,8219,1,0,0:0:0:0:
182,358,8433,1,0,0:0:0:0:
221,319,8540,1,0,0:0:0:0:
221,265,8647,1,0,0:0:0:0:
298,342,8861,1,0,0:0:0:0:
408,342,9076,5,8,0:0:0:0:
446,303,9183,1,0,0:0:0:0:
446,193,9397,1,0,0:0:0:0:
407,154,9504,1,0,0:0:0:0:
348,248,9719,1,0,0:0:0:0:
402,248,9826,1,0,0:0:0:0:
456,248,9933,1,0,0:0:0:0:
456,138,10147,1,0,0:0:0:0:
456,247,10361,1,0,0:0:0:0:
456,136,10576,1,0,0:0:0:0:
417,97,10683,1,0,0:0:0:0:
362,97,10790,5,8,0:0:0:0:
307,97,10897,1,0,0:0:0:0:
268,58,11004,1,0,0:0:0:0:
157,58,11219,1,0,0:0:0:0:
266,58,11433,1,0,0:0:0:0:
304,19,11540,1,0,0:0:0:0:
358,19,11647,1,0,0:0:0:0:
358,128,11861,1,0,0:0:0:0:
304,128,11969,1,0,0:0:0:0:
266,89,12076,1,0,0:0:0:0:
266,199,12290,1,0,0:0:0:0:
188,276,12504,5,8,0:0:0:0:
408,284,12933,2,0,P|448:180|440:84,1,200
228,144,13790,1,0,0:0:0:0:
72,299,14219,1,0,0:0:0:0:
291,299,14647,1,0,0:0:0:0:
446,143,15076,1,0,0:0:0:0:
446,362,15504,1,0,0:0:0:0:
225,362,15933,6,0,L|121:362,1,100,2|0,0:0|2:0,0:0:0:0:
47,284,16361,2,0,L|151:284,1,100,2|0,0:0|2:0,0:0:0:0:
225,205,16790,2,0,L|121:205,1,100,2|0,0:0|2:0,0:0:0:0:
46,126,17219,2,0,L|150:126,1,100,2|0,0:0|2:0,0:0:0:0:
255,126,17647,6,0,L|359:126,1,100,2|0,0:0|2:0,0:0:0:0:
433,204,18076,2,0,L|329:204,1,100,2|0,0:0|2:0,0:0:0:0:
255,283,18504,2,0,L|359:283,1,100,2|0,0:0|2:0,0:0:0:0:
434,362,18933,2,0,L|330:362,1,100,2|0,0:0|2:0,0:0:0:0:
240,308,19361,6,0,P|208:264|196:204,1,100,0|4,0:0|0:0,0:0:0:0:
196,110,19790,2,0,P|182:62|152:22,1,100,0|4,0:0|0:0,0:0:0:0:
88,112,20219,2,0,P|101:159|131:199,1,100,0|4,0:0|0:0,0:0:0:0:
241,199,20647,2,0,P|270:238|284:286,1,100,0|4,0:0|0:0,0:0:0:0:
206,364,21076,5,0,0:0:0:0:
96,364,21290,1,4,0:0:0:0:
96,254,21504,1,0,0:0:0:0:
205,254,21719,1,4,0:0:0:0:
205,143,21933,1,0,0:0:0:0:
95,143,22147,1,4,0:0:0:0:
95,33,22361,1,0,0:0:0:0:
205,33,22576,1,4,0:0:0:0:
314,33,22790,5,10,0:0:0:0:
368,33,22897,1,0,0:0:0:0:
368,142,23111,1,0,0:0:0:0:
368,196,23219,1,0,0:0:0:0:
257,196,23433,1,0,0:0:0:0:
202,196,23540,1,0,0:0:0:0:
163,157,23647,1,0,0:0:0:0:
248,88,23861,1,0,0:0:0:0:
326,9,24076,1,0,0:0:0:0:
403,86,24290,1,0,0:0:0:0:
441,124,24397,1,0,0:0:0:0:
441,178,24504,5,10,0:0:0:0:
402,216,24611,1,0,0:0:0:0:
402,270,24719,1,0,0:0:0:0:
480,348,24933,1,0,0:0:0:0:
402,270,25147,1,0,0:0:0:0:
347,270,25254,1,0,0:0:0:0:
308,308,25361,1,0,0:0:0:0:
204,308,25576,1,0,0:0:0:0:
165,270,25683,1,0,0:0:0:0:
110,270,25790,1,0,0:0:0:0:
32,192,26004,1,0,0:0:0:0:
110,113,26219,5,10,0:0:0:0:
148,74,26326,1,0,0:0:0:0:
257,74,26540,1,0,0:0:0:0:
295,112,26647,1,0,0:0:0:0:
404,112,26861,1,0,0:0:0:0:
443,72,26969,1,0,0:0:0:0:
481,33,27076,1,0,0:0:0:0:
512,140,27290,1,0,0:0:0:0:
512,249,27504,1,0,0:0:0:0:
433,327,27719,1,0,0:0:0:0:
394,365,27826,1,0,0:0:0:0:
339,365,27933,5,10,0:0:0:0:
300,326,28040,1,0,0:0:0:0:
300,271,28147,1,0,0:0:0:0:
400,220,28361,1,0,0:0:0:0:
321,141,28576,1,0,0:0:0:0:
284,104,28683,1,0,0:0:0:0:
227,102,28790,1,0,0:0:0:0:
149,179,29004,1,0,0:0:0:0:
94,179,29111,1,0,0:0:0:0:
55,140,29219,1,0,0:0:0:0:
140,72,29433,1,0,0:0:0:0:
249,72,29647,5,8,0:0:0:0:
287,110,29754,1,0,0:0:0:0:
287,220,29969,1,0,0:0:0:0:
248,258,30076,1,0,0:0:0:0:
138,258,30290,1,0,0:0:0:0:
99,219,30397,1,0,0:0:0:0:
60,180,30504,1,0,0:0:0:0:
60,290,30719,1,0,0:0:0:0:
60,180,30933,1,0,0:0:0:0:
60,289,31147,1,0,0:0:0:0:
98,327,31254,1,0,0:0:0:0:
136,365,31361,5,8,0:0:0:0:
175,325,31469,1,0,0:0:0:0:
213,286,31576,1,0,0:0:0:0:
290,363,31790,1,0,0:0:0:0:
399,363,32004,1,0,0:0:0:0:
437,324,32111,1,0,0:0:0:0:
476,284,32219,1,0,0:0:0:0:
366,284,32433,1,0,0:0:0:0:
404,245,32540,1,0,0:0:0:0:
443,205,32647,1,0,0:0:0:0:
366,284,32861,1,0,0:0:0:0:
287,362,33076,5,8,0:0:0:0:
232,362,33183,1,0,0:0:0:0:
232,252,33397,1,0,0:0:0:0:
286,252,33504,1,0,0:0:0:0:
192,308,33719,1,0,0:0:0:0:
137,308,33826,1,0,0:0:0:0:
82,308,33933,1,0,0:0:0:0:
136,212,34147,1,0,0:0:0:0:
80,116,34361,1,0,0:0:0:0:
158,37,34576,1,0,0:0:0:0:
212,37,34683,1,0,0:0:0:0:
266,37,34790,5,8,0:0:0:0:
304,75,34897,1,0,0:0:0:0:
342,36,35004,1,0,0:0:0:0:
452,36,35219,1,0,0:0:0:0:
452,145,35433,1,0,0:0:0:0:
452,199,35540,1,0,0:0:0:0:
452,253,35647,1,0,0:0:0:0:
342,253,35861,1,0,0:0:0:0:
342,197,35969,1,0,0:0:0:0:
342,142,36076,1,0,0:0:0:0:
264,64,36290,1,0,0:0:0:0:
154,64,36504,6,0,P|104:76|56:116,1,100,2|0,0:0|2:0,0:0:0:0:
65,214,36933,6,0,L|104:256,1,50
153,250,37147,1,0,0:0:0:0:
207,250,37254,1,0,0:0:0:0:
261,250,37361,2,0,P|304:260|360:304,1,100
264,360,37790,1,0,0:0:0:0:
348,292,38004,5,0,0:0:0:0:
386,253,38111,1,0,0:0:0:0:
386,197,38219,1,0,0:0:0:0:
463,274,38433,1,0,0:0:0:0:
348,292,38647,2,0,P|288:268|248:236,1,100
220,208,38969,1,0,0:0:0:0:
220,153,39076,2,0,L|248:96,1,50
280,69,39290,2,0,L|336:32,1,50
376,41,39504,5,0,0:0:0:0:
414,79,39611,1,0,0:0:0:0:
453,118,39719,1,0,0:0:0:0:
453,172,39826,1,0,0:0:0:0:
453,226,39933,1,0,0:0:0:0:
375,303,40147,1,0,0:0:0:0:
256,192,40361,12,0,43361,2:0:0:0:
