osu file format v14

[General]
AudioFilename: audio.mp3
AudioLeadIn: 0
PreviewTime: 39022
Countdown: 0
SampleSet: Normal
StackLeniency: 0.6
Mode: 0
LetterboxInBreaks: 0
WidescreenStoryboard: 1

[Editor]
Bookmarks: 13076,24427,39022,51995,64968,77941,94157,107130,120103,131455,159022,171995,184968
DistanceSpacing: 1.2
BeatDivisor: 12
GridSize: 4
TimelineZoom: 3.100006

[Metadata]
Title:Shlappy
TitleUnicode:Shlappy
Artist:Mr. Bill & Au5
ArtistUnicode:Mr. Bill & Au5
Creator:Enyoti
Version:SO FLY!
Source:
Tags:
BeatmapID:1584713
BeatmapSetID:694282

[Difficulty]
HPDrainRate:6
CircleSize:4
OverallDifficulty:7
ApproachRate:9.2
SliderMultiplier:1.7
SliderTickRate:1

[Events]
//Background and Video events
0,0,"602577.jpg",0,0
//Break Periods
2,118682,126020
//Storyboard Layer 0 (Background)
//Storyboard Layer 1 (Fail)
//Storyboard Layer 2 (Pass)
//Storyboard Layer 3 (Foreground)
//Storyboard Sound Samples

[TimingPoints]
103.319104245482,405.405405405405,4,1,0,100,1,0
15508,-83.3333333333333,4,1,0,100,0,0
23110,-86.9565217391303,4,1,0,100,0,0
23414,-90.9090909090909,4,1,0,100,0,0
23718,-95.2380952380951,4,1,0,100,0,0
24022,-100,4,1,0,100,0,0
26049,-66.6666666666667,4,1,0,100,0,0
26860,-83.3333333333333,4,1,0,100,0,0
30711,-66.6666666666667,4,1,0,100,0,0
30914,-83.3333333333333,4,1,0,100,0,0
31319,-166.666666666667,4,1,0,100,0,0
31725,-83.3333333333333,4,1,0,100,0,0
32535,-66.6666666666667,4,1,0,100,0,0
35779,-166.666666666667,4,1,0,100,0,0
36184,-83.3333333333333,4,1,0,100,0,0
37198,-66.6666666666667,4,1,0,100,0,0
39833,-83.3333333333333,4,1,0,100,0,0
41860,-66.6666666666667,4,1,0,100,0,0
43684,-83.3333333333333,4,1,0,100,0,0
45508,-66.6666666666667,4,1,0,100,0,0
46927,-100,4,1,0,100,0,0
47130,-83.3333333333333,4,1,0,100,0,0
49157,-66.6666666666667,4,1,0,100,0,0
51995,-83.3333333333333,4,1,0,100,0,0
53414,-66.6666666666667,4,1,0,100,0,0
54022,-83.3333333333333,4,1,0,100,0,0
55238,-66.6666666666667,4,1,0,100,0,0
57062,-50,4,1,0,100,0,0
57671,-66.6666666666667,4,1,0,100,0,0
58481,-83.3333333333333,4,1,0,100,0,0
59900,-66.6666666666667,4,1,0,100,0,0
60508,-83.3333333333333,4,1,0,100,0,0
61725,-66.6666666666667,4,1,0,100,0,0
63549,-50,4,1,0,100,0,0
64968,-83.3333333333333,4,1,0,100,0,0
70036,-50,4,1,0,100,0,0
71454,-83.3333333333333,4,1,0,100,0,0
77941,-125,4,1,0,100,0,0
78549,-90.9090909090909,4,1,0,100,0,0
79157,-76.9230769230769,4,1,0,100,0,0
79562,-66.6666666666667,4,1,0,100,0,1
79765,-62.5,4,1,0,100,0,1
79968,-58.8235294117647,4,1,0,100,0,1
80171,-55.5555555555556,4,1,0,100,0,1
81184,-50,4,1,0,100,0,0
87062,-50,4,1,0,100,0,1
87670,-50,4,1,0,100,0,0
93549,-66.6666666666667,4,1,0,100,0,0
94157,-50,4,1,0,100,0,1
99833,-66.6666666666667,4,1,0,100,0,0
100643,-50,4,1,0,100,0,1
106116,-50,4,1,0,100,0,0
106522,-66.6666666666667,4,1,0,100,0,0
106928,-83.3333333333333,4,1,0,100,0,0
113009,-66.6666666666667,4,1,0,100,0,0
113313,-50,4,1,0,100,0,0
113617,-100,4,1,0,100,0,0
132671,-66.6666666666667,4,1,0,100,0,0
133076,-50,4,1,0,100,0,1
133887,-66.6666666666667,4,1,0,100,0,1
134394,-50,4,1,0,100,0,1
135509,-166.666666666667,4,1,0,100,0,1
135914,-66.6666666666667,4,1,0,100,0,1
136320,-50,4,1,0,100,0,1
137536,-66.6666666666667,4,1,0,100,0,1
138752,-50,4,1,0,100,0,1
139259,-166.666666666667,4,1,0,100,0,1
139563,-50,4,1,0,100,0,1
140373,-166.666666666667,4,1,0,100,0,1
140678,-66.6666666666667,4,1,0,100,0,1
141995,-50,4,1,0,100,0,1
142401,-66.6666666666667,4,1,0,100,0,1
142806,-100,4,1,0,100,0,1
143617,-66.6666666666667,4,1,0,100,0,1
144022,-50,4,1,0,100,0,1
144428,-66.6666666666667,4,1,0,100,0,1
144833,-50,4,1,0,100,0,1
145239,-100,4,1,0,100,0,1
145644,-66.6666666666667,4,1,0,100,0,1
146049,-50,4,1,0,100,0,1
146860,-66.6666666666667,4,1,0,100,0,1
150103,-50,4,1,0,100,0,1
151421,-66.6666666666667,4,1,0,100,0,1
151725,-100,4,1,0,100,0,1
152130,-66.6666666666667,4,1,0,100,0,1
152536,-50,4,1,0,100,0,1
152840,-166.666666666667,4,1,0,100,0,1
153347,-66.6666666666667,4,1,0,100,0,1
154157,-100,4,1,0,100,0,1
154563,-133.333333333333,4,1,0,100,0,1
154968,-66.6666666666667,4,1,0,100,0,1
155982,-50,4,1,0,100,0,1
156590,-66.6666666666667,4,1,0,100,0,1
158211,-66.6666666666667,4,1,0,100,0,0
171995,-83.3333333333333,4,1,0,100,0,0
176455,-66.6666666666667,4,1,0,100,0,0
177874,-50,4,1,0,100,0,0

[HitObjects]
123,233,103,5,0,2:0:0:0:
133,116,306,2,0,P|112:114|92:118,1,42.5,0|0,2:0|2:0,2:0:0:0:
237,182,508,2,0,P|227:163|212:147,1,42.5,0|0,2:0|2:0,2:0:0:0:
246,269,711,1,0,2:0:0:0:
237,182,1116,2,0,P|243:162|256:145,1,42.5,0|0,2:0|2:0,2:0:0:0:
323,89,1319,2,0,P|341:80|362:76,1,42.5,0|0,2:0|2:0,2:0:0:0:
446,85,1522,1,4,2:0:0:0:
446,85,3346,5,0,2:0:0:0:
345,161,3549,2,0,P|366:159|385:151,1,42.5,0|0,2:0|2:0,2:0:0:0:
230,124,3751,2,0,P|245:137|265:146,1,42.5,0|0,2:0|2:0,2:0:0:0:
164,58,3954,1,0,2:0:0:0:
130,236,4258,1,0,2:0:0:0:
300,180,4562,1,4,2:0:0:0:
271,252,6589,5,0,2:0:0:0:
322,130,6792,2,0,P|341:137|358:150,1,42.5,0|0,2:0|2:0,2:0:0:0:
192,147,6995,2,0,P|207:133|227:125,1,42.5,0|0,2:0|2:0,2:0:0:0:
148,237,7197,1,0,2:0:0:0:
191,147,7603,2,0,P|208:133|228:125,1,42.5,0|0,2:0|2:0,2:0:0:0:
320,128,7806,2,0,P|340:136|357:149,1,42.5,0|0,2:0|2:0,2:0:0:0:
148,237,8008,1,4,2:0:0:0:
370,107,9833,5,0,2:0:0:0:
233,290,10035,2,0,P|254:283|273:273,1,42.5,0|0,2:0|2:0,2:0:0:0:
350,188,10238,2,0,P|342:208|331:227,1,42.5,0|0,2:0|2:0,2:0:0:0:
149,303,10441,1,0,2:0:0:0:
209,142,10745,1,0,2:0:0:0:
315,273,11049,1,4,2:0:0:0:
152,302,13076,5,0,2:0:0:0:
151,177,13279,2,0,L|151:219,1,42.5,0|0,2:0|2:0,2:0:0:0:
260,240,13481,2,0,L|223:261,1,42.5,0|0,2:0|2:0,2:0:0:0:
236,156,13684,1,0,2:0:0:0:
311,103,14089,2,0,P|321:121|322:142,1,42.5,0|0,2:0|2:0,2:0:0:0:
196,73,14292,2,0,P|213:63|234:62,1,42.5,0|0,2:0|2:0,2:0:0:0:
287,225,14495,1,4,2:0:0:0:
107,222,15508,2,2,B|131:199|131:199|110:216|110:216|126:202|126:202|117:210|117:210|124:205|124:205|118:212|118:213|146:158|231:203,1,203.999993774414,2|2,2:0|2:0,2:0:0:0:
136,71,16319,5,0,2:0:0:0:
245,140,16522,2,0,L|194:134,1,50.9999984436036,0|0,2:0|2:0,2:0:0:0:
308,243,16725,2,0,L|260:224,1,50.9999984436036,0|0,2:0|2:0,2:0:0:0:
330,337,16927,1,8,2:0:0:0:
214,310,17231,1,8,2:0:0:0:
416,258,17535,1,4,2:0:0:0:
182,201,17941,5,0,2:0:0:0:
344,32,18143,1,0,2:0:0:0:
344,32,18245,1,0,2:0:0:0:
308,243,18447,1,0,2:0:0:0:
308,243,18549,1,0,2:0:0:0:
158,96,18752,1,0,2:0:0:0:
158,96,18853,1,0,2:0:0:0:
385,142,19056,1,0,2:0:0:0:
385,142,19157,1,0,2:0:0:0:
270,121,19360,1,0,2:0:0:0:
270,121,19461,1,0,2:0:0:0:
270,121,19562,5,10,2:0:0:0:
305,241,19765,2,0,P|320:221|325:197,1,50.9999984436036,0|0,2:0|2:0,2:0:0:0:
187,296,20069,2,0,P|213:299|237:292,1,50.9999984436036,0|0,2:0|2:0,2:0:0:0:
326,198,20373,1,0,2:0:0:0:
326,198,20475,1,0,2:0:0:0:
238,293,20677,1,0,2:0:0:0:
238,293,20779,1,0,2:0:0:0:
195,174,20981,5,0,2:0:0:0:
195,174,21083,2,0,L|145:161,1,50.9999984436036,0|0,2:0|2:0,2:0:0:0:
320,130,21285,1,0,2:0:0:0:
320,130,21387,2,0,L|270:117,1,50.9999984436036,0|0,2:0|2:0,2:0:0:0:
299,256,21589,5,0,2:3:0:0:
299,256,21691,2,0,L|348:268,1,50.9999984436036,0|0,2:3|2:3,2:3:0:0:
145,161,21893,1,0,2:3:0:0:
145,161,21995,2,0,L|194:173,1,50.9999984436036,0|0,2:3|2:3,2:3:0:0:
369,142,22197,5,0,2:3:0:0:
369,142,22299,2,0,L|319:129,1,50.9999984436036,0|0,2:3|2:0,2:3:0:0:
184,100,22502,5,4,2:0:0:0:
184,100,22603,1,4,2:0:0:0:
184,100,22704,1,4,2:0:0:0:
183,99,22806,6,0,P|213:140|211:190,1,101.999996887207,0|0,2:0|2:0,2:0:0:0:
259,174,23110,2,0,P|212:188|183:226,1,97.7500018644333,0|0,2:0|2:0,2:0:0:0:
152,194,23414,2,0,P|186:225|181:270,1,93.5000028533936,0|0,2:0|2:0,2:0:0:0:
226,256,23718,2,0,P|184:270|151:298,1,89.2499972763062,0|0,2:0|2:0,2:0:0:0:
124,289,24022,2,0,P|128:320|112:294,1,85,0|0,2:0|2:0,2:0:0:0:
372,188,24833,5,8,3:0:0:0:
372,188,24934,1,0,3:0:0:0:
372,188,25035,1,8,3:0:0:0:
372,188,25137,5,8,3:0:0:0:
302,193,25238,1,0,3:0:0:0:
242,165,25339,1,0,3:0:0:0:
226,102,25441,6,4,L|231:58,3,28.3333333333333,4|4|4|4,3:0|3:0|3:0|3:0,3:0:0:0:
209,209,25745,5,8,3:0:0:0:
294,246,25846,1,8,3:0:0:0:
394,237,25948,1,8,3:0:0:0:
302,193,26049,6,2,B|214:204|209:206|209:206|215:205|215:205|207:207|207:207|218:204|218:204|209:207|209:207|220:204|220:204|205:207|205:207|163:304,1,255.000009727478,0|4,1:0|1:0,1:0:0:0:
268,268,26860,5,0,1:0:0:0:
281,186,26995,1,0,1:0:0:0:
290,102,27130,1,0,1:0:0:0:
166,235,27265,6,0,P|193:208|228:193,1,76.4999976654053,0|0,1:0|1:0,1:0:0:0:
193,118,27468,2,0,P|157:133|128:157,1,76.4999976654053,0|0,1:0|1:0,1:0:0:0:
216,314,27670,6,0,P|232:280|268:268,2,76.4999976654053,0|0|0,1:0|1:0|1:0,1:0:0:0:
370,259,28076,6,4,P|356:256|341:239,5,33.9999989624024,4|4|4|4|4|4,1:0|1:0|1:0|1:0|1:0|1:0,1:0:0:0:
351,99,28481,5,0,1:0:0:0:
337,152,28633,1,0,1:0:0:0:
332,208,28785,1,0,1:0:0:0:
380,48,28887,6,0,P|352:95|338:146,1,101.999996887207,0|0,1:0|1:0,1:0:0:0:
332,190,29191,1,0,1:0:0:0:
333,238,29292,2,0,P|315:196|253:172,1,101.999996887207,0|0,1:0|1:0,1:0:0:0:
256,254,29596,1,2,1:0:0:0:
235,174,29698,2,0,B|191:188|180:224|180:224|184:213|187:207|187:207|169:241|173:255,1,127.499996109009,0|0,1:0|1:0,1:0:0:0:
170,275,30103,5,0,2:0:0:0:
167,263,30171,5,0,2:0:0:0:
160,242,30238,5,0,2:0:0:0:
152,220,30306,5,0,2:0:0:0:
141,188,30407,5,0,2:0:0:0:
128,145,30576,5,4,2:0:0:0:
108,84,30711,6,0,P|85:70|108:56,1,63.7500024318696,0|0,1:0|1:0,1:0:0:0:
183,171,30914,6,0,P|200:189|224:195,1,50.9999984436036,0|0,1:0|1:0,1:0:0:0:
327,162,31116,1,4,1:0:0:0:
324,212,31218,1,4,1:0:0:0:
306,246,31319,2,0,P|288:264|263:270,1,50.9999984436036,0|0,1:3|1:3,1:3:0:0:
321,120,31725,5,0,1:0:0:0:
302,81,31826,1,0,1:0:0:0:
272,50,31927,1,0,1:0:0:0:
232,31,32029,2,8,P|207:25|181:26,1,50.9999984436036,8|0,1:0|1:0,1:0:0:0:
165,143,32231,1,0,1:0:0:0:
207,138,32333,2,8,P|233:140|256:150,1,50.9999984436036,8|0,1:0|1:0,1:0:0:0:
295,171,32535,6,0,B|295:195|287:220|287:220|369:165,1,127.500004863739,0|0,1:0|1:0,1:0:0:0:
438,123,32839,1,4,1:0:0:0:
236,257,33143,6,0,L|288:221,1,63.7500024318696,0|0,1:0|1:0,1:0:0:0:
342,275,33346,5,0,2:0:0:0:
345,263,33414,5,0,2:0:0:0:
352,242,33481,5,0,2:0:0:0:
361,220,33549,5,0,2:0:0:0:
371,188,33650,5,0,2:0:0:0:
382,149,33827,6,0,L|406:73,1,79.687503039837
339,160,34157,6,0,B|276:209|187:189|187:189|206:244,1,191.250007295609,0|0,1:0|1:0,1:0:0:0:
161,120,34562,6,4,L|151:89,4,31.8750012159348,4|4|4|4|4,1:0|1:0|1:0|1:0|1:0,1:0:0:0:
212,262,34866,5,0,1:0:0:0:
187,191,34968,2,0,P|199:150|232:125,2,85.0000032424928,0|4|0,1:0|1:0|1:0,1:0:0:0:
303,82,35373,5,8,2:0:0:0:
290,73,35475,1,8,2:0:0:0:
363,149,35576,5,8,2:0:0:0:
357,135,35677,1,8,2:0:0:0:
371,225,35779,6,0,P|372:251|362:274,1,50.9999984436036,0|0,1:0|1:0,1:0:0:0:
210,164,36184,6,0,P|254:138|304:143,1,101.999996887207,0|0,1:0|1:0,1:0:0:0:
274,221,36488,1,0,1:0:0:0:
170,275,36589,5,0,2:0:0:0:
167,263,36657,5,0,2:0:0:0:
160,242,36724,5,0,2:0:0:0:
153,220,36792,5,0,2:0:0:0:
141,188,36893,5,0,2:0:0:0:
128,145,37062,5,4,2:0:0:0:
130,156,37198,6,0,P|153:133|162:103,1,63.7500024318696,0|0,1:0|1:0,1:0:0:0:
157,245,37400,6,0,B|227:202|239:142|239:142|284:184|348:186,1,255.000009727478,8|0,1:0|1:0,1:0:0:0:
182,325,38008,6,4,L|164:336,4,21.2500008106232,4|4|4|4|4,1:0|1:0|1:0|1:0|1:0,1:0:0:0:
248,288,38211,5,8,1:0:0:0:
290,222,38312,1,0,1:0:0:0:
272,151,38414,1,0,1:0:0:0:
221,94,38515,1,8,1:0:0:0:
219,169,38616,2,0,L|203:171,1,15.9375006079674,2|0,1:0|1:0,1:0:0:0:
275,221,38718,1,0,1:0:0:0:
347,226,38819,1,0,1:0:0:0:
414,204,38921,2,0,L|421:218,1,15.9375006079674,2|0,1:0|1:0,1:0:0:0:
171,180,39833,6,0,B|206:153|211:143|211:143|188:135,1,67.9999979248048,0|0,1:0|1:0,1:0:0:0:
95,159,40103,1,0,1:0:0:0:
251,206,40238,5,8,1:0:0:0:
251,206,40339,1,8,1:0:0:0:
94,158,40441,6,0,P|188:129|216:35,1,203.999993774414,0|0,1:0|1:0,1:0:0:0:
189,129,40947,1,0,1:0:0:0:
259,216,41049,6,4,P|271:229|287:232,5,33.9999989624024,4|4|4|4|4|4,1:0|1:0|1:0|1:0|1:0|1:0,1:0:0:0:
250,205,41454,5,0,1:0:0:0:
274,289,41589,1,4,1:0:0:0:
331,230,41725,1,0,1:0:0:0:
192,271,41860,5,0,1:0:0:0:
192,271,41961,2,0,P|145:229|141:167,1,127.500004863739,0|0,1:0|1:0,1:0:0:0:
283,96,42265,6,0,P|269:157|217:191,1,127.500004863739,0|0,1:0|1:0,1:0:0:0:
205,114,42569,1,2,1:0:0:0:
331,201,42671,2,0,B|291:257|224:263,1,127.500004863739,0|0,1:0|1:0,1:0:0:0:
246,178,42975,1,0,1:0:0:0:
342,275,43076,5,0,2:0:0:0:
345,263,43144,5,0,2:0:0:0:
352,242,43211,5,0,2:0:0:0:
361,220,43279,5,0,2:0:0:0:
371,188,43380,5,0,2:0:0:0:
384,145,43549,5,4,2:0:0:0:
126,96,43684,6,0,P|131:146|166:182,1,101.999996887207,0|0,1:0|1:0,1:0:0:0:
210,107,44022,5,0,1:0:0:0:
210,107,44140,1,0,1:0:0:0:
199,193,44292,6,0,P|225:194|248:183,1,50.9999984436036,0|0,1:0|1:0,1:0:0:0:
248,75,44495,2,0,P|225:87|210:107,1,50.9999984436036,0|0,1:0|1:0,1:0:0:0:
190,280,44698,6,0,L|266:288,1,76.4999976654053,0|8,1:0|1:0,1:0:0:0:
346,296,45001,1,4,1:0:0:0:
436,177,45508,6,0,P|395:130|333:131,1,127.500004863739,0|0,1:0|1:0,1:0:0:0:
277,196,45812,2,0,P|248:140|266:79,1,127.500004863739,0|0,1:0|1:0,1:0:0:0:
345,257,46117,6,0,P|320:278|290:288,1,63.7500024318696,0|0,3:0|3:0,3:0:0:0:
170,275,46319,5,0,2:0:0:0:
167,263,46387,5,0,2:0:0:0:
160,242,46454,5,0,2:0:0:0:
152,220,46522,5,0,2:0:0:0:
141,188,46623,5,0,2:0:0:0:
128,145,46792,5,4,2:0:0:0:
85,306,46927,6,0,L|69:333,1,31.8750012159348,0|0,1:0|1:0,1:0:0:0:
214,240,47130,6,0,P|243:198|290:180,1,101.999996887207,0|0,1:0|1:0,1:0:0:0:
183,135,47434,1,0,1:0:0:0:
132,203,47535,2,0,P|124:253|146:298,1,101.999996887207,0|0,1:0|1:0,1:0:0:0:
214,240,47839,1,0,1:0:0:0:
263,166,47941,6,0,P|269:132|260:100,1,67.9999979248048,4|0,1:0|1:0,1:0:0:0:
307,248,48211,1,0,1:0:0:0:
347,71,48481,6,0,P|359:120|359:170,1,101.999996887207,4|0,1:0|1:0,1:0:0:0:
256,285,49157,6,0,P|211:237|267:272,1,191.250007295609,0|0,1:0|1:0,1:0:0:0:
342,275,49562,5,0,2:0:0:0:
345,263,49630,5,0,2:0:0:0:
352,242,49697,5,0,2:0:0:0:
361,220,49765,5,0,2:0:0:0:
371,188,49866,5,0,2:0:0:0:
384,145,50035,5,4,2:0:0:0:
128,194,51995,6,0,P|171:168|179:119,1,101.999996887207,0|0,3:0|2:0,2:0:0:0:
209,289,52299,1,0,2:0:0:0:
208,289,52400,2,0,P|207:239|169:207,1,101.999996887207,0|0,2:0|2:0,2:0:0:0:
295,234,52806,2,0,P|345:235|382:201,1,101.999996887207,0|0,2:0|2:0,2:0:0:0:
295,234,53211,1,0,2:0:0:0:
236,124,53414,6,0,B|208:72|208:72|405:119,1,255.000009727478,0|0,2:0|2:0,2:0:0:0:
195,179,54022,2,0,L|293:152,1,101.999996887207,0|0,2:0|2:0,2:0:0:0:
184,291,54427,2,0,L|86:318,1,101.999996887207,0|0,2:0|2:0,2:0:0:0:
399,231,54833,1,8,2:0:0:0:
399,231,54934,2,0,L|300:257,1,101.999996887207,0|0,2:0|2:0,2:0:0:0:
183,291,55238,2,0,P|233:253|241:191,1,127.500004863739,0|4,3:0|2:0,2:0:0:0:
241,193,56860,5,0,3:0:0:0:
307,268,57062,2,0,B|350:228|333:158|333:158|377:217|377:217|378:119|484:114,1,340,0|8,3:0|2:0,3:0:0:0:
207,277,57873,5,0,3:0:0:0:
184,114,58076,1,8,3:0:0:0:
207,277,58177,1,0,3:0:0:0:
366,75,58481,6,0,P|360:124|317:149,1,101.999996887207,0|0,3:0|2:0,2:0:0:0:
410,246,58785,1,0,2:0:0:0:
410,245,58887,2,0,P|363:263|320:239,1,101.999996887207,8|0,2:0|2:0,2:0:0:0:
156,205,59292,2,0,P|205:199|230:156,1,101.999996887207,0|0,2:0|2:0,2:0:0:0:
253,282,59698,1,0,2:0:0:0:
395,237,59900,6,0,B|368:302|368:302|311:123,1,255.000009727478,0|0,2:0|2:0,2:0:0:0:
291,261,60508,2,0,L|322:164,1,101.999996887207,0|0,2:0|2:0,2:0:0:0:
197,220,60914,2,0,L|165:316,1,101.999996887207,0|0,2:0|2:0,2:0:0:0:
412,206,61319,1,0,2:0:0:0:
412,206,61420,2,0,L|443:109,1,101.999996887207,0|0,2:0|2:0,2:0:0:0:
303,263,61725,2,0,P|313:200|288:142,1,127.500004863739,0|4,2:0|2:0,2:0:0:0:
288,142,63346,5,0,3:0:0:0:
223,204,63549,6,0,P|198:127|249:63,1,170,4|0,3:0|3:0,3:0:0:0:
311,185,63853,2,8,P|294:265|217:294,1,170,4|0,3:0|3:0,3:0:0:0:
223,204,64157,2,8,P|233:123|306:86,1,170,4|0,3:0|3:0,3:3:0:0:
310,232,64461,2,8,P|255:292|174:280,1,170,4|0,3:0|3:0,3:0:0:0:
281,148,64765,6,0,B|323:141|323:141|361:157,1,85,8|0,3:0|3:0,3:0:0:0:
402,224,64968,5,0,3:0:0:0:
162,182,65373,1,0,2:0:0:0:
326,140,65779,1,0,2:0:0:0:
145,298,66184,1,0,2:0:0:0:
223,103,66590,1,0,2:0:0:0:
342,286,66995,1,0,2:0:0:0:
206,199,67400,1,0,2:0:0:0:
428,233,67806,1,0,2:0:0:0:
206,199,68211,1,0,3:0:0:0:
296,223,68414,6,0,P|271:225|247:218,1,50.9999984436036,0|0,1:0|1:0,1:0:0:0:
206,199,68617,1,0,1:0:0:0:
170,162,68718,1,0,1:0:0:0:
160,111,68819,1,0,1:0:0:0:
180,63,68921,1,4,1:0:0:0:
181,289,69225,6,0,P|179:264|186:240,1,50.9999984436036,0|0,1:0|1:0,1:0:0:0:
206,199,69428,1,0,1:0:0:0:
243,163,69529,1,0,1:0:0:0:
294,153,69630,1,0,1:0:0:0:
342,173,69732,1,4,1:0:0:0:
363,219,69833,5,0,3:0:0:0:
221,281,70036,2,0,B|203:227|276:226|276:226|163:202|207:47|306:69,1,340,0|0,1:0|1:0,1:0:0:0:
377,76,70542,6,4,L|419:80,2,42.5,4|4|4,1:0|1:0|1:0,1:0:0:0:
293,67,70745,1,0,1:0:0:0:
218,70,70846,1,8,1:0:0:0:
218,70,71150,5,8,1:0:0:0:
218,69,71454,6,0,P|202:90|200:115,1,50.9999984436036,0|0,3:0|2:0,2:0:0:0:
303,253,71657,1,8,2:0:0:0:
343,256,71758,1,0,2:0:0:0:
380,240,71859,1,8,2:0:0:0:
405,208,71961,1,0,2:0:0:0:
412,169,72062,1,0,2:0:0:0:
399,130,72163,1,8,2:0:0:0:
365,110,72265,6,0,P|341:106|317:116,1,50.9999984436036,0|0,2:0|2:0,2:0:0:0:
211,257,72468,1,8,2:0:0:0:
176,292,72569,1,0,2:0:0:0:
127,286,72670,1,8,2:0:0:0:
102,243,72772,1,0,2:0:0:0:
120,198,72873,1,0,2:0:0:0:
168,185,72974,1,8,2:0:0:0:
216,180,73076,6,0,L|266:172,1,50.9999984436036,0|0,2:0|2:0,2:0:0:0:
421,149,73279,1,8,2:0:0:0:
391,102,73380,1,0,2:0:0:0:
340,79,73481,1,8,2:0:0:0:
286,86,73583,1,0,2:0:0:0:
244,122,73684,1,0,2:0:0:0:
228,175,73785,1,8,2:0:0:0:
219,228,73887,6,0,L|187:187,1,50.9999984436036,0|0,2:0|2:0,2:0:0:0:
111,100,74090,1,8,2:0:0:0:
160,65,74191,1,0,2:0:0:0:
220,53,74292,1,8,2:0:0:0:
279,65,74394,1,0,2:0:0:0:
328,101,74495,1,0,2:0:0:0:
359,154,74596,1,8,2:0:0:0:
375,213,74698,5,8,1:0:0:0:
341,217,74799,1,0,1:0:0:0:
310,205,74900,1,0,1:0:0:0:
288,180,75002,1,0,1:0:0:0:
302,210,75103,5,8,1:0:0:0:
313,250,75204,1,0,1:0:0:0:
311,293,75305,1,0,1:0:0:0:
297,332,75407,1,0,1:0:0:0:
274,301,75509,5,8,1:0:0:0:
240,252,75610,1,0,1:0:0:0:
189,222,75711,1,0,1:0:0:0:
130,214,75813,1,0,1:0:0:0:
206,222,75914,5,8,1:0:0:0:
281,210,76015,1,0,1:0:0:0:
347,173,76116,1,0,1:0:0:0:
398,116,76218,1,0,1:0:0:0:
125,221,77941,6,0,P|139:140|210:100,1,170,0|0,3:0|2:0,2:0:0:0:
211,100,78549,2,0,P|205:204|310:207,1,233.750007133484,0|0,2:0|2:0,2:0:0:0:
384,202,79157,2,0,P|339:137|262:152,1,165.749992412568,0|0,2:0|2:0,2:0:0:0:
289,266,79562,6,0,P|306:238|310:207,1,63.7500024318696,0|0,2:0|2:0,2:0:0:0:
210,97,79765,2,0,P|190:125|181:158,1,68,0|0,2:0|2:0,2:0:0:0:
370,292,79968,2,0,B|390:257|390:257|389:225,1,72.2500013780594,0|0,2:0|2:0,2:0:0:0:
140,62,80171,2,0,B|112:94|112:94|105:127,1,76.4999976654053,0|0,2:0|2:0,2:0:0:0:
448,317,80373,1,6,2:0:0:0:
95,264,81184,6,0,B|61:139|201:31|312:91,1,340,0|0,3:0|1:0,1:0:0:0:
179,202,81792,2,0,P|285:271|231:157,1,340,0|0,1:0|1:0,1:0:0:0:
287,272,81995,1,2,1:0:0:0:
351,103,82400,2,0,P|399:173|408:257,1,170,0|0,1:0|1:0,1:0:0:0:
117,128,82806,6,0,P|264:63|393:161,1,340,0|0,1:0|1:0,1:0:0:0:
210,158,83414,2,0,B|146:208|150:316|150:316|239:209|316:224,1,340,0|0,1:0|1:0,1:0:0:0:
150,314,83617,1,2,1:0:0:0:
288,107,84022,2,0,P|218:63|141:93,1,170,0|0,1:0|1:0,1:0:0:0:
366,98,84427,6,0,B|396:168|283:252|211:158|211:158|244:252,1,340,0|0,1:0|1:0,1:0:0:0:
289,108,85035,2,0,B|223:22|101:83|130:186|130:186|157:268,1,340,0|0,1:0|1:0,1:0:0:0:
143,102,85238,1,2,1:0:0:0:
210,153,85644,2,0,B|239:236|239:236|320:243,1,170,0|0,1:0|1:0,1:0:0:0:
46,328,86049,6,0,B|71:246|146:231|146:231|84:47,1,340,0|0,1:0|1:0,1:0:0:0:
168,320,86657,2,0,P|229:266|224:185,1,170,0|0,1:0|1:0,1:0:0:0:
100,164,87062,6,0,P|133:191|175:192,1,85,0|0,3:0|3:0,3:0:0:0:
264,154,87265,2,0,P|291:121|292:79,1,85,0|0,3:0|3:0,3:0:0:0:
189,212,87468,1,4,3:0:0:0:
184,272,87569,1,4,3:0:0:0:
206,329,87670,6,0,P|352:259|350:98,1,340,0|0,1:0|1:0,1:0:0:0:
275,191,88278,2,0,B|246:264|134:232|134:232|234:175|204:85,1,340,0|0,1:0|1:0,1:0:0:0:
134,233,88482,1,2,1:0:0:0:
81,170,88887,2,0,P|50:244|98:310,1,170,0|0,1:0|1:0,1:0:0:0:
165,157,89292,6,0,B|217:177|241:258|183:302|183:302|365:283,1,340,0|0,1:0|1:0,1:0:0:0:
298,190,89900,2,0,B|269:105|181:68|181:68|274:84|351:31,1,340,0|0,1:0|1:0,1:0:0:0:
181,68,90103,1,2,1:0:0:0:
160,156,90509,2,0,P|212:217|184:294,1,170,0|0,1:0|1:0,1:0:0:0:
298,190,90914,6,0,B|315:240|285:312|285:312|436:132,1,340,0|0,1:0|1:0,1:0:0:0:
214,226,91522,2,0,B|189:157|237:103|293:103|293:103|117:117,1,340,0|0,1:0|1:0,1:0:0:0:
292,102,91725,1,2,1:0:0:0:
437,286,92130,2,0,L|297:189,1,170,0|0,1:0|1:0,1:0:0:0:
277,276,92536,6,0,P|221:143|367:136,1,340,0|0,1:0|1:0,1:0:0:0:
278,277,93346,5,0,1:0:0:0:
132,98,93549,6,0,L|192:119,1,63.7500024318696,0|0,1:0|1:0,1:0:0:0:
333,161,93752,1,2,1:0:0:0:
333,161,93853,2,0,L|276:189,1,63.7500024318696,0|0,1:0|1:0,1:0:0:0:
130,257,94056,1,2,1:0:0:0:
129,257,94157,6,0,P|140:216|167:183,1,85,0|0,1:0|1:0,1:0:0:0:
333,161,94360,1,0,1:0:0:0:
333,161,94461,1,0,1:0:0:0:
333,161,94563,2,0,P|296:139|254:137,1,85,0|0,1:0|1:0,1:0:0:0:
214,278,94765,2,0,P|250:257|273:222,1,85,0|0,1:0|1:0,1:0:0:0:
178,109,94968,1,4,1:0:0:0:
272,222,95171,6,0,P|250:257|214:278,1,85,0|0,1:0|1:0,1:0:0:0:
90,240,95373,2,0,P|71:203|71:161,1,85,0|0,1:0|1:0,1:0:0:0:
166,76,95576,2,0,P|208:78|243:99,1,85,0|0,1:0|1:0,1:0:0:0:
198,232,95779,2,0,P|176:197|179:155,1,85,0|0,1:0|1:0,1:0:0:0:
286,219,95982,2,0,P|286:261|263:296,1,85,4|0,1:0|1:0,1:0:0:0:
267,137,96184,2,0,P|309:134|345:156,1,85,0|0,1:0|1:0,1:0:0:0:
366,244,96387,2,0,P|348:281|312:302,1,85,0|0,1:0|1:0,1:3:0:0:
187,157,96590,1,4,1:0:0:0:
230,239,96792,6,2,P|263:212|278:172,1,85,2|0,1:0|1:0,1:0:0:0:
239,85,96995,2,2,P|199:69|158:76,1,85,2|0,1:0|1:0,1:0:0:0:
103,150,97198,1,4,1:0:0:0:
367,178,97400,6,0,L|282:168,1,85,0|0,1:0|1:0,1:0:0:0:
103,150,97603,1,0,1:0:0:0:
103,150,97705,1,0,1:0:0:0:
103,150,97806,2,0,L|187:157,1,85,0|0,1:0|1:0,1:0:0:0:
369,228,98009,2,0,L|284:220,1,85,0|0,1:0|1:0,1:0:0:0:
149,87,98211,1,4,1:0:0:0:
323,99,98414,6,0,L|238:91,1,85,0|0,1:0|1:0,1:0:0:0:
159,210,98617,2,0,L|243:217,1,85,0|0,1:0|1:0,1:0:0:0:
296,161,98819,2,0,L|211:153,1,85,0|0,1:0|1:0,1:0:0:0:
132,272,99022,2,0,L|216:279,1,85,0|0,1:0|1:0,1:0:0:0:
357,238,99225,2,0,L|272:230,1,85,4|0,1:0|1:0,1:0:0:0:
118,171,99428,2,0,L|202:178,1,85,0|0,1:0|1:0,1:0:0:0:
272,230,99630,6,4,L|296:264,3,42.5,4|4|4|4,2:0|2:0|2:0|2:0,2:0:0:0:
296,161,99833,5,8,2:0:0:0:
338,138,99934,1,0,2:0:0:0:
349,90,100036,1,0,2:0:0:0:
200,156,100137,5,8,2:0:0:0:
199,205,100238,1,0,2:0:0:0:
232,237,100340,1,0,2:0:0:0:
254,72,100441,5,8,2:0:0:0:
217,47,100542,1,0,2:0:0:0:
173,57,100643,6,0,P|135:79|111:113,1,85,0|0,1:0|1:0,1:0:0:0:
158,251,100846,1,0,1:3:0:0:
158,251,100948,1,0,1:3:0:0:
157,249,101049,2,0,P|119:230|100:193,1,85,0|0,1:3|1:3,1:3:0:0:
246,260,101252,2,0,P|230:298|199:327,1,85,0|0,1:3|1:3,1:3:0:0:
93,323,101455,1,4,1:0:0:0:
246,260,101657,6,0,L|326:232,1,85,0|0,1:0|1:0,1:0:0:0:
447,189,101860,2,0,L|366:160,1,85,0|0,1:0|1:0,1:0:0:0:
245,118,102062,2,0,L|325:90,1,85,0|0,1:0|1:0,1:0:0:0:
210,197,102265,2,0,L|129:225,1,85,0|0,1:0|1:0,1:0:0:0:
289,183,102468,2,0,L|369:210,1,85,4|0,1:0|1:0,1:0:0:0:
168,131,102671,2,0,L|87:102,1,85,0|0,1:0|1:0,1:0:0:0:
369,210,102873,2,0,L|449:238,1,85,0|0,1:0|1:0,1:0:0:0:
268,172,103076,1,4,1:0:0:0:
316,280,103278,6,0,P|344:310|385:319,1,85,0|0,1:0|1:0,1:0:0:0:
212,234,103481,2,0,P|181:262|172:303,1,85,0|0,1:0|1:0,1:0:0:0:
315,166,103684,1,4,1:0:0:0:
178,247,103887,6,0,P|187:206|218:177,1,85,0|0,1:0|1:0,1:0:0:0:
353,259,104090,1,0,1:0:0:0:
353,259,104191,1,0,1:0:0:0:
352,258,104292,2,0,P|343:299|312:328,1,85,0|0,1:0|1:0,1:0:0:0:
314,186,104495,2,0,P|353:172|393:184,1,85,0|0,1:0|1:0,1:0:0:0:
273,253,104698,1,4,1:0:0:0:
122,181,104901,6,0,L|198:217,1,85,0|0,1:0|1:0,1:0:0:0:
388,186,105103,2,0,L|311:149,1,85,0|0,1:0|1:0,1:0:0:0:
120,229,105306,2,0,B|159:261|159:261|192:268,1,85,0|0,1:0|1:0,1:0:0:0:
391,150,105508,2,0,B|360:123|360:123|317:113,1,85,0|0,1:0|1:0,1:0:0:0:
118,276,105711,2,0,B|146:314|146:314|183:314,1,85,4|0,1:0|1:0,1:0:0:0:
396,106,105913,2,0,B|367:78|367:78|322:79,1,85,0|0,1:0|1:0,1:0:0:0:
210,213,106116,6,0,B|215:259|265:251|265:251|263:292|263:292|326:321,1,170,0|0,3:0|3:0,3:0:0:0:
261,152,106522,2,0,B|249:137|245:94|245:94|213:136|185:141,1,127.500004863739,0|0,3:0|3:0,3:0:0:0:
214,268,106928,2,0,P|228:246|249:232,1,50.9999984436036,8|0,3:0|3:0,3:0:0:0:
388,214,107130,6,0,L|343:189,1,50.9999984436036,8|0,2:0|2:0,2:0:0:0:
151,120,107333,1,0,2:0:0:0:
174,102,107434,1,0,2:0:0:0:
196,91,107536,2,0,P|221:83|244:93,1,50.9999984436036,0|0,2:0|2:0,2:0:0:0:
246,303,107738,5,0,2:0:0:0:
233,276,107840,1,0,2:0:0:0:
219,253,107941,2,0,L|196:207,1,50.9999984436036,0|0,2:0|2:0,2:0:0:0:
266,81,108144,1,0,2:0:0:0:
279,108,108246,1,0,2:0:0:0:
293,131,108347,2,0,L|315:176,1,50.9999984436036,0|0,2:0|2:0,2:0:0:0:
134,253,108549,5,0,2:0:0:0:
144,228,108651,1,0,2:0:0:0:
167,210,108752,2,0,P|190:199|216:196,1,50.9999984436036,8|0,2:0|2:0,2:0:0:0:
385,171,108955,1,0,2:0:0:0:
381,144,109057,1,0,2:0:0:0:
366,121,109158,2,0,P|346:104|316:94,1,50.9999984436036,0|0,2:0|2:0,2:0:0:0:
227,311,109360,1,0,2:0:0:0:
248,294,109462,1,0,2:0:0:0:
260,267,109563,2,0,P|264:241|258:210,1,50.9999984436036,0|0,2:0|2:0,2:0:0:0:
75,138,109765,1,0,2:0:0:0:
100,147,109867,1,0,2:0:0:0:
129,144,109968,2,0,P|153:135|177:114,1,50.9999984436036,0|0,2:0|2:0,2:0:0:0:
78,256,110171,5,0,2:0:0:0:
128,257,110273,1,0,2:0:0:0:
174,238,110374,2,0,P|196:226|215:210,1,50.9999984436036,0|0,3:0|1:0,1:0:0:0:
310,70,110576,1,0,1:0:0:0:
321,122,110678,1,0,1:0:0:0:
332,175,110779,2,0,L|341:225,1,50.9999984436036,0|0,1:0|1:0,1:0:0:0:
163,162,110982,2,0,L|172:111,1,50.9999984436036,0|4,1:0|1:0,1:0:0:0:
309,70,111387,5,0,1:0:0:0:
326,154,111489,1,0,1:0:0:0:
345,233,111590,2,0,L|354:283,1,50.9999984436036,0|0,1:0|1:0,1:0:0:0:
91,147,111792,2,0,L|100:96,1,50.9999984436036,0|4,1:0|1:0,1:0:0:0:
76,295,111995,5,0,2:0:0:0:
115,300,112096,1,0,2:0:0:0:
155,296,112198,1,0,2:0:0:0:
186,283,112299,1,0,2:0:0:0:
249,171,112401,5,0,2:0:0:0:
208,171,112502,1,0,2:0:0:0:
172,158,112603,1,0,2:0:0:0:
143,131,112705,6,4,L|135:120,4,12.7499996109009,4|4|4|4|4,1:0|1:0|1:0|1:0|1:0,1:0:0:0:
192,164,112907,1,0,1:0:0:0:
248,170,113009,2,0,P|304:146|309:85,1,127.500004863739,0|0,3:0|1:0,1:0:0:0:
287,234,113313,2,0,P|356:188|381:108,1,170,0|0,3:0|1:0,1:0:0:0:
132,261,113617,6,0,L|117:301,1,42.5,0|0,2:0|2:0,2:0:0:0:
177,120,113819,1,0,2:0:0:0:
212,97,113921,1,0,2:0:0:0:
248,124,114022,1,0,2:0:0:0:
268,159,114124,1,0,2:0:0:0:
248,124,114225,1,0,2:0:0:0:
212,97,114326,1,0,2:0:0:0:
351,240,114630,5,0,2:0:0:0:
316,217,114732,1,0,2:0:0:0:
280,244,114833,1,0,2:0:0:0:
260,279,114935,1,0,2:0:0:0:
280,244,115036,1,0,2:0:0:0:
316,217,115137,1,0,2:0:0:0:
357,200,115238,6,0,L|398:192,1,42.5,0|0,1:0|1:0,1:0:0:0:
275,142,115441,1,0,1:0:0:0:
245,136,115542,1,0,1:0:0:0:
216,130,115643,1,4,1:0:0:0:
187,124,115745,1,0,1:0:0:0:
158,119,115846,1,0,1:0:0:0:
129,113,115947,1,4,1:0:0:0:
101,108,116049,6,0,L|59:100,1,42.5,0|0,1:0|1:0,1:0:0:0:
148,275,116252,1,0,1:0:0:0:
193,265,116353,1,0,1:0:0:0:
239,256,116454,1,4,1:0:0:0:
285,247,116556,1,0,1:0:0:0:
331,238,116657,1,0,1:0:0:0:
377,229,116758,1,4,1:0:0:0:
423,219,116860,6,0,L|464:211,1,42.5,0|0,1:0|1:0,1:0:0:0:
365,151,117063,1,0,1:0:0:0:
310,140,117164,1,0,1:0:0:0:
256,130,117265,1,4,1:0:0:0:
202,119,117367,1,0,1:0:0:0:
148,109,117468,1,0,1:0:0:0:
93,98,117569,1,4,1:0:0:0:
41,88,117671,6,0,L|0:80,1,42.5,0|0,1:0|1:0,1:0:0:0:
57,278,117874,1,0,1:0:0:0:
120,266,117975,1,0,1:0:0:0:
183,255,118076,1,4,1:0:0:0:
245,243,118178,1,0,1:0:0:0:
308,232,118279,1,0,1:0:0:0:
371,221,118380,1,4,1:0:0:0:
432,211,118482,5,0,3:0:0:0:
193,209,126590,5,0,2:0:0:0:
315,175,126792,1,0,2:0:0:0:
116,236,126995,2,4,L|156:223,1,42.5,4|4,2:0|2:0,2:0:0:0:
390,150,127198,2,4,L|349:162,1,42.5,4|4,2:0|2:0,2:0:0:0:
130,172,127401,1,0,2:0:0:0:
377,215,127603,1,0,2:0:0:0:
103,111,127806,1,0,2:0:0:0:
402,275,128009,1,0,2:0:0:0:
147,68,128211,5,0,2:0:0:0:
351,319,128414,1,0,2:0:0:0:
210,60,128617,2,4,L|216:101,1,42.5,4|4,2:0|2:0,2:0:0:0:
286,320,128820,2,4,L|279:278,1,42.5,4|4,2:0|2:0,2:0:0:0:
267,27,129022,1,0,2:0:0:0:
228,352,129225,1,0,2:0:0:0:
347,87,129428,1,0,2:0:0:0:
165,297,129630,1,0,2:0:0:0:
306,58,129833,6,0,L|279:46,3,28.3333333333333,0|0|0|0,3:0|3:0|3:0|3:0,3:0:0:0:
274,318,130238,6,4,L|247:328,3,28.3333333333333,4|4|4|4,3:0|3:0|3:0|3:0,3:0:0:0:
257,115,130643,6,0,L|228:111,3,28.3333333333333,0|0|0|0,3:0|3:0|3:0|3:0,3:0:0:0:
242,253,131049,6,4,L|213:256,3,28.3333333333333,4|4|4|4,3:0|3:0|3:0|3:0,3:0:0:0:
241,183,131454,5,12,1:0:0:0:
205,122,132772,2,0,B|154:150|152:191|152:191|179:178|199:179,1,127.500004863739,0|0,1:0|1:0,1:0:0:0:
291,204,133076,6,0,B|359:237|359:237|440:264|400:368|296:352|252:248|421:184|421:184|329:137,1,510,0|0,3:0|1:0,1:0:0:0:
223,88,133887,6,0,L|254:32,1,63.7500024318696,8|0,3:0|1:0,1:0:0:0:
200,190,134090,1,4,1:0:0:0:
200,190,134191,2,0,L|167:245,1,63.7500024318696,0|0,1:0|1:0,1:0:0:0:
294,157,134394,6,0,B|342:191|330:262|330:262|377:236,1,170,0|0,1:0|1:0,1:0:0:0:
232,241,134698,6,0,P|227:281|247:317,1,85,0|0,1:0|1:0,1:0:0:0:
284,142,134901,1,8,1:0:0:0:
284,142,135002,1,8,1:0:0:0:
284,141,135103,2,0,P|315:115|357:111,1,85,0|0,1:0|1:0,1:0:0:0:
232,241,135306,2,0,P|191:241|154:219,1,85,0|0,1:0|1:0,1:0:0:0:
108,96,135509,6,4,B|134:112|134:112|150:109|150:109|182:123,1,76.4999976654053,10|8,3:0|1:0,1:0:0:0:
310,159,135914,6,0,L|280:148,1,31.8750012159348,0|0,1:0|1:0,1:0:0:0:
279,148,136015,2,0,L|257:124,1,31.8750012159348,0|0,1:0|1:0,1:0:0:0:
257,124,136117,2,0,L|241:96,1,31.8750012159348,0|0,1:0|1:0,1:0:0:0:
241,95,136218,2,0,L|234:63,1,31.8750012159348,0|0,1:0|1:0,1:0:0:0:
239,64,136320,6,0,B|228:180|348:180|337:64|337:64|365:127|365:127|428:117|428:117|405:212|306:220,1,510,0|2,1:0|1:0,1:0:0:0:
251,231,137029,1,4,1:0:0:0:
176,239,137130,6,0,P|110:209|162:159,1,170,8|0,3:0|1:0,1:0:0:0:
176,240,137434,1,0,1:0:0:0:
161,159,137536,6,0,P|193:155|224:148,1,63.7500024318696,0|0,1:0|1:0,1:0:0:0:
384,105,137738,2,0,P|358:86|327:78,1,63.7500024318696,0|0,3:0|1:0,1:0:0:0:
252,271,137941,5,0,1:0:0:0:
292,263,138042,1,0,1:0:0:0:
272,111,138144,1,2,1:0:0:0:
228,110,138245,1,2,1:0:0:0:
332,255,138346,5,0,1:0:0:0:
374,248,138447,1,0,1:0:0:0:
187,108,138549,1,8,1:0:0:0:
147,109,138650,1,8,1:0:0:0:
110,109,138752,5,8,3:0:0:0:
169,125,138853,6,4,B|230:187|259:287|259:287|325:229,1,255,8|0,1:0|1:0,1:0:0:0:
363,104,139259,6,4,L|402:71,1,50.9999984436036,0|0,1:0|1:0,1:0:0:0:
228,138,139563,6,0,B|163:196|163:196|233:188|285:251|263:315,1,255,0|0,3:0|1:0,1:0:0:0:
177,285,139968,6,0,B|323:156|323:156|323:207|343:225,1,255,0|0,1:0|1:0,1:0:0:0:
249,105,140373,6,0,P|228:120|205:111,1,50.9999984436036,8|0,3:0|1:0,1:0:0:0:
150,192,140678,6,0,P|241:214|324:170,1,191.250007295609,0|0,1:0|1:0,1:0:0:0:
245,303,141184,5,0,1:0:0:0:
277,296,141286,1,0,1:0:0:0:
326,145,141387,1,4,1:0:0:0:
306,114,141488,1,0,1:0:0:0:
326,228,141590,6,0,P|294:221|268:204,1,63.7500024318696,0|0,3:0|1:0,1:0:0:0:
337,55,141792,2,0,P|368:63|393:83,1,63.7500024318696,0|0,1:0|1:0,1:0:0:0:
346,274,141995,6,0,B|292:241|301:177|301:177|279:249|193:247|160:207,1,255,8|0,3:0|1:0,1:0:0:0:
222,153,142401,6,0,L|205:125,1,31.8750012159348,0|0,1:0|1:0,1:0:0:0:
222,134,142502,2,0,L|221:102,1,31.8750012159348,0|0,1:0|1:0,1:0:0:0:
232,122,142603,2,0,L|247:94,1,31.8750012159348,0|0,1:3|1:3,1:3:0:0:
250,117,142705,2,0,L|277:100,1,31.8750012159348,0|0,1:0|1:0,1:0:0:0:
280,112,142806,6,0,B|325:140|391:138|391:138|344:152|306:184,1,212.5,0|0,1:0|1:0,1:0:0:0:
224,235,143414,5,4,1:0:0:0:
224,235,143516,1,4,1:0:0:0:
190,132,143617,6,0,P|137:168|113:225,1,127.500004863739,8|0,3:0|1:0,1:0:0:0:
271,100,143921,1,8,1:0:0:0:
264,184,144022,2,0,P|269:226|289:264,2,85,0|0|0,1:0|1:0|1:0,1:0:0:0:
271,100,144326,1,0,1:0:0:0:
318,168,144428,6,0,B|293:169|264:204|264:204|239:164|210:159,1,127.500004863739,0|0,2:0|2:0,2:0:0:0:
324,258,144833,2,0,B|288:262|257:307|257:307|230:258|199:250,1,170,0|0,2:0|2:0,2:0:0:0:
116,216,145137,5,2,2:0:0:0:
254,125,145239,6,0,P|213:126|177:148,1,85,0|0,2:0|2:0,2:0:0:0:
322,168,145644,2,0,P|273:128|210:128,1,127.500004863739,0|0,2:0|2:0,2:0:0:0:
129,190,146049,6,0,B|243:68|322:168|322:168|207:281|85:48,1,538.333333333333,0|0,3:0|1:0,1:0:0:0:
130,124,146759,1,0,1:0:0:0:
154,164,146860,2,0,L|189:217,1,63.7500024318696,8|0,3:0|1:0,1:0:0:0:
241,108,147063,1,0,1:0:0:0:
265,151,147164,1,0,1:0:0:0:
291,193,147266,2,0,L|326:246,1,63.7500024318696,0|0,1:0|1:0,1:0:0:0:
247,171,147468,1,0,1:0:0:0:
206,141,147570,6,0,P|204:109|219:81,1,63.7500024318696,4|0,1:0|1:0,1:0:0:0:
236,244,147874,2,0,P|220:272|195:291,1,63.7500024318696,8|0,1:3|1:3,1:3:0:0:
300,202,148076,1,4,1:0:0:0:
330,196,148178,1,4,1:0:0:0:
354,194,148279,2,0,P|386:193|415:206,1,63.7500024318696,0|0,1:3|1:3,1:3:0:0:
339,108,148482,1,8,3:0:0:0:
305,209,148684,6,0,L|279:190,1,31.8750012159348,0|0,1:0|1:0,1:0:0:0:
279,188,148786,2,0,L|256:165,1,31.8750012159348,0|0,1:0|1:0,1:0:0:0:
261,161,148887,2,0,L|244:133,1,31.8750012159348,0|0,1:0|1:0,1:0:0:0:
249,131,148989,2,0,L|241:99,1,31.8750012159348,0|0,1:0|1:0,1:0:0:0:
247,100,149090,2,0,L|250:68,1,31.8750012159348,0|0,1:0|1:0,1:0:0:0:
255,69,149191,2,0,L|271:41,1,31.8750012159348,0|0,1:0|1:0,1:0:0:0:
271,42,149293,6,0,B|267:53|267:53|252:90|252:90|252:90|252:90|248:99|248:99|268:52|268:52|267:52|267:52|183:248,1,318.750012159348,8|0,1:0|1:0,1:0:0:0:
214,170,149901,1,4,1:0:0:0:
247,110,150002,1,4,1:0:0:0:
306,78,150103,1,8,3:0:0:0:
247,109,150205,6,0,P|206:118|169:99,1,85,0|0,1:0|1:0,1:0:0:0:
290,193,150407,6,0,P|318:225|320:266,1,85,0|0,1:3|1:3,1:3:0:0:
164,205,150711,6,0,P|105:220|165:231,1,170,0|0,1:0|1:0,1:0:0:0:
169,178,151016,1,0,1:0:0:0:
176,143,151117,1,0,3:0:0:0:
179,111,151218,1,0,1:0:0:0:
182,83,151320,5,0,1:0:0:0:
185,46,151421,2,0,P|205:71|231:91,1,63.7500024318696,0|0,1:0|1:0,1:0:0:0:
314,128,151624,1,8,1:0:0:0:
399,157,151725,6,0,P|368:199|319:216,1,99.1666666666667,0|0,1:0|1:0,1:0:0:0:
169,178,152130,6,0,P|225:106|313:126,1,191.250007295609,0|0,1:0|1:0,1:0:0:0:
312,349,152536,6,0,L|255:189,1,170,0|0,3:0|1:0,1:0:0:0:
140,276,152840,2,4,P|123:300|123:271,1,76.4999976654053,0|2,1:0|1:0,1:0:0:0:
221,258,153245,1,4,1:0:0:0:
302,237,153347,6,0,P|315:207|310:176,1,63.7500024318696,8|0,3:0|1:0,1:0:0:0:
196,96,153549,2,0,P|164:99|139:118,1,63.7500024318696,0|0,1:0|1:0,1:0:0:0:
122,270,153752,2,0,P|142:295|171:306,1,63.7500024318696,0|0,1:0|1:0,1:0:0:0:
252,297,153954,1,8,1:0:0:0:
252,297,154056,1,8,1:0:0:0:
252,297,154157,6,0,P|233:286|223:268,1,42.5,0|0,1:0|1:0,1:0:0:0:
222,202,154360,1,4,1:0:0:0:
268,154,154462,1,0,1:0:0:0:
337,155,154563,2,0,P|323:165|315:178,1,31.8750012159348,0|0,1:0|1:0,1:0:0:0:
299,224,154766,1,4,1:0:0:0:
295,275,154866,1,8,1:0:0:0:
314,324,154968,6,0,P|293:281|298:234,1,95.6250036478044,0|0,1:0|1:0,1:0:0:0:
317,209,155171,1,4,1:0:0:0:
338,187,155239,1,4,1:0:0:0:
364,173,155306,1,4,1:0:0:0:
400,163,155374,1,4,1:0:0:0:
447,161,155441,1,4,1:0:0:0:
278,147,155576,6,8,L|341:151,2,63.7500024318696,8|8|8,1:0|1:0|1:0,1:0:0:0:
221,213,155982,2,0,B|176:180|179:112|223:80|223:80|130:119,1,255,0|0,1:0|1:0,1:0:0:0:
336,31,156489,1,0,1:0:0:0:
314,40,156590,2,0,L|254:63,1,63.7500024318696,8|0,3:0|1:0,1:0:0:0:
201,219,156793,2,0,L|141:242,1,63.7500024318696,0|0,1:0|1:0,1:0:0:0:
237,138,156995,6,0,P|265:155|282:181,1,63.7500024318696,0|0,1:0|1:0,1:0:0:0:
186,278,157147,1,12,1:0:0:0:
186,278,157198,2,0,P|186:246|199:217,1,63.7500024318696,0|0,1:0|1:0,1:0:0:0:
313,100,157401,6,0,P|320:162|283:213,1,127.500004863739,0|0,1:0|1:0,1:0:0:0:
148,141,157705,1,0,1:0:0:0:
154,55,157805,2,0,P|211:81|237:138,1,127.500004863739,0|0,1:0|1:0,1:0:0:0:
88,203,158110,1,0,1:0:0:0:
237,138,158211,1,8,3:0:0:0:
151,307,159022,6,0,P|198:267|196:205,1,127.500004863739,0|0,2:0|2:0,2:0:0:0:
183,179,159326,1,8,2:0:0:0:
196,205,159428,2,0,P|245:245|307:238,1,127.500004863739,0|0,2:0|2:0,2:0:0:0:
284,101,159833,2,0,L|268:162,1,63.7500024318696,0|0,2:0|2:0,2:0:0:0:
272,74,160036,1,4,2:0:0:0:
320,84,160239,2,0,L|304:145,1,63.7500024318696,0|0,2:0|2:0,2:0:0:0:
304,54,160441,6,0,P|241:147|159:70,1,255.000009727478,4|0,2:0|2:0,2:0:0:0:
173,140,160948,1,8,2:0:0:0:
158,70,161049,2,0,P|238:109|218:195,1,191.250007295609,0|0,2:0|2:0,2:0:0:0:
324,151,161556,2,0,P|323:119|316:88,1,63.7500024318696,0|0,2:0|2:0,2:0:0:0:
201,267,161860,1,0,2:0:0:0:
220,138,162063,1,0,2:0:0:0:
351,162,162266,6,0,P|313:212|252:212,1,127.500004863739,0|0,2:0|2:0,2:0:0:0:
351,162,162570,1,8,2:0:0:0:
393,240,162671,2,0,P|347:284|285:295,1,127.500004863739,0|0,2:0|2:0,2:0:0:0:
262,127,163076,2,0,L|293:182,1,63.7500024318696,0|0,2:0|2:0,2:0:0:0:
184,100,163279,1,4,2:0:0:0:
186,203,163482,2,0,L|217:258,1,63.7500024318696,0|0,2:0|2:0,2:0:0:0:
109,184,163685,1,4,2:0:0:0:
269,184,163887,6,0,P|228:136|167:133,1,127.500004863739,0|0,2:0|2:0,2:0:0:0:
109,184,164191,1,8,2:0:0:0:
168,134,164293,2,0,L|284:82,1,127.500004863739,0|0,2:0|2:0,2:0:0:0:
360,76,164597,1,0,2:0:0:0:
282,216,164799,2,0,L|314:160,1,63.7500024318696,0|0,2:0|2:0,2:0:0:0:
238,295,165103,1,0,2:0:0:0:
360,76,165306,5,2,2:0:0:0:
237,295,165509,6,0,P|236:234|180:210,1,127.500004863739,0|0,2:0|2:0,2:0:0:0:
238,295,165813,1,8,2:0:0:0:
179,210,165914,2,0,P|207:154|266:133,1,127.500004863739,0|0,2:0|2:0,2:0:0:0:
322,237,166320,2,0,P|290:235|263:219,1,63.7500024318696,0|0,2:0|2:0,2:0:0:0:
215,97,166522,1,4,2:0:0:0:
178,271,166725,2,0,P|171:240|179:209,1,63.7500024318696,0|0,2:0|2:0,2:0:0:0:
288,124,166927,1,4,2:0:0:0:
179,212,167130,6,0,P|197:297|282:279,1,191.250007295609,0|0,2:0|2:0,2:0:0:0:
391,189,167536,2,0,P|306:207|287:122,1,191.250007295609,0|0,2:0|2:0,2:0:0:0:
217,187,168043,1,0,2:0:0:0:
286,123,168144,1,0,2:0:0:0:
180,271,168347,2,0,P|119:203|153:119,1,191.250007295609,0|0,2:0|2:0,2:0:0:0:
349,125,168752,6,0,P|296:160|234:155,1,127.500004863739,0|0,2:0|2:0,2:0:0:0:
234,155,169056,1,8,2:0:0:0:
291,297,169158,2,0,P|294:228|262:177,1,127.500004863739,0|0,2:0|2:0,2:0:0:0:
197,289,169563,2,0,P|159:260|207:264,1,127.500004863739,0|4,2:0|2:0,2:0:0:0:
68,288,169968,2,0,P|88:197|169:152,1,191.250007295609,0|4,2:0|2:0,2:0:0:0:
168,254,170374,6,0,P|229:240|261:187,1,127.500004863739,0|0,2:0|2:0,2:0:0:0:
169,255,170678,1,8,2:0:0:0:
251,250,170779,2,0,P|303:175|258:96,1,191.250007295609,0|0,2:0|2:0,2:0:0:0:
259,97,171286,5,2,2:0:0:0:
259,97,171387,1,2,2:0:0:0:
259,97,171590,1,0,2:0:0:0:
259,97,171793,1,0,2:0:0:0:
127,180,171995,6,0,L|172:157,1,50.9999984436036,0|0,3:0|1:0,1:0:0:0:
337,227,172198,1,4,1:0:0:0:
312,219,172299,1,4,1:0:0:0:
293,211,172401,2,0,L|246:189,1,50.9999984436036,0|0,1:0|1:0,1:0:0:0:
303,295,172603,2,0,L|349:316,1,50.9999984436036,0|0,1:0|1:0,1:0:0:0:
137,219,172908,2,0,L|183:240,1,50.9999984436036,0|0,1:0|1:0,1:0:0:0:
272,139,173212,2,0,L|225:160,1,50.9999984436036,0|0,1:0|1:0,1:0:0:0:
218,305,173414,2,0,L|264:283,1,50.9999984436036,0|0,1:0|1:0,1:0:0:0:
142,188,173617,6,0,P|153:211|172:229,1,50.9999984436036,0|0,1:0|1:0,1:0:0:0:
196,40,173820,1,4,1:0:0:0:
176,50,173921,1,4,1:0:0:0:
161,65,174022,2,0,P|145:86|139:110,1,50.9999984436036,0|0,1:0|1:0,1:0:0:0:
269,168,174225,2,0,P|258:145|239:127,1,50.9999984436036,0|0,1:0|1:0,1:0:0:0:
262,264,174529,2,0,P|249:287|229:303,1,50.9999984436036,0|0,1:0|1:0,1:0:0:0:
315,150,174833,2,0,P|341:149|365:158,1,50.9999984436036,0|0,1:0|1:0,1:0:0:0:
189,160,175036,2,0,P|175:138|170:113,1,50.9999984436036,0|0,1:0|1:0,1:0:0:0:
262,265,175239,6,0,L|310:280,1,50.9999984436036,0|0,1:0|1:0,1:0:0:0:
232,175,175441,1,4,1:0:0:0:
207,167,175543,1,4,1:0:0:0:
189,160,175644,2,0,L|140:144,1,50.9999984436036,0|0,1:0|1:0,1:0:0:0:
319,141,175847,2,0,P|323:165|322:191,1,50.9999984436036,0|0,1:0|1:0,1:0:0:0:
385,81,176049,2,0,P|362:58|332:51,1,63.7499980545045,0|0,1:0|1:0,1:0:0:0:
248,198,176252,2,0,P|271:220|302:227,1,63.7499980545045,0|0,1:0|1:0,1:0:0:0:
230,114,176455,6,0,P|188:136|162:176,1,95.6250036478044,0|0,1:0|1:0,1:0:0:0:
155,193,176658,2,0,P|195:219|217:261,1,95.6250036478044,0|0,1:0|1:0,1:0:0:0:
223,280,176860,2,0,L|286:208,1,95.6250036478044,0|0,1:0|1:0,1:0:0:0:
299,194,177063,2,0,L|235:122,1,95.6250036478044,0|0,1:0|1:0,1:0:0:0:
220,100,177266,2,0,P|258:71|305:70,1,95.6250036478044,0|0,1:0|1:0,1:0:0:0:
321,83,177468,2,0,P|327:130|304:171,1,95.6250036478044,0|0,1:0|1:0,1:0:0:0:
293,185,177671,2,0,P|249:167|225:127,1,95.6250036478044,0|0,1:0|1:0,1:0:0:0:
225,127,177874,6,0,P|282:184|360:162,1,170,0|12,1:0|1:0,1:0:0:0:
83,192,178482,6,0,L|175:335,1,170,0|0,2:0|2:0,2:0:0:0:
177,87,178786,1,8,2:0:0:0:
202,95,178887,2,0,L|253:257,1,170,0|0,2:0|2:0,2:0:0:0:
327,62,179191,1,8,2:0:0:0:
349,76,179292,2,0,L|357:245,1,170,0|0,2:0|2:0,2:0:0:0:
279,137,179698,2,0,L|275:52,1,85,0|4,2:0|2:0,2:0:0:0:
429,191,179901,2,0,L|432:275,1,85,0|4,2:0|2:0,2:0:0:0:
367,121,180104,6,0,P|319:55|237:55,1,170,0|0,2:0|2:0,2:0:0:0:
283,210,180408,1,8,2:0:0:0:
308,201,180509,2,0,P|244:149|164:168,1,170,0|0,2:0|2:0,2:0:0:0:
240,316,180813,1,8,2:0:0:0:
264,297,180914,2,0,P|189:263|117:302,1,170,0|0,2:0|2:0,2:0:0:0:
54,250,181320,2,0,P|81:218|117:197,1,85,0|4,2:0|2:0,2:0:0:0:
256,195,181522,2,0,P|295:214|325:243,1,85,0|4,2:0|2:0,2:0:0:0:
186,189,181725,6,0,P|233:124|313:133,1,170,0|0,1:0|1:0,1:0:0:0:
310,262,182029,1,8,1:0:0:0:
312,245,182131,2,0,P|265:180|185:189,1,170,0|0,1:0|1:0,1:0:0:0:
185,316,182435,1,8,1:0:0:0:
185,301,182536,2,0,P|232:236|312:245,1,170,0|0,1:0|1:0,1:0:0:0:
185,302,182840,1,8,1:0:0:0:
192,206,182941,6,0,P|214:169|251:149,1,85,0|0,1:0|1:0,1:0:0:0:
328,128,183144,2,0,P|306:92|269:72,1,85,0|0,1:0|1:0,1:0:0:0:
251,150,183347,2,0,P|272:187|309:207,1,85,0|0,1:0|1:0,1:0:0:0:
269,72,183549,2,0,P|227:71|191:92,1,85,0|0,1:0|1:0,1:0:0:0:
175,172,183752,2,0,P|196:209|233:229,1,85,0|0,1:0|1:0,1:0:0:0:
308,207,183955,2,0,P|329:170|328:128,1,85,0|0,1:0|1:0,1:0:0:0:
252,150,184158,2,0,P|230:186|231:228,1,85,0|0,1:0|1:0,1:0:0:0:
288,281,184360,2,0,P|330:281|366:259,1,85,0|0,1:0|1:0,1:0:0:0:
176,173,184563,1,12,1:0:0:0:
