osu file format v14

[General]
AudioFilename: audio.mp3
AudioLeadIn: 0
PreviewTime: 807
Countdown: 0
SampleSet: Soft
StackLeniency: 0.2
Mode: 0
LetterboxInBreaks: 0
WidescreenStoryboard: 0

[Editor]
DistanceSpacing: 1.3
BeatDivisor: 4
GridSize: 8
TimelineZoom: 1.3

[Metadata]
Title:wii theme but its the worst thing you will ever hear
TitleUnicode:wii theme but its the worst thing you will ever hear
Artist:Mr Rock
ArtistUnicode:Mr Rock
Creator:OliBomby
Version:Doot
Source:
Tags:torture
BeatmapID:1554435
BeatmapSetID:736518

[Difficulty]
HPDrainRate:5
CircleSize:5
OverallDifficulty:8
ApproachRate:9
SliderMultiplier:2.5
SliderTickRate:1

[Events]
//Background and Video events
0,0,"maxresdefault (5).jpg",0,0
//Break Periods
2,110015,111217
//Storyboard Layer 0 (Background)
//Storyboard Layer 1 (Fail)
//Storyboard Layer 2 (Pass)
//Storyboard Layer 3 (Foreground)
//Storyboard Sound Samples

[TimingPoints]
807,526.315789473684,4,2,0,40,1,0
9754,-200,4,2,0,40,0,0
14885,-200,4,2,0,5,0,0
15017,-200,4,2,0,40,0,0
15148,-200,4,2,0,5,0,0
15280,-200,4,2,0,40,0,0
15411,-200,4,2,0,5,0,0
15543,-200,4,2,0,40,0,0
16596,-200,4,2,0,5,0,0
17649,-200,4,2,0,40,0,0
23964,-100,4,2,0,40,0,0
26070,-200,4,2,0,40,0,0
32122,-200,4,2,0,5,0,0
35543,-200,4,2,0,5,0,0
36596,-200,4,2,0,40,0,0
57385,-200,4,2,0,5,0,0
57912,-200,4,2,0,40,0,0
59754,-100,4,2,0,40,0,0
60675,-200,4,2,0,5,0,0
61859,-200,4,2,0,40,0,0
62385,-200,4,2,0,5,0,0
62649,-200,4,2,0,30,0,0
63175,-200,4,2,0,5,0,0
63701,-200,4,2,0,30,0,0
64228,-200,4,2,0,5,0,0
64754,-200,4,2,0,30,0,0
65543,-200,4,2,0,5,0,0
66070,-200,4,2,0,40,0,0
71333,-200,4,2,0,5,0,0
71859,-200,4,2,0,40,0,0
73438,-200,4,2,0,5,0,0
74491,-200,4,2,0,40,0,0
80543,-200,4,2,0,40,0,1
80806,-133.333333333333,4,2,0,40,0,1
82254,-133.333333333333,4,2,0,5,0,1
82320,-200,4,2,0,40,0,1
86810,500,4,2,0,40,1,1
102060,-100,4,2,0,40,0,0
102810,500.417014178482,4,2,0,40,1,0
102810,-200,4,2,0,40,0,0
108564,-200,4,2,0,5,0,0
109565,-50,4,2,0,5,0,0
111817,-200,4,2,0,5,0,0
112818,-200,4,2,0,40,0,0
128831,-200,4,2,0,40,0,0
130833,-50,4,2,0,40,0,0
132584,-200,4,2,0,5,0,0
133085,-200,4,2,0,20,0,0
138089,-200,4,2,0,15,0,0
139090,-200,4,2,0,10,0,0
140341,-200,4,2,0,5,0,0

[Colours]
Combo1 : 0,175,242
Combo2 : 255,255,255
Combo3 : 83,217,255

[HitObjects]
256,192,807,5,0,0:0:0:0:
304,176,1333,1,0,0:0:0:0:
352,160,1596,1,0,0:0:0:0:
256,192,2122,1,0,0:0:0:0:
256,192,2649,1,0,0:0:0:0:
192,288,2912,5,0,0:0:0:0:
192,288,3175,1,0,0:0:0:0:
192,288,3438,1,0,0:0:0:0:
192,288,5017,5,0,0:0:0:0:
192,288,5280,1,0,0:0:0:0:
160,176,5543,1,0,0:0:0:0:
208,128,5806,1,0,0:0:0:0:
96,240,6333,1,0,0:0:0:0:
80,144,6859,1,0,0:0:0:0:
192,48,7122,6,0,B|216:24|216:24|224:48|224:48|240:32|240:32|256:64|256:64|256:176|400:192|432:80|432:80|464:80|480:48,1,437.5
192,288,8175,5,0,0:0:0:0:
416,240,9228,5,0,0:0:0:0:
351,192,9754,2,0,P|373:169|402:159,1,62.5
288,144,10543,1,0,0:0:0:0:
272,224,11070,1,0,0:0:0:0:
304,56,11596,1,0,0:0:0:0:
432,128,12122,2,0,P|464:136|456:160,1,62.5
368,88,12912,1,0,0:0:0:0:
368,320,13438,5,0,0:0:0:0:
368,320,13701,1,0,0:0:0:0:
368,320,13964,1,0,0:0:0:0:
398,312,14885,6,0,L|366:320,1,31.25
398,312,15148,2,0,L|366:320,1,31.25
398,312,15411,2,0,L|366:320,1,31.25
144,368,16596,6,0,P|168:328|208:304,1,93.75
272,312,17122,2,0,P|312:288|336:240,1,93.75
256,232,17649,5,0,0:0:0:0:
168,208,18175,1,0,0:0:0:0:
168,128,18438,1,0,0:0:0:0:
96,24,18964,1,0,0:0:0:0:
96,192,19491,1,0,0:0:0:0:
96,304,19754,5,0,0:0:0:0:
96,304,20017,1,0,0:0:0:0:
96,304,20280,1,0,0:0:0:0:
96,304,20806,5,0,0:0:0:0:
96,304,21069,1,0,0:0:0:0:
96,304,21332,1,0,0:0:0:0:
0,176,21859,5,0,0:0:0:0:
64,152,22122,1,0,0:0:0:0:
104,96,22385,1,0,0:0:0:0:
112,16,22649,1,0,0:0:0:0:
112,224,23175,1,0,0:0:0:0:
176,224,23701,1,0,0:0:0:0:
200,136,23964,6,0,B|208:56|208:56|212:14|250:-6|288:18|284:61|284:61|283:194|368:268,1,437.5
0,0,25017,5,0,0:0:0:0:
0,0,25280,1,0,0:0:0:0:
0,0,25543,1,0,0:0:0:0:
432,287,26070,6,0,P|402:297|378:317,1,62.5
336,368,26596,1,0,0:0:0:0:
432,288,26859,5,0,0:0:0:0:
208,328,27385,5,0,0:0:0:0:
148,299,27649,1,0,0:0:0:0:
88,312,27912,1,0,0:0:0:0:
104,224,28175,1,0,0:0:0:0:
140,164,28438,1,0,0:0:0:0:
88,120,28701,1,0,0:0:0:0:
104,224,28964,5,0,0:0:0:0:
200,96,29491,5,0,0:0:0:0:
256,120,29754,1,0,0:0:0:0:
312,144,30017,1,0,0:0:0:0:
312,320,30280,5,0,0:0:0:0:
312,320,30543,1,0,0:0:0:0:
312,320,30806,1,0,0:0:0:0:
451,66,32122,6,0,L|402:109,1,62.5
451,66,32649,6,0,L|402:109,1,62.5
451,66,33175,6,0,L|402:109,1,62.5
451,66,34491,6,0,L|402:109,1,62.5
49,309,35543,6,0,P|72:352|112:336,1,93.75
128,328,36070,2,0,P|168:312|192:352,1,93.75
512,192,36596,5,0,0:0:0:0:
368,192,37385,5,0,0:0:0:0:
512,192,37649,1,0,0:0:0:0:
512,192,39228,5,0,0:0:0:0:
439,192,39491,1,0,0:0:0:0:
368,192,39754,1,0,0:0:0:0:
439,76,40017,1,0,0:0:0:0:
439,76,40543,5,0,0:0:0:0:
512,192,40806,1,0,0:0:0:0:
368,192,41596,5,0,0:0:0:0:
512,192,41859,1,0,0:0:0:0:
224,216,43964,5,0,0:0:0:0:
224,152,44491,1,0,0:0:0:0:
224,88,45017,1,0,0:0:0:0:
224,216,45806,5,0,0:0:0:0:
224,88,46070,1,0,0:0:0:0:
136,168,47649,5,0,0:0:0:0:
136,232,47912,1,0,0:0:0:0:
136,168,48175,1,0,0:0:0:0:
136,104,48438,1,0,0:0:0:0:
256,207,48964,6,0,P|239:232|253:259,2,62.5
352,256,49754,2,0,L|336:328,2,62.5
467,246,50543,2,0,P|470:276|448:296,1,62.5
368,192,51070,1,0,0:0:0:0:
384,104,51333,2,0,L|396:42,2,62.5
288,136,52122,1,0,0:0:0:0:
200,56,52385,5,0,0:0:0:0:
200,56,52649,1,0,0:0:0:0:
200,56,52912,1,0,0:0:0:0:
72,240,53438,5,0,0:0:0:0:
72,240,53964,5,0,0:0:0:0:
72,240,54228,5,0,0:0:0:0:
72,240,54754,5,0,0:0:0:0:
72,240,55280,5,0,0:0:0:0:
200,56,55543,5,0,0:0:0:0:
200,56,55807,1,0,0:0:0:0:
200,56,56070,1,0,0:0:0:0:
130,212,57385,6,0,P|162:220|194:220,1,62.5
72,240,57912,5,0,0:0:0:0:
72,240,58175,5,0,0:0:0:0:
72,240,58438,5,0,0:0:0:0:
72,240,58964,5,0,0:0:0:0:
72,240,59491,5,0,0:0:0:0:
168,160,59754,6,0,B|240:152|288:120|288:120|352:80|288:0|208:72|272:120|272:120|296:136|328:152|328:152|344:184|328:224,1,437.5
334,219,60806,6,0,B|343:225|343:225|327:230|327:230|339:240|339:240|328:248|338:270,1,62.5
454,313,61859,5,0,0:0:0:0:
296,319,62385,2,0,P|330:328|359:327,1,62.5
334,183,63175,2,0,P|341:220|335:252,1,62.5
276,117,63701,1,0,0:0:0:0:
431,103,64228,2,0,P|400:95|370:100,1,62.5
493,148,64754,1,0,0:0:0:0:
493,148,65017,1,0,0:0:0:0:
482,12,65543,2,0,P|499:43|501:72,1,62.5
501,248,66070,5,0,0:0:0:0:
501,248,66333,1,0,0:0:0:0:
501,248,66596,1,0,0:0:0:0:
501,248,66859,1,0,0:0:0:0:
501,248,67122,1,0,0:0:0:0:
501,248,67385,1,0,0:0:0:0:
501,248,67649,1,0,0:0:0:0:
501,248,67912,1,0,0:0:0:0:
501,248,68175,1,0,0:0:0:0:
501,248,68438,1,0,0:0:0:0:
501,248,68701,1,0,0:0:0:0:
501,248,68964,1,0,0:0:0:0:
501,248,69228,1,0,0:0:0:0:
501,248,69491,1,0,0:0:0:0:
501,248,69754,1,0,0:0:0:0:
501,248,70017,1,0,0:0:0:0:
501,248,70280,1,0,0:0:0:0:
501,248,70543,1,0,0:0:0:0:
501,248,70806,1,0,0:0:0:0:
501,248,71070,1,0,0:0:0:0:
436,305,71333,6,0,P|389:308|346:290,1,93.75
501,248,71859,5,0,0:0:0:0:
501,248,72122,1,0,0:0:0:0:
501,248,72385,1,0,0:0:0:0:
501,248,72649,1,0,0:0:0:0:
501,248,72912,1,0,0:0:0:0:
501,248,73175,1,0,0:0:0:0:
436,305,73438,6,0,P|389:308|346:290,1,93.75
327,276,73964,2,0,P|282:261|236:266,1,93.75
200,280,74491,5,0,0:0:0:0:
200,280,75017,1,0,0:0:0:0:
200,168,75280,1,0,0:0:0:0:
152,224,75806,1,0,0:0:0:0:
152,240,76333,1,0,0:0:0:0:
152,344,76596,5,0,0:0:0:0:
152,344,76662,1,0,0:0:0:0:
152,344,76728,1,0,0:0:0:0:
152,344,76793,1,0,0:0:0:0:
152,344,76859,1,0,0:0:0:0:
152,344,76925,1,0,0:0:0:0:
152,344,76991,1,0,0:0:0:0:
152,344,77056,1,0,0:0:0:0:
152,344,77122,1,0,0:0:0:0:
160,88,77649,5,0,0:0:0:0:
160,88,77912,1,0,0:0:0:0:
160,88,77978,1,0,0:0:0:0:
160,88,78043,1,0,0:0:0:0:
160,88,78109,1,0,0:0:0:0:
160,88,78175,1,0,0:0:0:0:
304,192,78701,5,0,0:0:0:0:
304,128,78964,1,0,0:0:0:0:
304,64,79228,1,0,0:0:0:0:
304,0,79491,1,0,0:0:0:0:
304,128,80017,1,0,0:0:0:0:
102,311,80543,5,0,0:0:0:0:
102,311,80675,1,0,0:0:0:0:
102,311,80806,2,0,P|154:290|199:305,1,93.7500035762788
198,306,81135,1,0,0:0:0:0:
207,309,81201,2,0,P|229:334|283:274,1,140.625005364418
265,189,81859,2,0,P|292:120|330:67,1,140.625005364418
336,63,82320,6,0,B|392:-15|480:75|392:166|336:88|336:88|336:340|336:340|336:361|310:383|281:361|281:340|281:340|281:88|281:88|223:171|139:67|230:-12|281:63,1,1046.875
288,64,86810,6,0,P|312:192|288:320,1,250
91,300,87810,6,0,P|72:178|96:56,1,250
160,184,88810,1,0,0:0:0:0:
240,88,89185,1,0,0:0:0:0:
320,176,89560,1,0,0:0:0:0:
360,120,89810,1,0,0:0:0:0:
280,232,90185,1,0,0:0:0:0:
136,192,90560,1,0,0:0:0:0:
192,240,90810,1,0,0:0:0:0:
120,368,91185,1,0,0:0:0:0:
248,288,91560,1,0,0:0:0:0:
304,328,91810,2,0,B|456:328|456:328|373:380,1,250
512,64,94810,6,0,P|376:48|256:64,1,250
264,224,95810,2,0,P|387:237|511:221,1,250
392,136,96560,5,0,0:0:0:0:
392,136,96685,1,0,0:0:0:0:
392,136,96810,2,0,L|200:136,1,187.5
160,72,97560,1,0,0:0:0:0:
160,200,97810,2,0,P|165:287|133:205,1,250
157,244,98560,5,0,0:0:0:0:
157,244,98685,1,0,0:0:0:0:
157,244,98810,2,0,P|248:263|339:243,2,187.5
96,120,99810,2,0,P|60:245|88:368,1,250
427,360,100560,2,0,P|451:238|416:120,1,250
256,0,101310,6,0,B|222:146|288:232|256:384,1,375
72,292,102810,6,0,P|52:267|39:239,2,62.5
152,324,103560,2,0,P|224:281|237:240,1,125
207,159,104311,1,0,0:0:0:0:
146,229,104561,1,0,0:0:0:0:
105,148,104811,2,0,P|110:117|104:87,2,62.5
206,158,105562,2,0,P|233:104|290:80,1,125
373,123,106312,1,0,0:0:0:0:
292,169,106563,1,0,0:0:0:0:
512,0,106813,5,0,0:0:0:0:
512,0,107063,1,0,0:0:0:0:
512,0,107313,1,0,0:0:0:0:
380,339,108564,6,0,L|444:315,1,62.5
380,275,109065,2,0,L|444:251,1,62.5
380,211,109565,2,0,B|403:203|403:203|387:209|387:209|413:200|413:200|395:206|395:206|430:193|430:193|418:198|418:198|437:190|437:190|425:195|425:195|439:189|439:189|380:211,1,250
225,244,111817,6,0,B|190:263|168:237|133:248,1,93.75
102,256,112317,2,0,P|69:202|78:169,1,93.75
90,146,112818,6,0,P|103:117|103:86,3,62.5
191,39,113819,2,0,P|211:64|241:70,5,62.5
252,213,115320,5,0,0:0:0:0:
343,150,115570,1,0,0:0:0:0:
435,226,115820,1,0,0:0:0:0:
452,108,116071,2,0,P|437:81|414:60,1,62.5
294,44,116571,1,0,0:0:0:0:
292,249,116821,6,0,P|288:280|269:305,3,62.5
181,305,117822,2,0,P|162:280|157:249,7,62.5
224,253,119824,2,0,L|224:187,1,62.5
224,65,120324,2,0,L|224:131,1,62.5
385,161,120825,6,0,P|418:146|432:125,3,62.5
360,37,121825,2,0,P|356:68|370:96,5,62.5
426,56,123327,5,0,0:0:0:0:
285,56,123577,1,0,0:0:0:0:
201,148,123827,1,0,0:0:0:0:
199,23,124077,2,0,P|179:0|148:0,1,62.5
32,88,124578,1,0,0:0:0:0:
53,278,124828,6,0,P|63:308|83:331,3,62.5
160,342,125829,2,0,P|187:329|208:305,3,62.5
145,199,126830,6,0,L|136:260,1,62.5
136,260,127330,1,0,0:0:0:0:
136,260,127580,1,0,0:0:0:0:
320,120,127830,5,0,0:0:0:0:
320,120,128081,1,0,0:0:0:0:
320,120,128331,1,0,0:0:0:0:
432,248,128831,5,0,0:0:0:0:
352,272,129332,1,0,0:0:0:0:
352,176,129582,1,0,0:0:0:0:
280,280,130082,1,0,0:0:0:0:
208,288,130583,1,0,0:0:0:0:
200,8,130833,6,0,L|168:8,15,31.25
160,8,131333,1,0,0:0:0:0:
64,192,132584,6,0,P|56:232|64:256,1,62.5
128,224,133085,1,0,0:0:0:0:
176,160,133335,1,0,0:0:0:0:
224,96,133585,1,0,0:0:0:0:
260,171,134086,1,0,0:0:0:0:
208,240,134586,1,0,0:0:0:0:
320,384,134836,5,0,0:0:0:0:
376,200,136838,5,0,0:0:0:0:
296,128,137338,2,0,P|296:88|304:64,1,62.5
376,32,138089,1,0,0:0:0:0:
416,96,138589,1,0,0:0:0:0:
512,0,139090,1,0,0:0:0:0:
496,128,139590,2,0,P|488:160|496:192,1,62.5
416,144,140341,1,0,0:0:0:0:
416,256,140841,5,0,0:0:0:0:
416,256,141091,1,0,0:0:0:0:
416,256,141342,1,0,0:0:0:0:
