osu file format v14

[General]
AudioFilename: audio.mp3
AudioLeadIn: 0
PreviewTime: -1
Countdown: 1
SampleSet: Soft
StackLeniency: 0.7
Mode: 0
LetterboxInBreaks: 0
WidescreenStoryboard: 1
SamplesMatchPlaybackRate: 1

[Editor]
DistanceSpacing: 0.8
BeatDivisor: 3
GridSize: 4
TimelineZoom: 1

[Metadata]
Title:wii theme but its gravity falls
TitleUnicode:wii theme but its gravity falls
Artist:Mr Rock
ArtistUnicode:Mr Rock
Creator:TheGuillaume
Version:Hard
Source:
Tags:
BeatmapID:1749300
BeatmapSetID:835197

[Difficulty]
HPDrainRate:0
CircleSize:5
OverallDifficulty:3
ApproachRate:1
SliderMultiplier:1.4
SliderTickRate:1

[Events]
//Background and Video events
0,0,"dfk fvkhb2.jpg",0,0
//Break Periods
//Storyboard Layer 0 (Background)
//Storyboard Layer 1 (Fail)
//Storyboard Layer 2 (Pass)
//Storyboard Layer 3 (Foreground)
//Storyboard Sound Samples

[TimingPoints]
3148.1709972609,68.5714285714286,4,2,1,100,1,0

[HitObjects]
135,166,1639,5,0,0:0:0:0:
135,166,2896,1,0,0:0:0:0:
135,166,3993,1,0,0:0:0:0:
135,166,4725,1,0,0:0:0:0:
135,166,5068,1,0,0:0:0:0:
135,166,6485,1,0,0:0:0:0:
135,166,6645,1,0,0:0:0:0:
135,166,6851,1,0,0:0:0:0:
135,166,7011,1,0,0:0:0:0:
135,166,7216,1,0,0:0:0:0:
135,166,7399,1,0,0:0:0:0:
135,166,7582,1,0,0:0:0:0:
135,166,7765,1,0,0:0:0:0:
135,166,7971,1,0,0:0:0:0:
135,166,8153,1,0,0:0:0:0:
135,166,8359,1,0,0:0:0:0:
135,166,8542,1,0,0:0:0:0:
135,166,8748,1,0,0:0:0:0:
135,166,8931,1,0,0:0:0:0:
507,166,9182,1,0,0:0:0:0:
211,166,9388,1,0,0:0:0:0:
211,166,9571,1,0,0:0:0:0:
211,166,9776,1,0,0:0:0:0:
211,166,9982,1,0,0:0:0:0:
211,166,10211,1,0,0:0:0:0:
232,153,10462,1,0,0:0:0:0:
259,116,10668,1,0,0:0:0:0:
259,116,10873,1,0,0:0:0:0:
259,116,11079,1,0,0:0:0:0:
259,116,11285,1,0,0:0:0:0:
259,116,11468,1,0,0:0:0:0:
259,116,11788,1,0,0:0:0:0:
259,116,12176,1,0,0:0:0:0:
259,116,13251,1,0,0:0:0:0:
259,116,13639,1,0,0:0:0:0:
135,160,15193,1,0,0:0:0:0:
294,163,15788,1,0,0:0:0:0:
232,252,16359,1,0,0:0:0:0:
259,139,16793,1,0,0:0:0:0:
173,153,17205,1,0,0:0:0:0:
173,153,17502,1,0,0:0:0:0:
173,153,17891,1,0,0:0:0:0:
316,150,18348,1,0,0:0:0:0:
353,147,19171,1,0,0:0:0:0:
232,106,19673,5,0,0:0:0:0:
232,106,20519,1,0,0:0:0:0:
261,102,21388,1,0,0:0:0:0:
116,138,22142,1,0,0:0:0:0:
348,141,22851,1,0,0:0:0:0:
154,160,23559,1,0,0:0:0:0:
154,160,24382,1,0,0:0:0:0:
312,140,24793,1,0,0:0:0:0:
312,140,25136,1,0,0:0:0:0:
312,140,25502,1,0,0:0:0:0:
163,147,25868,1,0,0:0:0:0:
163,147,26211,1,0,0:0:0:0:
163,147,26531,1,0,0:0:0:0:
163,147,26942,1,0,0:0:0:0:
336,128,27353,1,0,0:0:0:0:
163,147,27765,1,0,0:0:0:0:
163,147,28062,1,0,0:0:0:0:
163,147,28473,1,0,0:0:0:0:
163,147,28793,1,0,0:0:0:0:
163,147,29113,1,0,0:0:0:0:
322,138,29571,1,0,0:0:0:0:
322,138,29913,1,0,0:0:0:0:
165,146,30393,5,0,0:0:0:0:
165,146,30873,1,0,0:0:0:0:
165,146,31239,1,0,0:0:0:0:
165,146,31559,1,0,0:0:0:0:
165,146,31925,1,0,0:0:0:0:
165,146,32268,1,0,0:0:0:0:
339,159,32656,1,0,0:0:0:0:
195,178,33022,1,0,0:0:0:0:
286,100,33845,1,0,0:0:0:0:
286,100,34233,1,0,0:0:0:0:
286,100,34599,1,0,0:0:0:0:
468,212,35445,1,0,0:0:0:0:
385,236,35788,1,0,0:0:0:0:
325,193,36176,1,0,0:0:0:0:
234,102,36999,1,0,0:0:0:0:
206,107,37319,1,0,0:0:0:0:
206,107,37708,1,0,0:0:0:0:
206,107,38005,1,0,0:0:0:0:
206,107,38348,1,0,0:0:0:0:
206,107,38759,1,0,0:0:0:0:
206,107,38965,1,0,0:0:0:0:
206,107,39102,1,0,0:0:0:0:
206,107,39468,1,0,0:0:0:0:
206,107,39879,1,0,0:0:0:0:
206,107,40222,1,0,0:0:0:0:
206,107,40611,1,0,0:0:0:0:
206,107,40976,1,0,0:0:0:0:
375,141,41502,1,0,0:0:0:0:
375,141,41708,1,0,0:0:0:0:
186,145,42393,1,0,0:0:0:0:
186,145,42576,1,0,0:0:0:0:
347,154,43216,1,0,0:0:0:0:
347,154,43376,1,0,0:0:0:0:
257,160,43925,1,0,0:0:0:0:
257,160,44131,1,0,0:0:0:0:
257,160,44313,1,0,0:0:0:0:
257,160,44496,1,0,0:0:0:0:
257,160,44702,1,0,0:0:0:0:
257,160,44885,1,0,0:0:0:0:
257,160,45068,1,0,0:0:0:0:
257,160,45273,1,0,0:0:0:0:
257,160,45479,1,0,0:0:0:0:
257,160,46233,1,0,0:0:0:0:
