osu file format v14

[General]
AudioFilename: awwyisscompressed.mp3
AudioLeadIn: 0
PreviewTime: 27
Countdown: 0
SampleSet: Soft
StackLeniency: 0.7
Mode: 0
LetterboxInBreaks: 0
WidescreenStoryboard: 0

[Editor]
Bookmarks: 6471,13971,28268,28737,29088,29440,149908,162564,180377,194908,209908,224673,225611,225728,228658,234752,238384,238502,238736,238853,238970,239205,239322,239439,239673,239791,299908,318658,327564,329673,329908,341627
DistanceSpacing: 1.6
BeatDivisor: 4
GridSize: 4
TimelineZoom: 1

[Metadata]
Title:Hysteria
TitleUnicode:Hysteria
Artist:Mr FijiWiji & Direct
ArtistUnicode:Mr FijiWiji & Direct
Creator:Lumin
Version:Nothing wins the sound of a bird chirping in the morning
Source:
Tags:Monstercat electronic house dnb drumstep chill
BeatmapID:1051027
BeatmapSetID:493499

[Difficulty]
HPDrainRate:5
CircleSize:4
OverallDifficulty:6
ApproachRate:7.5
SliderMultiplier:2.1
SliderTickRate:1

[Events]
//Background and Video events
0,0,"RvHaR2L.jpg",0,0
//Break Periods
2,210225,224434
//Storyboard Layer 0 (Background)
//Storyboard Layer 1 (Fail)
//Storyboard Layer 2 (Pass)
//Storyboard Layer 3 (Foreground)
//Storyboard Sound Samples

[TimingPoints]
27,937.5,4,2,2,10,1,0
28385,-100,4,2,0,10,0,0
60026,-133.333333333333,4,2,0,15,0,0
60260,-133.333333333333,4,2,0,10,0,0
88619,468.75,4,2,0,24,1,0
157994,-100,4,2,0,6,0,0
158462,-100,4,2,0,10,0,0
158931,-100,4,2,0,14,0,0
159400,-100,4,2,0,18,0,0
159869,-100,4,2,0,22,0,0
160337,-100,4,2,0,28,0,0
160806,-100,4,2,0,32,0,0
161275,-100,4,2,0,28,0,0
161744,-100,4,2,0,24,0,0
171119,-100,4,2,0,6,0,0
171587,-100,4,2,0,10,0,0
172056,-100,4,2,0,14,0,0
172525,-100,4,2,0,18,0,0
172994,-100,4,2,0,22,0,0
173462,-100,4,2,0,28,0,0
173931,-100,4,2,0,32,0,0
174400,-100,4,2,0,36,0,0
174869,-100,4,2,0,32,0,0
175337,-100,4,2,0,28,0,0
175806,-100,4,2,0,24,0,0
176275,-100,4,2,0,20,0,0
180494,-100,4,2,0,24,0,0
181900,-100,4,2,0,28,0,0
182837,-100,4,2,0,30,0,0
183775,-200,4,2,0,32,0,0
184712,-200,4,2,0,28,0,0
185650,-100,4,2,0,26,0,0
187056,-100,4,2,0,28,0,0
187525,-200,4,2,0,34,0,0
188462,-100,4,2,0,30,0,0
189400,-200,4,2,0,26,0,0
190337,-100,4,2,0,24,0,0
191275,-100,4,2,0,26,0,0
191744,-100,4,2,0,24,0,0
192681,-100,4,2,0,20,0,0
193619,-100,4,2,0,24,0,0
195025,-100,4,2,0,6,0,0
195493,-100,4,2,0,8,0,0
195962,-100,4,2,0,10,0,0
196431,-100,4,2,0,12,0,0
196900,-100,4,2,0,16,0,0
197368,-100,4,2,0,20,0,0
197837,-100,4,2,0,24,0,0
198306,-100,4,2,0,28,0,0
198775,-100,4,2,0,26,0,0
199243,-100,4,2,0,22,0,0
199712,-100,4,2,0,18,0,0
200181,-100,4,2,0,14,0,0
200650,-100,4,2,0,12,0,0
201119,-100,4,2,0,10,0,0
201587,-100,4,2,0,8,0,0
202056,-100,4,2,0,6,0,0
202525,-200,4,2,0,34,0,0
203462,-200,4,2,0,30,0,0
204400,-200,4,2,0,26,0,0
205337,-200,4,2,0,24,0,0
206275,-200,4,2,0,28,0,0
206744,-200,4,2,0,24,0,0
207681,-200,4,2,0,26,0,0
208619,-200,4,2,0,10,0,0
210025,-200,4,2,0,25,0,0
224790,-200,4,2,0,5,0,0
225259,-200,4,2,0,10,0,0
229244,-100,4,2,0,6,0,0
229712,-100,4,2,0,8,0,0
230181,-100,4,2,0,10,0,0
230650,-100,4,2,0,12,0,0
231119,-100,4,2,0,14,0,0
231587,-100,4,2,0,16,0,0
232056,-100,4,2,0,18,0,0
232525,-100,4,2,0,20,0,0
232994,-100,4,2,0,22,0,0
233462,-100,4,2,0,24,0,0
233931,-100,4,2,0,26,0,0
234400,-100,4,2,0,28,0,0
234869,-100,4,2,0,14,0,0
236744,-100,4,2,0,16,0,0
237681,-100,4,2,0,16,0,0
238150,-100,4,2,0,18,0,0
238619,-100,4,2,0,20,0,0
240025,-90.9090909090909,4,2,0,26,0,0
300025,-200,4,2,0,26,0,0
300259,-200,4,2,0,18,0,0
318775,-200,4,2,0,14,0,0
322525,-200,4,2,0,24,0,0
322759,-200,4,2,0,14,0,0
324869,-200,4,2,0,10,0,0
328150,-200,4,2,0,15,0,0
328619,-200,4,2,0,20,0,0
329087,-200,4,2,0,25,0,0
329556,-200,4,2,0,30,0,0
329790,-200,4,2,0,5,0,0
330025,-200,4,2,0,30,0,0
330259,-200,4,2,0,10,0,0
337994,-200,4,2,0,5,0,0

[Colours]
Combo1 : 139,193,237
Combo2 : 31,224,55
Combo3 : 233,237,58
Combo4 : 37,175,68
Combo5 : 238,207,83

[HitObjects]
424,208,27,6,0,P|400:264|272:248,1,210,6|0,0:0|0:0,0:0:0:0:
344,208,1902,1,2,0:0:0:0:
400,96,2839,1,2,0:0:0:0:
212,224,3776,6,0,B|192:304|156:336|112:324|88:304|80:264|116:228|116:228|172:172|80:112|80:112|152:128|204:96|204:96|256:56|312:56,1,630,2|0,0:0|0:0,0:0:0:0:
304,256,7526,6,0,B|336:312|372:324|432:312|452:268|456:232|440:192|440:192|416:128|456:96|456:96|429:57|376:56|344:96|360:176,1,525,2|0,0:0|0:0,0:0:0:0:
376,232,10339,1,2,0:0:0:0:
232,320,11276,6,0,B|152:352|80:328|80:328|176:256|176:256|116:200|160:112|160:112|104:120|64:128|41:195|48:256,1,630,2|0,0:0|0:0,0:0:0:0:
220,184,15026,6,0,B|276:216|332:208|332:208|328:152|372:120,1,210,2|0,0:0|0:0,0:0:0:0:
412,192,16901,1,2,0:0:0:0:
288,312,17839,1,2,0:0:0:0:
312,152,18776,6,0,B|328:96|296:64|240:16|184:56|144:96|160:160|160:160|176:224|88:248|88:248|128:336|128:336|56:352|24:288,1,630,2|0,0:0|0:0,0:0:0:0:
236,376,22526,6,0,B|173:309|220:224|284:200|348:248|348:248|404:288|468:280|508:224|504:164|468:132|436:120,1,525,2|0,0:0|0:0,0:0:0:0:
408,192,25339,1,2,0:0:0:0:
272,48,26276,6,0,B|224:48|160:96|160:96|184:128|212:172|192:240|112:248|112:248|136:196|120:137|72:120,1,472.5,2|0,0:0|0:0,0:0:0:0:
24,200,28854,1,0,0:0:0:0:
20,272,29206,2,0,L|20:344,1,52.5
140,328,30026,6,0,P|252:300|308:220,1,210,6|0,0:0|0:0,0:0:0:0:
292,60,31901,1,2,0:0:0:0:
164,168,32839,1,2,0:0:0:0:
332,184,33776,6,0,B|256:160|256:160|212:104|212:104|136:80,1,210,2|0,0:0|0:0,0:0:0:0:
155,86,35651,1,0,0:0:0:0:
155,86,36589,1,0,0:0:0:0:
208,328,37526,6,0,B|312:328|312:328|344:312|384:240,1,210,2|0,0:0|0:0,0:0:0:0:
472,260,39402,2,0,B|469:200|432:175|432:175|466:118|418:64,1,210,0|2,0:0|0:0,0:0:0:0:
300,180,41277,5,2,0:0:0:0:
204,40,42214,1,0,0:0:0:0:
112,180,43151,1,0,0:0:0:0:
220,308,44089,1,0,0:0:0:0:
240,144,45026,6,0,P|324:176|384:284,1,210,2|0,0:0|0:0,0:0:0:0:
396,108,46902,1,2,0:0:0:0:
209,52,47839,1,2,0:0:0:0:
168,216,48776,2,0,B|148:280|112:308|112:308|76:264|16:260,1,210,2|0,0:0|0:0,0:0:0:0:
84,104,50651,1,0,0:0:0:0:
244,160,51589,1,0,0:0:0:0:
360,284,52526,6,0,P|452:296|484:196,1,210,2|0,0:0|0:0,0:0:0:0:
344,108,54401,1,0,0:0:0:0:
280,264,55339,1,0,0:0:0:0:
120,320,56276,1,0,0:0:0:0:
256,192,56511,12,0,59558,0:0:0:0:
48,92,60026,6,0,B|44:32|108:24|148:48|152:96|132:125|96:152|96:152|36:188|44:240|104:272|136:232,1,393.750015020371,6|0,0:0|0:0,0:0:0:0:
208,168,63541,1,0,0:0:0:0:
208,168,63777,2,0,B|264:104|264:104|348:152|416:96,1,236.250009012223
340,44,65652,2,0,P|456:32|436:192,1,315.000012016297
252,316,69401,6,0,P|168:296|128:224,1,157.500006008148
48,156,71276,2,0,P|120:116|204:148,1,157.500006008148
256,192,72448,12,0,74558,0:0:0:0:
412,160,75261,5,0,0:0:0:0:
452,248,75729,2,0,B|352:280|352:280|376:228,1,157.500006008148
412,160,77253,1,0,0:0:0:0:
412,160,77487,2,0,P|348:120|240:116,1,157.500006008148
248,208,78776,2,0,B|324:316|324:316|251:298|220:304,1,236.250009012223
64,328,80651,6,0,B|64:264|64:264|36:216|36:216|70:167|84:96,1,236.250009012223
208,40,83464,2,0,P|188:88|200:144,1,78.7500030040742
260,96,84401,6,0,B|292:120|292:120|316:160|316:160|352:184,1,118.125004506111
393,124,85339,2,0,P|413:164|365:247,1,118.125004506111
342,177,86276,2,0,P|279:184|237:227,1,118.125004506111
200,280,87214,2,0,P|156:318|98:323,1,118.125004506111
128,244,88619,6,0,P|127:169|185:87,1,157.5
205,84,89087,2,0,P|241:120|321:116,1,105,8|0,0:0|0:0,0:0:0:0:
333,116,89439,1,8,0:0:0:0:
369,96,89556,2,0,B|417:68|417:68|465:100,1,105,8|0,0:0|0:0,0:0:0:0:
489,124,89908,1,8,0:0:0:0:
489,164,90025,6,0,L|489:280,1,105,12|0,1:2|1:0,0:0:0:0:
396,228,90494,1,8,0:1:0:0:
344,316,90728,1,0,0:0:0:0:
324,332,90845,1,0,0:0:0:0:
300,340,90962,1,0,0:0:0:0:
272,344,91079,1,0,0:0:0:0:
244,340,91197,1,8,0:1:0:0:
176,260,91431,1,0,0:0:0:0:
176,260,91548,1,0,0:0:0:0:
176,260,91665,6,0,L|136:304,2,52.5,0|0|0,1:0|1:0|1:0,0:0:0:0:
236,172,92134,1,0,1:0:0:0:
280,268,92369,1,8,0:1:0:0:
328,176,92603,1,0,0:0:0:0:
323,150,92720,1,0,0:0:0:0:
312,126,92837,1,0,0:0:0:0:
295,106,92954,1,0,0:0:0:0:
273,92,93071,1,8,0:1:0:0:
192,160,93306,1,0,0:0:0:0:
171,175,93423,1,0,0:0:0:0:
146,183,93540,1,0,0:0:0:0:
120,183,93657,1,0,1:0:0:0:
95,174,93775,6,0,P|48:212|20:256,1,105,0|0,1:0|1:0,0:0:0:0:
64,332,94244,1,8,0:1:0:0:
168,308,94478,1,0,0:0:0:0:
196,308,94595,1,0,0:0:0:0:
224,308,94712,1,0,0:0:0:0:
252,308,94829,1,0,0:0:0:0:
280,308,94947,1,8,0:1:0:0:
380,336,95181,2,0,L|432:336,1,52.5
460,332,95415,6,0,L|476:384,2,52.5,0|0|0,0:0|1:0|1:0,1:0:0:0:
476,228,95884,1,0,1:0:0:0:
372,208,96119,1,8,0:1:0:0:
456,144,96353,2,0,L|504:104,4,52.5,0|0|0|0|8,0:0|0:0|0:0|0:0|0:1,0:0:0:0:
372,208,97056,1,0,0:0:0:0:
347,218,97173,1,0,0:0:0:0:
323,228,97290,1,0,1:0:0:0:
298,228,97407,1,0,1:0:0:0:
272,222,97524,5,2,1:0:0:0:
184,164,97759,1,0,1:0:0:0:
180,268,97994,1,8,0:1:0:0:
92,212,98228,1,0,0:0:0:0:
92,212,98345,1,0,0:0:0:0:
92,212,98462,1,0,0:0:0:0:
92,212,98579,1,0,0:0:0:0:
92,212,98697,1,8,0:1:0:0:
68,108,98931,1,0,0:0:0:0:
60,84,99048,1,0,0:0:0:0:
52,60,99165,6,0,L|0:32,2,52.5,0|0|0,1:0|1:0|1:0,0:0:0:0:
152,88,99634,1,0,1:0:0:0:
252,56,99869,1,8,0:1:0:0:
352,88,100103,1,0,0:0:0:0:
372,104,100220,1,0,0:0:0:0:
389,124,100337,1,0,0:0:0:0:
400,147,100454,1,0,0:0:0:0:
407,173,100571,1,8,0:1:0:0:
336,248,100806,1,0,0:0:0:0:
343,274,100923,1,0,0:0:0:0:
354,297,101040,1,0,1:0:0:0:
371,317,101157,1,0,1:0:0:0:
392,332,101275,6,0,L|280:332,1,105,0|0,1:0|1:0,0:0:0:0:
184,348,101744,1,8,0:1:0:0:
104,280,101978,2,0,L|56:312,4,52.5,0|0|0|0|8,0:0|0:0|0:0|0:0|0:1,0:0:0:0:
188,220,102681,1,0,0:0:0:0:
199,196,102798,1,0,0:0:0:0:
204,170,102915,1,0,1:0:0:0:
202,144,103032,1,0,1:0:0:0:
192,120,103149,5,0,1:0:0:0:
116,48,103384,1,0,1:0:0:0:
220,24,103619,1,8,0:1:0:0:
296,96,103853,1,0,0:0:0:0:
321,92,103970,1,0,0:0:0:0:
346,82,104087,1,0,0:0:0:0:
366,66,104204,1,0,0:0:0:0:
382,46,104321,1,8,0:1:0:0:
488,28,104556,1,0,0:0:0:0:
484,52,104673,1,0,0:0:0:0:
480,76,104790,1,0,1:0:0:0:
476,100,104908,1,0,1:0:0:0:
472,124,105025,6,0,B|468:164|468:164|452:192|452:192|444:240,1,105,0|0,1:0|1:0,0:0:0:0:
432,328,105494,1,8,0:1:0:0:
328,344,105728,1,0,0:0:0:0:
302,349,105845,1,0,0:0:0:0:
276,351,105962,1,0,0:0:0:0:
250,351,106079,1,0,0:0:0:0:
224,346,106196,1,8,0:1:0:0:
156,252,106431,1,0,0:0:0:0:
176,236,106548,1,0,0:0:0:0:
196,220,106665,6,0,L|264:240,2,52.5,0|0|0,1:0|1:0|1:0,1:0:0:0:
92,196,107134,1,0,1:0:0:0:
68,300,107369,1,8,0:1:0:0:
12,212,107603,1,0,0:0:0:0:
11,185,107720,1,0,0:0:0:0:
19,161,107837,1,0,0:0:0:0:
35,140,107954,1,0,0:0:0:0:
57,126,108071,1,8,0:1:0:0:
156,96,108306,1,0,0:0:0:0:
179,107,108423,1,0,0:0:0:0:
203,118,108540,1,0,1:0:0:0:
227,112,108657,1,0,1:0:0:0:
252,100,108775,6,0,B|288:56|288:56|348:36,1,105,0|0,1:0|1:0,1:0:0:0:
436,20,109244,1,8,0:1:0:0:
464,120,109478,1,0,0:0:0:0:
464,120,109595,1,0,0:0:0:0:
464,120,109712,1,0,0:0:0:0:
464,120,109829,1,0,0:0:0:0:
464,120,109947,1,8,0:1:0:0:
360,128,110181,2,0,P|335:136|312:148,1,52.5,0|0,1:0|1:0,1:0:0:0:
284,148,110415,6,0,P|260:135|235:127,2,52.5,0|0|0,1:0|1:0|1:0,1:0:0:0:
348,232,110884,1,0,1:0:0:0:
428,164,111119,1,8,0:1:0:0:
456,268,111353,1,0,0:0:0:0:
442,290,111470,1,0,0:0:0:0:
425,310,111587,1,0,0:0:0:0:
406,328,111704,1,0,0:0:0:0:
384,343,111821,1,8,0:1:0:0:
352,240,112056,1,0,0:0:0:0:
324,240,112173,1,0,0:0:0:0:
296,240,112290,1,0,1:0:0:0:
268,240,112408,1,0,1:0:0:0:
240,240,112525,6,0,P|184:248|140:272,1,105,2|0,1:0|1:0,1:0:0:0:
68,344,112994,1,8,0:1:0:0:
44,244,113228,2,0,L|4:200,4,52.5,0|0|0|0|8,0:0|0:0|0:0|0:0|0:1,0:0:0:0:
132,304,113931,1,0,0:0:0:0:
156,316,114048,1,0,0:0:0:0:
180,328,114165,1,0,1:0:0:0:
204,316,114283,1,0,1:0:0:0:
228,304,114400,5,0,1:0:0:0:
316,248,114634,1,0,1:0:0:0:
380,164,114869,1,8,0:1:0:0:
276,152,115103,1,0,0:0:0:0:
276,125,115220,1,0,0:0:0:0:
276,99,115337,1,0,0:0:0:0:
276,73,115454,1,0,0:0:0:0:
276,47,115571,1,8,0:1:0:0:
172,44,115806,1,0,0:0:0:0:
152,60,115923,1,0,0:0:0:0:
132,76,116040,1,0,1:0:0:0:
112,92,116158,1,0,1:0:0:0:
92,112,116275,6,0,B|52:156|52:156|40:208,1,105,0|0,1:0|1:0,1:0:0:0:
32,304,116744,1,8,0:1:0:0:
132,272,116978,1,0,0:0:0:0:
155,260,117095,1,0,0:0:0:0:
180,252,117212,1,0,0:0:0:0:
204,248,117329,1,0,0:0:0:0:
232,248,117446,1,8,0:1:0:0:
344,280,117681,1,0,0:0:0:0:
364,296,117798,1,0,0:0:0:0:
384,312,117915,6,0,L|392:368,2,52.5,0|0|0,1:0|1:0|1:0,1:0:0:0:
364,208,118384,1,0,1:0:0:0:
448,148,118619,1,8,0:1:0:0:
404,57,118853,2,0,L|419:0,4,52.5,0|0|0|0|8,0:0|0:0|0:0|0:0|0:1,0:0:0:0:
301,119,119556,1,0,0:0:0:0:
272,144,119673,1,8,0:1:0:0:
236,156,119790,1,8,0:1:0:0:
200,152,119907,1,8,0:1:0:0:
168,136,120025,6,0,P|111:96|83:64,1,105,4|0,1:0|1:0,1:0:0:0:
8,136,120494,1,8,0:1:0:0:
104,180,120728,1,0,0:0:0:0:
104,208,120845,1,0,0:0:0:0:
104,236,120962,1,0,0:0:0:0:
104,264,121079,1,0,0:0:0:0:
104,292,121196,1,8,0:1:0:0:
204,332,121431,1,0,0:0:0:0:
232,336,121548,1,0,0:0:0:0:
256,332,121665,6,0,P|285:341|304:352,2,52.5,0|0|0,1:0|1:0|1:0,1:0:0:0:
188,252,122134,1,0,1:0:0:0:
160,152,122369,1,8,0:1:0:0:
200,56,122603,1,0,0:0:0:0:
223,45,122720,1,0,0:0:0:0:
249,40,122837,1,0,0:0:0:0:
275,41,122954,1,0,0:0:0:0:
300,48,123071,1,8,0:1:0:0:
364,132,123306,1,0,0:0:0:0:
339,141,123423,1,0,0:0:0:0:
317,156,123540,1,0,1:0:0:0:
299,175,123657,1,0,1:0:0:0:
284,196,123775,6,0,P|256:232|192:272,1,105,0|0,1:0|1:0,1:0:0:0:
108,296,124244,1,8,0:1:0:0:
196,352,124478,1,0,0:0:0:0:
224,352,124595,1,0,0:0:0:0:
252,352,124712,1,0,0:0:0:0:
280,352,124829,1,0,0:0:0:0:
308,352,124947,1,8,0:1:0:0:
372,272,125181,2,0,L|412:320,1,52.5
416,336,125415,6,0,L|382:376,2,52.5,0|0|0,1:0|1:0|1:0,1:0:0:0:
472,248,125884,1,0,1:0:0:0:
504,348,126119,1,8,0:1:0:0:
400,328,126353,1,0,0:0:0:0:
377,314,126470,1,0,0:0:0:0:
360,294,126587,1,0,0:0:0:0:
350,270,126704,1,0,0:0:0:0:
347,244,126821,1,8,0:1:0:0:
320,140,127056,1,0,0:0:0:0:
303,119,127173,1,0,0:0:0:0:
284,100,127290,1,0,1:0:0:0:
263,89,127407,1,0,1:0:0:0:
238,80,127525,5,2,1:0:0:0:
136,68,127759,1,0,1:0:0:0:
152,172,127994,1,8,0:1:0:0:
92,256,128228,1,0,0:0:0:0:
78,233,128345,1,0,0:0:0:0:
64,210,128462,1,0,0:0:0:0:
51,188,128579,1,0,0:0:0:0:
37,165,128696,1,8,0:1:0:0:
60,64,128931,1,0,0:0:0:0:
60,64,129048,1,0,0:0:0:0:
60,64,129165,6,0,L|88:112,2,52.5,0|0|0,1:0|1:0|1:0,1:0:0:0:
156,24,129634,1,0,1:0:0:0:
200,120,129869,1,8,0:1:0:0:
284,56,130103,2,0,P|256:44|240:24,4,52.5,0|0|0|0|8,0:0|0:0|0:0|0:0|0:1,0:0:0:0:
384,92,130806,1,0,0:0:0:0:
401,111,130923,1,0,0:0:0:0:
412,135,131040,1,0,1:0:0:0:
416,161,131157,1,0,1:0:0:0:
416,188,131275,6,0,B|404:236|384:254|384:254|384:292,1,105,0|0,1:0|1:0,1:0:0:0:
460,360,131744,1,8,0:1:0:0:
356,352,131978,1,0,0:0:0:0:
328,352,132095,1,0,0:0:0:0:
300,352,132212,1,0,0:0:0:0:
272,352,132329,1,0,0:0:0:0:
244,352,132447,1,8,0:1:0:0:
152,300,132681,2,0,P|123:292|96:300,1,52.5
76,304,132915,6,0,P|83:332|76:360,2,52.5,0|0|0,1:0|1:0|1:0,1:0:0:0:
28,212,133384,1,0,1:0:0:0:
56,112,133619,1,8,0:1:0:0:
8,20,133853,1,0,0:0:0:0:
33,16,133970,1,0,0:0:0:0:
59,21,134087,1,0,0:0:0:0:
83,32,134204,1,0,0:0:0:0:
102,50,134321,1,8,0:1:0:0:
180,124,134556,1,0,0:0:0:0:
203,135,134673,1,0,0:0:0:0:
229,139,134790,1,0,1:0:0:0:
255,136,134907,1,0,1:0:0:0:
280,124,135025,6,0,B|316:88|316:88|348:88|360:112,1,105,0|0,1:0|1:0,1:0:0:0:
404,208,135494,1,8,0:1:0:0:
300,220,135728,1,0,0:0:0:0:
273,222,135845,1,0,0:0:0:0:
248,229,135962,1,0,0:0:0:0:
225,241,136079,1,0,0:0:0:0:
205,258,136196,1,8,0:1:0:0:
108,300,136431,1,0,0:0:0:0:
108,300,136548,1,0,0:0:0:0:
108,300,136665,6,0,L|44:264,2,52.5,0|0|0,1:0|1:0|1:0,1:0:0:0:
204,340,137134,1,0,1:0:0:0:
308,340,137369,1,8,0:1:0:0:
412,320,137603,2,0,L|440:376,4,52.5,0|0|0|0|8,0:0|0:0|0:0|0:0|0:1,0:0:0:0:
460,228,138306,1,0,0:0:0:0:
460,200,138423,1,0,0:0:0:0:
460,172,138540,1,0,1:0:0:0:
460,144,138658,1,0,1:0:0:0:
460,116,138775,5,0,1:0:0:0:
376,56,139009,1,0,1:0:0:0:
292,116,139244,1,8,0:1:0:0:
376,176,139478,1,0,0:0:0:0:
376,204,139595,1,0,0:0:0:0:
376,232,139713,1,0,0:0:0:0:
376,260,139830,1,0,0:0:0:0:
376,288,139947,1,8,0:1:0:0:
276,324,140181,2,0,L|216:336,1,52.5
200,344,140415,6,0,P|170:365|144:360,2,52.5,0|0|0,1:0|1:0|1:0,1:0:0:0:
228,244,140884,1,0,1:0:0:0:
172,156,141119,1,8,0:1:0:0:
84,216,141353,1,0,0:0:0:0:
71,192,141470,1,0,0:0:0:0:
64,167,141587,1,0,0:0:0:0:
64,141,141704,1,0,0:0:0:0:
70,115,141822,1,8,0:1:0:0:
152,52,142056,1,0,0:0:0:0:
177,57,142173,1,0,0:0:0:0:
203,63,142291,1,0,1:0:0:0:
229,59,142408,1,0,1:0:0:0:
256,56,142525,6,0,B|308:40|308:40|368:40,1,105,2|0,1:0|1:0,1:0:0:0:
464,40,142994,1,8,0:1:0:0:
396,120,143228,1,0,0:0:0:0:
375,136,143345,1,0,0:0:0:0:
354,151,143462,1,0,0:0:0:0:
330,163,143579,1,0,0:0:0:0:
306,172,143696,1,8,0:1:0:0:
208,212,143931,1,0,0:0:0:0:
184,224,144048,1,0,0:0:0:0:
160,236,144165,6,0,L|104:236,2,52.5,0|0|0,1:0|1:0|1:0,1:0:0:0:
256,276,144634,1,0,1:0:0:0:
352,320,144869,1,8,0:1:0:0:
252,348,145103,1,0,0:0:0:0:
225,348,145220,1,0,0:0:0:0:
199,348,145337,1,0,0:0:0:0:
173,348,145454,1,0,0:0:0:0:
147,348,145571,1,8,0:1:0:0:
56,296,145806,1,0,0:0:0:0:
39,276,145923,1,0,0:0:0:0:
29,251,146040,1,0,1:0:0:0:
29,225,146157,1,0,1:0:0:0:
37,200,146275,6,0,P|56:144|44:84,1,105,0|0,1:0|1:0,1:0:0:0:
128,28,146744,1,8,0:1:0:0:
200,104,146978,1,0,0:0:0:0:
223,115,147095,1,0,0:0:0:0:
247,126,147212,1,0,0:0:0:0:
271,118,147329,1,0,0:0:0:0:
294,106,147446,1,8,0:1:0:0:
376,40,147681,1,0,0:0:0:0:
400,28,147798,1,0,0:0:0:0:
428,28,147915,1,0,1:0:0:0:
448,48,148032,1,0,1:0:0:0:
452,76,148149,5,0,1:0:0:0:
404,168,148384,1,0,1:0:0:0:
336,248,148619,1,8,0:1:0:0:
440,248,148853,2,0,L|492:248,4,52.5,0|0|0|0|8,0:1|0:1|0:1|0:1|0:1,0:1:0:0:
336,248,149556,1,0,0:0:0:0:
296,248,149673,1,8,0:1:0:0:
256,248,149790,1,8,0:1:0:0:
212,248,149908,1,8,0:1:0:0:
172,248,150025,5,6,1:0:0:0:
104,56,150494,2,0,L|56:56,1,26.25,8|0,0:0|0:0,0:0:0:0:
76,204,150962,5,0,0:0:0:0:
148,156,151197,2,0,L|174:156,1,26.25,8|0,0:0|0:0,0:0:0:0:
292,76,151665,1,0,0:0:0:0:
368,32,151900,1,2,0:0:0:0:
368,116,152134,1,0,0:0:0:0:
292,76,152369,2,0,L|244:76,1,26.25,8|0,0:0|0:0,0:0:0:0:
264,224,152837,5,2,0:0:0:0:
292,304,153072,2,0,L|318:304,1,26.25,8|0,0:0|0:0,0:0:0:0:
176,268,153540,1,0,0:0:0:0:
88,308,153775,1,2,0:0:0:0:
88,224,154009,1,0,0:0:0:0:
88,140,154244,2,0,L|40:140,1,26.25,8|0,0:0|0:0,0:0:0:0:
192,72,154712,5,0,0:0:0:0:
244,140,154947,2,0,L|270:140,1,26.25,8|0,0:0|0:0,0:0:0:0:
392,60,155415,1,0,0:0:0:0:
436,132,155650,1,0,0:0:0:0:
352,132,155884,1,0,0:0:0:0:
392,208,156119,2,0,L|365:208,1,26.25,8|0,0:0|0:0,0:0:0:0:
228,256,156587,5,0,0:0:0:0:
296,308,156822,2,0,L|322:308,1,26.25,8|0,0:0|0:0,0:0:0:0:
180,344,157290,1,0,0:0:0:0:
104,308,157525,1,2,0:0:0:0:
104,308,157759,1,0,0:0:0:0:
64,232,157994,6,0,L|16:188,3,52.5
60,172,158462,2,0,L|28:112,3,52.5
76,116,158931,2,0,L|72:56,3,52.5
104,92,159400,2,0,L|136:44,3,52.5
144,88,159869,2,0,L|200:56,3,52.5
204,136,160337,6,0,L|254:149,3,52.5,2|0|0|0,0:0|0:0|0:0|0:0,0:0:0:0:
234,185,160806,2,0,L|285:174,3,52.5
360,200,161275,6,0,L|355:147,3,52.5,2|0|0|0,0:0|0:0|0:0|0:0,0:0:0:0:
397,138,161744,2,0,L|371:91,3,52.5
406,67,162212,2,0,L|366:31,3,52.5
468,120,162915,1,0,0:0:0:0:
476,204,163150,1,0,0:0:0:0:
404,244,163384,1,0,0:0:0:0:
332,292,163619,2,0,L|332:248,1,26.25,8|0,0:0|0:0,0:0:0:0:
272,132,164087,5,0,0:0:0:0:
240,208,164322,2,0,L|240:234,1,26.25,8|0,0:0|0:0,0:0:0:0:
140,340,164790,1,0,0:0:0:0:
68,296,165025,1,2,0:0:0:0:
68,212,165259,1,0,0:0:0:0:
28,140,165494,2,0,L|28:96,1,26.25,8|0,0:0|0:0,0:0:0:0:
140,20,165962,5,0,0:0:0:0:
196,84,166197,2,0,L|196:110,1,26.25,8|0,0:0|0:0,0:0:0:0:
252,248,166665,1,0,0:0:0:0:
328,208,166900,1,2,0:0:0:0:
328,292,167134,1,0,0:0:0:0:
252,248,167369,2,0,L|252:204,1,26.25,8|0,0:0|0:0,0:0:0:0:
328,96,167837,5,2,0:0:0:0:
404,132,168072,2,0,L|404:158,1,26.25,8|0,0:0|0:0,0:0:0:0:
404,304,168540,1,0,0:0:0:0:
324,276,168775,1,2,0:0:0:0:
240,276,169009,1,0,0:0:0:0:
176,332,169244,2,0,L|176:288,1,26.25,8|0,0:0|0:0,0:0:0:0:
100,180,169712,5,0,0:0:0:0:
176,144,169947,2,0,L|176:170,1,26.25,8|0,0:0|0:0,0:0:0:0:
100,296,170415,1,0,0:0:0:0:
44,236,170650,1,0,0:0:0:0:
44,152,170884,1,0,0:0:0:0:
80,80,171119,6,0,P|106:101|120:127,3,52.5
142,90,171587,2,0,P|159:119|163:148,3,52.5
199,117,172056,2,0,P|205:150|199:178,3,52.5
169,241,172525,6,0,P|202:246|230:240,3,52.5,2|0|0|0,0:0|0:0|0:0|0:0,0:0:0:0:
214,286,172994,2,0,P|247:279|272:263,3,52.5
254,313,173462,2,0,P|286:301|308:281,3,52.5
312,324,173931,2,0,P|338:301|352:275,3,52.5
375,318,174399,2,0,P|392:287|396:258,3,52.5
432,292,174869,6,0,P|438:257|431:229,3,52.5
375,201,175337,2,0,P|401:173|417:167,3,52.5,2|0|0|0,0:0|0:0|0:0|0:0,0:0:0:0:
372,152,175806,2,0,P|403:131|421:130,3,52.5
488,84,176275,6,0,P|452:32|396:20,1,105,2|0,0:0|0:0,0:0:0:0:
332,20,176744,2,0,L|300:51,1,26.25,8|0,0:0|0:0,0:0:0:0:
208,140,177212,5,0,0:0:0:0:
148,80,177447,2,0,L|129:61,1,26.25,8|0,0:0|0:0,0:0:0:0:
128,208,177915,1,0,0:0:0:0:
88,280,178150,1,0,0:0:0:0:
172,280,178384,1,0,0:0:0:0:
236,224,178619,2,0,L|267:192,1,26.25,8|0,0:0|0:0,0:0:0:0:
360,104,179087,5,0,0:0:0:0:
416,164,179322,2,0,L|447:195,1,26.25,8|0,0:0|0:0,0:0:0:0:
436,328,179790,1,0,0:0:0:0:
372,276,180025,1,2,0:0:0:0:
288,276,180259,1,0,0:0:0:0:
208,316,180494,2,0,L|172:344,1,26.25
204,224,180728,1,0,0:0:0:0:
288,276,180962,5,0,0:0:0:0:
208,316,181197,1,8,0:0:0:0:
204,224,181431,1,0,0:0:0:0:
208,316,181665,1,0,0:0:0:0:
124,316,181900,1,2,0:0:0:0:
63,259,182134,1,0,0:0:0:0:
42,179,182368,1,8,0:0:0:0:
66,99,182603,1,0,0:0:0:0:
128,45,182837,5,2,0:0:0:0:
212,44,183072,1,8,0:0:0:0:
128,45,183306,1,0,0:0:0:0:
212,44,183540,1,0,0:0:0:0:
304,44,183775,2,0,L|356:12,3,52.5,2|0|8|0,0:0|0:0|0:0|0:0,0:0:0:0:
388,104,184712,6,0,L|447:118,3,52.5,0|8|0|0,0:0|0:0|0:0|0:0,0:0:0:0:
440,200,185650,1,0,0:0:0:0:
396,272,185884,1,0,0:0:0:0:
356,200,186119,1,8,0:0:0:0:
312,268,186353,1,8,0:0:0:0:
272,200,186587,5,0,0:0:0:0:
188,200,186822,1,8,0:0:0:0:
128,140,187056,1,0,0:0:0:0:
128,140,187290,1,0,0:0:0:0:
192,84,187525,2,0,L|192:24,3,52.5,2|0|8|0,0:0|0:0|0:0|0:0,0:0:0:0:
276,32,188462,5,0,0:0:0:0:
360,32,188697,1,8,0:0:0:0:
276,32,188931,1,0,0:0:0:0:
360,32,189165,1,0,0:0:0:0:
404,104,189400,2,0,L|472:104,3,52.5,0|0|8|0,0:0|0:0|0:0|0:0,0:0:0:0:
456,188,190337,5,2,0:0:0:0:
421,263,190572,1,8,0:0:0:0:
354,313,190805,1,0,0:0:0:0:
272,323,191040,1,0,0:0:0:0:
208,268,191275,1,2,0:0:0:0:
208,268,191509,1,0,0:0:0:0:
144,324,191744,1,8,0:0:0:0:
125,245,191978,1,0,0:0:0:0:
180,187,192212,5,0,0:0:0:0:
260,201,192447,1,8,0:0:0:0:
320,260,192681,1,0,0:0:0:0:
400,274,192916,1,0,0:0:0:0:
455,216,193150,1,0,0:0:0:0:
437,138,193384,1,0,0:0:0:0:
392,64,193619,1,0,0:0:0:0:
476,64,193853,1,8,0:0:0:0:
392,64,194087,5,0,0:0:0:0:
476,64,194322,1,8,0:0:0:0:
392,64,194556,1,0,0:0:0:0:
476,64,194790,1,0,0:0:0:0:
392,64,195025,6,0,L|344:120,3,52.5,2|0|0|0,0:0|0:0|0:0|0:0,0:0:0:0:
388,136,195494,2,0,L|314:141,3,52.5
324,180,195962,2,0,L|267:132,3,52.5
244,164,196431,2,0,L|238:90,3,52.5
164,116,196900,6,0,L|104:156,3,52.5,2|0|0|0,0:0|0:0|0:0|0:0,0:0:0:0:
165,79,197369,2,0,L|92:128,3,52.5
92,40,197837,6,0,L|24:40,3,52.5,2|0|0|0,0:0|0:0|0:0|0:0,0:0:0:0:
56,80,198306,2,0,L|-8:108,3,52.5
8,176,198775,6,0,P|28:193|72:197,3,52.5,2|0|0|0,0:0|0:0|0:0|0:0,0:0:0:0:
49,270,199244,2,0,P|75:267|109:238,3,52.5
142,312,199712,2,0,P|160:290|163:246,3,52.5
236,270,200181,2,0,P|234:242|204:208,3,52.5
257,160,200650,2,0,P|279:174|293:216,3,52.5
358,175,201119,2,0,P|363:201|343:241,3,52.5
421,254,201587,6,0,P|405:275|363:290,3,52.5
407,355,202056,2,0,P|379:360|340:341,3,52.5
304,300,202525,6,0,L|264:252,3,52.5,2|0|8|0,0:0|0:0|0:0|0:0,0:0:0:0:
192,220,203462,2,0,L|192:292,3,52.5,0|8|0|0,0:0|0:0|0:0|0:0,0:0:0:0:
120,320,204400,1,0,0:0:0:0:
120,236,204634,1,0,0:0:0:0:
120,152,204869,1,8,0:0:0:0:
120,68,205103,1,0,0:0:0:0:
48,112,205337,5,2,0:0:0:0:
48,112,205572,1,8,0:0:0:0:
48,112,205806,1,0,0:0:0:0:
48,112,206040,1,0,0:0:0:0:
120,68,206275,1,2,0:0:0:0:
204,68,206509,1,0,0:0:0:0:
276,108,206744,1,8,0:0:0:0:
348,144,206978,1,0,0:0:0:0:
344,60,207212,5,0,0:0:0:0:
276,108,207447,1,8,0:0:0:0:
348,144,207681,1,0,0:0:0:0:
432,144,207915,1,0,0:0:0:0:
348,144,208150,1,0,0:0:0:0:
432,144,208384,1,0,0:0:0:0:
392,216,208619,6,0,B|360:280|280:300|280:300|260:256|200:212,1,262.5,8|0,0:0|0:0,0:0:0:0:
132,164,210025,1,4,0:0:0:0:
88,108,225259,5,0,0:0:0:0:
20,148,225845,2,0,P|80:188|156:68,1,236.25
264,20,227251,1,0,0:0:0:0:
264,100,227486,2,0,B|251:157|266:206|266:206|204:232|204:232|192:288|141:339,1,288.75
48,256,229244,6,0,B|28:208,3,52.5
88,220,229712,2,0,B|86:148,3,52.5
144,200,230181,2,0,B|172:134,3,52.5
200,204,230650,2,0,B|253:156,3,52.5
260,228,231119,6,0,B|228:292,3,52.5
300,264,231587,2,0,B|298:335,3,52.5
356,284,232056,2,0,B|384:349,3,52.5
412,280,232525,2,0,B|465:327,3,52.5
452,220,232994,6,0,L|452:168,3,52.5
404,208,233462,2,0,L|367:171,3,52.5
356,232,233931,2,0,L|304:232,3,52.5
336,288,234400,2,0,L|299:324,3,52.5
260,344,234869,6,0,P|156:344|64:264,1,210,8|0,0:0|1:0,0:0:0:0:
72,112,235806,2,0,P|176:112|268:192,1,210,8|0,0:0|1:0,0:0:0:0:
344,320,236744,1,8,0:0:0:0:
344,320,237212,1,0,1:0:0:0:
464,204,237681,1,8,0:0:0:0:
464,204,238150,6,0,P|408:204|324:128,1,157.5,8|8,0:0|0:0,0:0:0:0:
312,108,238619,2,0,P|280:56|232:32,1,105,8|0,0:0|0:0,0:0:0:0:
200,32,238970,1,8,0:0:0:0:
160,32,239087,2,0,L|160:152,1,105,8|8,0:0|0:0,0:0:0:0:
160,180,239439,1,8,0:0:0:0:
160,220,239556,2,0,B|160:280|160:280|196:316,1,105,8|8,0:0|0:0,0:0:0:0:
232,324,239908,1,8,0:0:0:0:
272,320,240025,6,0,P|328:304|376:260,1,115.50000352478,4|0,1:0|1:0,0:0:0:0:
420,160,240494,1,8,0:1:0:0:
316,208,240728,1,0,0:0:0:0:
299,184,240845,1,0,0:0:0:0:
283,160,240962,1,0,0:0:0:0:
267,136,241079,1,0,0:0:0:0:
251,112,241196,1,8,0:1:0:0:
152,52,241431,2,0,L|86:69,1,57.7500017623902
141,104,241665,2,0,L|83:119,1,57.7500017623902,0|0,1:0|1:0,1:0:0:0:
132,156,241900,6,0,B|116:208|116:208|140:239|132:284,1,115.50000352478,0|0,1:0|1:0,1:0:0:0:
44,336,242369,1,8,0:1:0:0:
156,360,242603,1,0,0:0:0:0:
182,348,242720,1,0,0:0:0:0:
205,331,242837,1,0,0:0:0:0:
223,308,242954,1,0,0:0:0:0:
235,282,243071,1,8,0:1:0:0:
256,168,243306,1,0,0:0:0:0:
264,140,243423,1,0,0:0:0:0:
256,112,243540,6,0,P|235:81|228:48,2,57.7500017623902,0|0|0,1:0|1:0|1:0,1:0:0:0:
352,180,244009,1,0,1:0:0:0:
368,64,244244,1,8,0:1:0:0:
436,160,244478,1,0,0:0:0:0:
437,188,244595,1,0,0:0:0:0:
430,216,244712,1,0,0:0:0:0:
413,239,244829,1,0,0:0:0:0:
389,255,244946,1,8,0:1:0:0:
280,292,245181,2,0,L|216:308,1,57.7500017623902
196,312,245415,6,0,P|192:348|176:368,2,57.7500017623902,0|0|0,1:0|1:0|1:0,1:0:0:0:
120,224,245884,1,0,1:0:0:0:
168,116,246119,1,8,0:1:0:0:
56,136,246353,2,0,L|-12:112,4,57.7500017623902,0|0|0|0|8,0:0|0:0|0:0|0:0|0:1,0:0:0:0:
124,44,247056,1,0,0:0:0:0:
150,33,247173,1,0,0:0:0:0:
179,32,247290,1,0,1:0:0:0:
206,41,247407,1,0,1:0:0:0:
228,60,247525,6,0,P|288:88|340:72,1,115.50000352478,0|0,1:0|1:0,1:0:0:0:
436,24,247994,1,8,0:1:0:0:
400,132,248228,1,0,0:0:0:0:
385,156,248345,1,0,0:0:0:0:
370,181,248462,1,0,0:0:0:0:
355,206,248579,1,0,0:0:0:0:
341,231,248696,1,8,0:1:0:0:
248,300,248931,1,0,0:0:0:0:
248,300,249048,1,0,0:0:0:0:
248,300,249165,6,0,P|208:280|188:260,2,57.7500017623902,0|0|0,1:0|1:0|1:0,1:0:0:0:
360,328,249634,1,0,1:0:0:0:
432,240,249869,1,8,0:1:0:0:
464,140,250103,2,0,L|484:80,1,57.7500017623902
436,132,250337,2,0,L|436:64,1,57.7500017623902
400,124,250572,1,8,0:1:0:0:
300,68,250806,1,0,0:0:0:0:
272,59,250923,1,0,0:0:0:0:
243,55,251040,1,0,1:0:0:0:
215,57,251157,1,0,1:0:0:0:
187,65,251275,5,0,1:0:0:0:
148,172,251509,1,0,1:0:0:0:
187,65,251744,1,8,0:1:0:0:
244,168,251978,1,0,0:0:0:0:
239,196,252095,1,0,0:0:0:0:
227,222,252212,1,0,0:0:0:0:
208,244,252329,1,0,0:0:0:0:
184,260,252446,1,8,0:1:0:0:
76,304,252681,2,0,L|20:328,1,57.7500017623902
80,332,252915,2,0,L|24:356,1,57.7500017623902
100,356,253150,5,0,1:0:0:0:
112,240,253384,1,0,1:0:0:0:
160,136,253619,1,8,0:1:0:0:
56,188,253853,1,0,0:0:0:0:
48,160,253970,1,0,0:0:0:0:
47,131,254087,1,0,0:0:0:0:
51,102,254204,1,0,0:0:0:0:
61,75,254321,1,8,0:1:0:0:
160,136,254556,1,0,0:0:0:0:
184,150,254673,1,0,0:0:0:0:
212,156,254790,1,0,1:0:0:0:
241,153,254907,1,0,1:0:0:0:
267,141,255025,6,0,P|292:156|316:252,1,115.50000352478,0|0,1:0|1:0,1:0:0:0:
296,348,255494,1,8,0:1:0:0:
408,320,255728,1,0,0:0:0:0:
408,291,255845,1,0,0:0:0:0:
408,262,255962,1,0,0:0:0:0:
408,233,256079,1,0,0:0:0:0:
408,204,256196,1,8,0:1:0:0:
432,92,256431,1,0,0:0:0:0:
432,92,256548,1,0,0:0:0:0:
432,92,256665,6,0,P|468:64|484:36,2,57.7500017623902,0|0|0,1:0|1:0|1:0,1:0:0:0:
320,120,257134,1,0,1:0:0:0:
388,24,257369,1,8,0:1:0:0:
276,52,257603,1,0,0:0:0:0:
276,52,257720,1,0,0:0:0:0:
276,52,257837,1,0,0:0:0:0:
276,52,257954,1,0,0:0:0:0:
276,52,258072,1,8,0:1:0:0:
200,140,258306,2,0,L|220:204,1,57.7500017623902
172,160,258540,2,0,L|192:224,1,57.7500017623902,0|0,1:0|1:0,1:0:0:0:
136,160,258775,6,0,P|80:148|36:88,1,115.50000352478,0|0,1:0|1:0,1:0:0:0:
139,47,259244,1,8,0:1:0:0:
136,160,259478,1,0,0:0:0:0:
132,188,259595,1,0,0:0:0:0:
135,217,259712,1,0,0:0:0:0:
144,244,259829,1,0,0:0:0:0:
160,268,259946,1,8,0:1:0:0:
244,346,260181,1,0,0:0:0:0:
260,322,260298,1,0,0:0:0:0:
269,295,260415,1,0,1:0:0:0:
272,266,260532,1,0,1:0:0:0:
268,236,260650,5,0,1:0:0:0:
296,124,260884,1,0,1:0:0:0:
408,156,261119,1,8,0:1:0:0:
380,268,261353,2,0,L|416:328,4,57.7500017623902,0|0|0|0|8,0:0|0:0|0:0|0:0|0:1,0:0:0:0:
268,236,262056,1,0,0:0:0:0:
252,212,262173,1,0,0:0:0:0:
243,185,262290,1,0,1:0:0:0:
240,156,262407,1,0,1:0:0:0:
244,128,262525,6,0,L|124:136,1,115.50000352478,0|0,1:0|1:0,1:0:0:0:
12,124,262994,1,8,0:1:0:0:
80,200,263228,2,0,P|106:212|134:216,1,57.7500017623902
68,224,263462,2,0,P|94:236|122:240,1,57.7500017623902
48,252,263697,1,8,0:1:0:0:
140,324,263931,2,0,L|216:312,1,57.7500017623902
224,312,264165,6,0,P|256:340|276:348,2,57.7500017623902,0|0|0,1:0|1:0|1:0,1:0:0:0:
248,200,264634,1,0,1:0:0:0:
364,216,264869,1,8,0:1:0:0:
324,108,265104,1,0,0:0:0:0:
352,101,265221,1,0,0:0:0:0:
378,89,265338,1,0,0:0:0:0:
400,70,265454,1,0,0:0:0:0:
417,48,265572,1,8,0:1:0:0:
304,28,265806,1,0,0:0:0:0:
275,28,265923,1,0,0:0:0:0:
246,28,266040,1,0,1:0:0:0:
217,28,266157,1,0,1:0:0:0:
188,28,266275,5,0,1:0:0:0:
72,20,266509,1,0,1:0:0:0:
188,28,266744,1,8,0:1:0:0:
120,120,266978,1,0,0:0:0:0:
91,126,267095,1,0,0:0:0:0:
65,138,267212,1,0,0:0:0:0:
43,157,267329,1,0,0:0:0:0:
26,179,267446,1,8,0:1:0:0:
124,236,267681,1,0,0:0:0:0:
124,236,267798,1,0,0:0:0:0:
124,236,267915,6,0,L|60:260,2,57.7500017623902,0|0|0,1:0|1:0|1:0,1:0:0:0:
240,236,268384,1,0,1:0:0:0:
336,172,268619,1,8,0:1:0:0:
312,284,268853,1,0,0:0:0:0:
291,303,268970,1,0,0:0:0:0:
265,317,269087,1,0,0:0:0:0:
236,320,269204,1,0,0:0:0:0:
208,316,269321,1,8,0:1:0:0:
240,236,269556,1,0,0:0:0:0:
246,202,269673,1,8,0:1:0:0:
247,167,269790,1,8,0:1:0:0:
242,133,269907,1,8,0:1:0:0:
231,100,270025,5,4,1:0:0:0:
124,52,270259,1,0,1:0:0:0:
231,100,270494,1,8,0:1:0:0:
332,148,270728,2,0,L|344:220,1,57.7500017623902
392,180,270962,2,0,L|404:240,1,57.7500017623902
452,208,271197,1,8,0:1:0:0:
476,320,271431,1,0,0:0:0:0:
450,333,271548,1,0,0:0:0:0:
423,341,271665,1,0,1:0:0:0:
394,344,271783,1,0,1:0:0:0:
364,340,271900,6,0,P|296:316|228:324,1,115.50000352478,0|0,1:0|1:0,1:0:0:0:
144,284,272369,1,8,0:1:0:0:
32,316,272603,1,0,0:0:0:0:
32,316,272720,1,0,0:0:0:0:
32,316,272837,1,0,0:0:0:0:
32,316,272954,1,0,0:0:0:0:
32,316,273072,1,8,0:1:0:0:
56,204,273306,1,0,0:0:0:0:
64,176,273423,1,0,0:0:0:0:
60,148,273540,6,0,P|25:122|16:104,2,57.7500017623902,0|0|0,1:0|1:0|1:0,1:0:0:0:
176,164,274009,1,0,1:0:0:0:
292,156,274244,1,8,0:1:0:0:
336,48,274478,1,0,0:0:0:0:
360,62,274595,1,0,0:0:0:0:
381,82,274712,1,0,0:0:0:0:
396,107,274829,1,0,0:0:0:0:
406,134,274946,1,8,0:1:0:0:
384,248,275181,2,0,P|370:286|370:307,1,57.7500017623902
366,332,275415,6,0,L|428:365,2,57.7500017623902,0|0|0,1:0|1:0|1:0,1:0:0:0:
264,280,275884,1,0,1:0:0:0:
328,184,276119,1,8,0:1:0:0:
264,280,276353,1,0,0:0:0:0:
243,299,276470,1,0,0:0:0:0:
218,314,276587,1,0,0:0:0:0:
190,321,276704,1,0,0:0:0:0:
161,322,276821,1,8,0:1:0:0:
72,248,277056,2,0,L|12:220,1,57.7500017623902
72,200,277290,2,0,L|12:172,1,57.7500017623902,0|0,1:0|1:0,1:0:0:0:
72,156,277525,6,0,B|92:120|92:120|124:104|124:104|148:68,1,115.50000352478,0|0,1:0|1:0,1:0:0:0:
252,28,277994,1,8,0:1:0:0:
200,132,278228,1,0,0:0:0:0:
223,149,278345,1,0,0:0:0:0:
246,166,278462,1,0,0:0:0:0:
269,183,278579,1,0,0:0:0:0:
293,200,278697,1,8,0:1:0:0:
324,312,278931,1,0,0:0:0:0:
349,298,279048,1,0,0:0:0:0:
371,280,279165,1,0,1:0:0:0:
390,258,279282,1,0,1:0:0:0:
404,232,279400,6,0,B|428:180|428:180|428:100,1,115.50000352478,0|0,1:0|1:0,1:0:0:0:
464,12,279869,1,8,0:1:0:0:
356,56,280103,1,0,0:0:0:0:
328,65,280220,1,0,0:0:0:0:
300,71,280337,1,0,0:0:0:0:
271,71,280454,1,0,0:0:0:0:
243,67,280571,1,8,0:1:0:0:
132,32,280806,1,0,0:0:0:0:
104,28,280923,1,0,0:0:0:0:
76,32,281040,6,0,P|40:44|20:60,2,57.7500017623902,0|0|0,1:0|1:0|1:0,1:0:0:0:
172,96,281509,1,0,1:0:0:0:
208,220,281744,1,8,0:1:0:0:
96,192,281978,2,0,L|88:124,4,57.7500017623902,0|0|0|0|8,0:0|0:0|0:0|0:0|0:1,0:0:0:0:
116,304,282681,1,0,0:0:0:0:
123,331,282798,1,0,0:0:0:0:
141,353,282915,1,0,1:0:0:0:
167,365,283032,1,0,1:0:0:0:
196,364,283150,6,0,P|255:347|323:363,1,115.50000352478,0|0,1:0|1:0,1:0:0:0:
408,296,283619,1,8,0:1:0:0:
472,200,283853,2,0,L|472:128,1,57.7500017623902
428,104,284087,2,0,L|428:172,1,57.7500017623902
392,204,284322,1,8,0:1:0:0:
292,260,284556,1,0,0:0:0:0:
263,254,284673,1,0,0:0:0:0:
235,248,284791,1,0,1:0:0:0:
207,242,284908,1,0,1:0:0:0:
178,236,285026,5,0,1:0:0:0:
68,208,285260,1,0,1:0:0:0:
148,124,285494,1,8,0:1:0:0:
68,44,285728,1,0,0:0:0:0:
68,44,285845,1,0,0:0:0:0:
68,44,285962,2,0,P|32:44|12:36,2,57.7500017623902,0|0|8,0:0|0:0|0:1,0:0:0:0:
180,24,286431,1,0,0:0:0:0:
207,15,286548,1,0,0:0:0:0:
236,12,286666,1,0,1:0:0:0:
265,13,286783,1,0,1:0:0:0:
292,24,286900,6,0,B|328:48|328:48|363:33|408:44,1,115.50000352478,0|0,1:0|1:0,1:0:0:0:
376,156,287369,1,8,0:1:0:0:
464,80,287603,1,0,0:0:0:0:
466,108,287720,1,0,0:0:0:0:
469,137,287837,1,0,0:0:0:0:
472,166,287954,1,0,0:0:0:0:
475,194,288071,1,8,0:1:0:0:
372,248,288306,2,0,L|412:308,1,57.7500017623902
424,316,288540,6,0,P|456:296|472:264,2,57.7500017623902,0|0|0,1:0|1:0|1:0,1:0:0:0:
308,300,289009,1,0,1:0:0:0:
192,316,289244,1,8,0:1:0:0:
80,296,289478,1,0,0:0:0:0:
58,276,289595,1,0,0:0:0:0:
44,251,289712,1,0,0:0:0:0:
38,223,289829,1,0,0:0:0:0:
41,194,289946,1,8,0:1:0:0:
128,116,290181,2,0,P|155:96|172:72,1,57.7500017623902
172,136,290415,2,0,P|199:116|216:92,1,57.7500017623902,0|0,1:0|1:0,1:0:0:0:
216,156,290650,6,0,B|260:176|260:176|276:200|276:200|312:216,1,115.50000352478,0|0,1:0|1:0,1:0:0:0:
424,196,291119,1,8,0:1:0:0:
385,298,291353,1,0,0:0:0:0:
407,278,291470,1,0,0:0:0:0:
421,253,291587,1,0,0:0:0:0:
427,225,291704,1,0,0:0:0:0:
424,196,291822,1,8,0:1:0:0:
340,116,292056,1,0,0:0:0:0:
340,88,292173,1,0,1:0:0:0:
340,60,292290,6,0,L|340:-4,2,57.7500017623902
272,152,292759,1,0,1:0:0:0:
176,216,292994,1,8,0:1:0:0:
160,100,293228,1,0,0:0:0:0:
143,76,293345,1,0,0:0:0:0:
123,55,293462,1,0,0:0:0:0:
100,37,293579,1,0,0:0:0:0:
75,23,293696,1,8,0:1:0:0:
44,136,293931,2,0,L|8:188,1,57.7500017623902
68,180,294165,2,0,L|28:236,1,57.7500017623902,0|0,1:0|1:0,1:0:0:0:
92,224,294400,6,0,B|124:272|124:272|188:300,1,115.50000352478,0|0,1:0|1:0,1:0:0:0:
288,268,294869,1,8,0:1:0:0:
208,184,295103,1,0,0:0:0:0:
236,184,295220,1,0,0:0:0:0:
265,184,295337,1,0,0:0:0:0:
294,184,295454,1,0,0:0:0:0:
323,184,295572,1,8,0:1:0:0:
376,80,295806,1,0,0:0:0:0:
400,96,295923,1,0,0:0:0:0:
420,116,296040,6,0,P|444:152|452:172,2,57.7500017623902,0|0|0,1:0|1:0|1:0,1:0:0:0:
480,16,296509,1,0,1:0:0:0:
364,4,296744,1,8,0:1:0:0:
256,40,296978,1,0,0:0:0:0:
229,51,297095,1,0,0:0:0:0:
201,56,297212,1,0,0:0:0:0:
172,54,297329,1,0,0:0:0:0:
144,47,297446,1,8,0:1:0:0:
104,156,297681,1,0,0:0:0:0:
104,156,297798,1,0,0:0:0:0:
104,156,297915,1,0,1:0:0:0:
104,156,298033,1,0,1:0:0:0:
104,156,298150,6,0,P|160:188|224:200,1,115.50000352478,0|0,1:0|1:0,1:0:0:0:
324,200,298619,1,8,0:1:0:0:
252,292,298853,1,0,0:0:0:0:
252,292,298970,1,0,0:0:0:0:
252,292,299087,1,0,0:0:0:0:
252,292,299204,1,0,0:0:0:0:
252,292,299322,1,8,0:1:0:0:
324,200,299556,1,0,0:0:0:0:
345,170,299673,1,8,0:1:0:0:
366,140,299790,1,8,0:1:0:0:
388,110,299908,1,8,0:1:0:0:
408,80,300025,5,6,1:0:0:0:
480,0,300259,1,0,0:0:0:0:
376,8,300494,6,0,L|264:24,1,105,8|0,0:0|0:0,0:0:0:0:
272,128,301197,2,0,L|160:112,1,105,8|0,0:0|0:0,0:0:0:0:
96,40,301900,1,2,0:0:0:0:
72,140,302134,1,0,0:0:0:0:
44,240,302369,6,0,B|108:268|96:224|164:260,1,105,8|2,0:0|0:0,0:0:0:0:
216,332,303072,2,0,P|248:276|248:212,1,105,8|0,0:0|0:0,0:0:0:0:
224,128,303775,1,2,0:0:0:0:
328,96,304009,1,0,0:0:0:0:
432,136,304244,6,0,B|416:200|416:200|424:240,1,105,8|0,0:0|0:0,0:0:0:0:
439,336,304947,2,0,P|388:331|348:298,1,105,8|0,0:0|0:0,0:0:0:0:
288,212,305650,1,0,0:0:0:0:
288,212,305884,1,0,0:0:0:0:
224,296,306119,6,0,P|184:329|132:333,1,105,8|0,0:0|0:0,0:0:0:0:
144,232,306822,2,0,L|96:124,1,105,8|0,0:0|0:0,0:0:0:0:
176,64,307525,1,2,0:0:0:0:
72,64,307759,1,0,0:0:0:0:
176,64,307994,6,0,B|216:68|216:68|248:88|248:88|288:88,1,105,8|0,0:0|0:0,0:0:0:0:
352,12,308697,2,0,P|384:76|376:132,1,105,8|0,0:0|0:0,0:0:0:0:
384,212,309400,1,0,0:0:0:0:
332,300,309634,1,0,0:0:0:0:
277,212,309869,6,0,L|172:212,1,105,8|2,0:0|0:0,0:0:0:0:
68,204,310572,2,0,P|92:148|136:116,1,105,8|0,0:0|0:0,0:0:0:0:
232,116,311275,1,2,0:0:0:0:
172,28,311509,1,0,0:0:0:0:
278,22,311744,6,0,L|226:126,1,105,8|0,0:0|0:0,0:0:0:0:
336,108,312447,2,0,L|416:184,1,105,8|0,0:0|0:0,0:0:0:0:
488,256,313150,1,0,0:0:0:0:
488,256,313384,1,0,0:0:0:0:
400,316,313619,6,0,B|352:328|352:328|292:316,1,105,8|0,0:0|0:0,0:0:0:0:
240,228,314322,2,0,B|185:217|185:217|137:229,1,105,8|0,0:0|0:0,0:0:0:0:
56,296,315025,1,2,0:0:0:0:
137,229,315259,1,0,0:0:0:0:
84,136,315494,6,0,B|52:84|96:72|56:28,1,105,8|0,0:0|0:0,0:0:0:0:
152,96,316197,2,0,P|216:132|252:132,1,105,8|0,0:0|0:0,0:0:0:0:
232,28,316900,1,2,0:0:0:0:
316,92,317134,1,0,0:0:0:0:
312,196,317369,6,0,P|292:256|248:292,1,105,8|2,0:0|0:0,0:0:0:0:
208,196,318072,2,0,B|160:168|160:168|96:152,1,105,8|0,0:0|0:0,0:0:0:0:
40,80,318775,1,2,0:0:0:0:
44,184,319009,1,0,0:0:0:0:
92,276,319244,6,0,P|140:288|208:272,1,105,8|0,0:0|0:0,0:0:0:0:
292,236,319947,2,0,P|343:226|393:238,1,105,8|0,0:0|0:0,0:0:0:0:
344,332,320650,1,0,0:0:0:0:
292,236,320884,1,0,0:0:0:0:
228,152,321119,6,0,L|152:72,1,105,8|0,0:0|0:0,0:0:0:0:
260,76,321822,2,0,L|364:78,1,105,8|0,0:0|0:0,0:0:0:0:
468,76,322525,1,2,0:0:0:0:
416,168,322759,1,0,0:0:0:0:
508,220,322994,6,0,P|484:248|416:272,1,105,8|0,0:0|0:0,0:0:0:0:
416,168,323697,2,0,P|352:140|296:132,1,105,8|0,0:0|0:0,0:0:0:0:
228,76,324400,1,0,0:0:0:0:
228,76,324634,1,0,0:0:0:0:
228,76,324869,6,0,P|176:72|120:44,1,105,8|2,0:0|0:0,0:0:0:0:
128,50,325572,2,0,L|128:168,1,105,8|0,0:0|0:0,0:0:0:0:
136,260,326275,1,2,0:0:0:0:
136,260,326509,1,0,0:0:0:0:
136,260,326744,6,0,P|175:304|227:316,1,105,8|0,0:0|0:0,0:0:0:0:
256,192,327681,12,0,329790,0:0:0:0:
168,96,330025,5,4,0:0:0:0:
256,192,330142,12,0,339869,0:0:0:0:
