osu file format v14

[General]
AudioFilename: audio.mp3
AudioLeadIn: 0
PreviewTime: 74507
Countdown: 0
SampleSet: Normal
StackLeniency: 0.2
Mode: 1
LetterboxInBreaks: 0
WidescreenStoryboard: 1

[Editor]
DistanceSpacing: 0.9
BeatDivisor: 4
GridSize: 32
TimelineZoom: 2.899999

[Metadata]
Title:2,5-dimethoxy-4-(n)-propylthiophenethylamine qebrus version
TitleUnicode:⍎ 2,5-dimethoxy-4-(n)-propylthiophenethylamine ⍎ uoᴉsɹǝʌ snɹqǝb
Artist:Mr Bill & Qebrus
ArtistUnicode:Mr Bill & Qebrus
Creator:Genjuro
Version:Futsuu
Source:
Tags:idm breakcore experimental
BeatmapID:2113354
BeatmapSetID:1009502

[Difficulty]
HPDrainRate:7
CircleSize:2
OverallDifficulty:4
ApproachRate:9
SliderMultiplier:1.4
SliderTickRate:1

[Events]
//Background and Video events
0,0,"bg.jpg",0,-5
//Break Periods
2,147319,167325
//Storyboard Layer 0 (Background)
//Storyboard Layer 1 (Fail)
//Storyboard Layer 2 (Pass)
//Storyboard Layer 3 (Foreground)
//Storyboard Sound Samples

[TimingPoints]
34630,487.80487804878,4,1,0,50,1,0
38532,-100,4,1,0,65,0,0
50239,-80,4,1,0,65,0,0
65360,487.80487804878,4,1,0,40,1,0
65360,-80,4,1,0,40,0,0
66823,487.80487804878,4,1,0,70,1,8
66825,487.80487804878,4,1,0,70,1,0
66825,-57.1428571428571,4,1,0,70,0,0
68776,-50,4,1,0,60,0,0
68837,-100,4,1,0,50,0,0
70727,-86.2068965517241,4,1,0,55,0,0
72678,-75.187969924812,4,1,0,60,0,0
74629,-66.6666666666667,4,1,0,70,0,0
76580,487.80487804878,4,1,0,80,1,0
76580,-66.6666666666667,4,1,0,80,0,0
88775,-66.6666666666667,4,1,0,60,0,0
89506,-66.6666666666667,4,1,0,70,0,0
90238,-66.6666666666667,4,1,0,80,0,0
96579,-66.6666666666667,4,1,0,60,0,0
97555,-66.6666666666667,4,1,0,70,0,0
98043,487.80487804878,4,1,0,80,1,8
98045,487.80487804878,4,1,0,80,1,0
98045,-66.6666666666667,4,1,0,80,0,0
101947,-66.6666666666667,4,1,0,60,0,0
103288,-66.6666666666667,4,1,0,70,0,0
103898,-66.6666666666667,4,1,0,80,0,0
109750,487.80487804878,4,1,0,80,1,8
109810,487.80487804878,4,1,0,80,1,0
109810,-66.6666666666667,4,1,0,80,0,0
117980,-66.6666666666667,4,1,0,65,0,0
119566,-66.6666666666667,4,1,0,80,0,0
122249,-66.6666666666667,4,1,0,65,0,0
123468,-66.6666666666667,4,1,0,80,0,0
125297,-66.6666666666667,4,1,0,70,0,0
125419,487.80487804878,4,1,0,70,1,8
125420,487.408610885459,4,1,0,70,1,0
125420,-66.6666666666667,4,1,0,70,0,0
127857,-66.6666666666667,4,1,0,60,0,0
129319,-50,4,1,0,80,0,0
131268,-40,4,1,0,100,0,0
132215,487.80487804878,4,1,0,60,1,0
132215,-66.6666666666667,4,1,0,60,0,0
133660,487.80487804878,4,1,0,80,1,0
133660,-66.6666666666667,4,1,0,80,0,0
139513,487.80487804878,4,1,0,60,1,8
139515,487.80487804878,4,1,0,60,1,0
139515,-66.6666666666667,4,1,0,60,0,0
140856,-66.6666666666667,4,1,0,70,0,0
141466,-66.6666666666667,4,1,0,80,0,0
147319,-66.6666666666667,4,1,0,5,0,0
149271,-125,4,1,0,20,0,0
167925,487.80487804878,4,1,0,80,1,0
167925,-66.6666666666667,4,1,0,80,0,0
176095,-66.6666666666667,4,1,0,60,0,0
177071,-66.6666666666667,4,1,0,70,0,0
177681,-66.6666666666667,4,1,0,80,0,0
180485,-66.6666666666667,4,1,0,65,0,0
181583,487.80487804878,4,1,0,80,1,8
181585,487.80487804878,4,1,0,80,1,0
181585,-66.6666666666667,4,1,0,80,0,0
190243,-66.6666666666667,4,1,0,65,0,0
191341,-66.6666666666667,4,1,0,80,0,0
193292,-66.6666666666667,4,1,0,50,0,0
194359,-66.6666666666667,4,1,0,65,0,0
195243,-66.6666666666667,4,1,0,80,0,0
197560,-66.6666666666667,4,1,0,65,0,0
199024,-66.6666666666667,4,1,0,80,0,0
199633,-66.6666666666667,4,1,0,65,0,0
201097,-66.6666666666667,4,1,0,80,0,0
202560,-66.6666666666667,4,1,0,65,0,0
203048,-66.6666666666667,4,1,0,50,0,0
203658,-66.6666666666667,4,1,0,70,0,0
204999,-66.6666666666667,4,1,0,80,0,0
208902,-66.6666666666667,4,1,0,65,0,0
209267,-66.6666666666667,4,1,0,80,0,0
212804,-66.6666666666667,4,1,0,50,0,1
214755,-57.1428571428571,4,1,0,60,0,1
216676,-50,4,1,0,70,0,0
216920,-33.3333333333333,4,1,0,100,0,1
218658,487.80487804878,4,1,0,80,1,8
218660,487.80487804878,4,1,0,80,1,0
218660,-66.6666666666667,4,1,0,80,0,0
222562,-66.6666666666667,4,1,0,50,0,0
224513,-66.6666666666667,4,1,0,50,0,0
226099,-66.6666666666667,4,1,0,50,0,0
226464,-66.6666666666667,4,1,0,48,0,0
227115,-100,4,1,0,45,0,0
227765,-100,4,1,0,40,0,0
228416,-100,4,1,0,35,0,0
229066,-100,4,1,0,30,0,0
229716,-100,4,1,0,25,0,0
230367,-100,4,1,0,20,0,0
232318,-80,4,1,0,30,0,0
234269,-66.6666666666667,4,1,0,40,0,0
236220,-57.1428571428571,4,1,0,50,0,0
238172,-50,4,1,0,60,0,0
240123,-44.4444444444445,4,1,0,70,0,0
241007,-44.4444444444445,4,1,0,5,0,0

[HitObjects]
256,192,34629,5,0,0:0:0:0:
256,192,35483,1,0,0:0:0:0:
256,192,36093,1,8,0:0:0:0:
256,192,36581,1,0,0:0:0:0:
256,192,37434,1,0,0:0:0:0:
256,192,38532,1,0,0:0:0:0:
256,192,39020,1,8,0:0:0:0:
256,192,39751,1,0,0:0:0:0:
256,192,39995,1,8,0:0:0:0:
256,192,40483,1,0,0:0:0:0:
256,192,40971,1,8,0:0:0:0:
256,192,41215,1,0,0:0:0:0:
256,192,41459,1,8,0:0:0:0:
256,192,42434,1,0,0:0:0:0:
256,192,43410,1,8,0:0:0:0:
256,192,44142,1,8,0:0:0:0:
256,192,44386,1,0,0:0:0:0:
256,192,44873,1,8,0:0:0:0:
256,192,45239,1,8,0:0:0:0:
256,192,45849,1,0,0:0:0:0:
256,192,46093,1,8,0:0:0:0:
256,192,46337,1,0,0:0:0:0:
256,192,47190,1,0,0:0:0:0:
256,192,47800,1,8,0:0:0:0:
256,192,48288,1,0,0:0:0:0:
256,192,49142,1,8,0:0:0:0:
256,192,49508,1,8,0:0:0:0:
256,192,50239,1,0,0:0:0:0:
256,192,50727,1,8,0:0:0:0:
256,192,51093,1,0,0:0:0:0:
256,192,51459,1,0,0:0:0:0:
256,192,51703,1,8,0:0:0:0:
256,192,52190,1,0,0:0:0:0:
256,192,52678,1,8,0:0:0:0:
256,192,53166,1,8,0:0:0:0:
256,192,53532,1,8,0:0:0:0:
256,192,54142,1,0,0:0:0:0:
256,192,54508,1,8,0:0:0:0:
256,192,54873,1,8,0:0:0:0:
256,192,55361,1,0,0:0:0:0:
256,192,55605,1,8,0:0:0:0:
256,192,56093,1,0,0:0:0:0:
256,192,56581,1,0,0:0:0:0:
256,192,57069,1,8,0:0:0:0:
256,192,58044,1,0,0:0:0:0:
256,192,58532,1,8,0:0:0:0:
256,192,59264,1,8,0:0:0:0:
256,192,59752,1,8,0:0:0:0:
256,192,59995,1,0,0:0:0:0:
256,192,60483,1,0,0:0:0:0:
256,192,60971,1,8,0:0:0:0:
256,192,61947,1,0,0:0:0:0:
256,192,62434,1,8,0:0:0:0:
256,192,62800,1,0,0:0:0:0:
256,192,63166,1,8,0:0:0:0:
256,192,63654,1,0,0:0:0:0:
256,192,63898,1,0,0:0:0:0:
256,192,64386,1,8,0:0:0:0:
256,192,64751,1,0,0:0:0:0:
256,192,65117,1,0,0:0:0:0:
256,192,65360,1,8,0:0:0:0:
256,192,66825,1,4,0:0:0:0:
256,192,68776,8,0,74385,0:0:0:0:
256,192,74629,5,4,0:0:0:0:
256,192,75117,1,4,0:0:0:0:
256,192,75605,1,4,0:0:0:0:
256,192,76093,1,4,0:0:0:0:
256,192,76580,1,4,0:0:0:0:
256,192,77067,1,8,0:0:0:0:
256,192,77433,1,0,0:0:0:0:
256,192,77799,1,0,0:0:0:0:
256,192,78043,1,8,0:0:0:0:
256,192,78531,1,4,0:0:0:0:
256,192,79019,1,8,0:0:0:0:
256,192,79384,1,0,0:0:0:0:
256,192,79628,1,0,0:0:0:0:
256,192,79750,1,0,0:0:0:0:
256,192,79994,1,8,0:0:0:0:
256,192,80482,1,4,0:0:0:0:
256,192,80970,1,8,0:0:0:0:
256,192,81214,1,0,0:0:0:0:
256,192,81701,1,0,0:0:0:0:
256,192,81945,1,8,0:0:0:0:
256,192,82433,1,8,0:0:0:0:
256,192,82555,1,8,0:0:0:0:
256,192,82677,1,8,0:0:0:0:
256,192,82921,1,8,0:0:0:0:
256,192,83287,1,0,0:0:0:0:
256,192,83653,1,0,0:0:0:0:
256,192,83897,1,8,0:0:0:0:
256,192,84750,1,8,0:0:0:0:
256,192,85116,1,0,0:0:0:0:
256,192,85482,1,0,0:0:0:0:
256,192,85848,1,8,0:0:0:0:
256,192,86336,1,4,0:0:0:0:
256,192,86823,1,8,0:0:0:0:
256,192,87189,1,8,0:0:0:0:
256,192,87799,1,8,0:0:0:0:
256,192,88287,1,0,0:0:0:0:
256,192,88775,8,0,89994,0:0:0:0:
256,192,90238,5,4,0:0:0:0:
256,192,90726,1,8,0:0:0:0:
256,192,90970,1,0,0:0:0:0:
256,192,91336,1,0,0:0:0:0:
256,192,91701,1,8,0:0:0:0:
256,192,92189,1,4,0:0:0:0:
256,192,92677,1,8,0:0:0:0:
256,192,92921,1,0,0:0:0:0:
256,192,93409,1,0,0:0:0:0:
256,192,93653,1,8,0:0:0:0:
256,192,94140,1,4,0:0:0:0:
256,192,94628,1,8,0:0:0:0:
256,192,95360,1,0,0:0:0:0:
256,192,95604,1,8,0:0:0:0:
256,192,96092,1,4,0:0:0:0:
256,192,97555,1,8,0:0:0:0:
256,192,98045,1,4,0:0:0:0:
256,192,98532,1,0,0:0:0:0:
256,192,98898,1,8,0:0:0:0:
256,192,99264,1,0,0:0:0:0:
256,192,99508,1,8,0:0:0:0:
256,192,99996,1,4,0:0:0:0:
256,192,100484,1,8,0:0:0:0:
256,192,100849,1,8,0:0:0:0:
256,192,101093,1,0,0:0:0:0:
256,192,101215,1,0,0:0:0:0:
256,192,101459,1,8,0:0:0:0:
256,192,102313,1,0,0:0:0:0:
256,192,102801,1,8,0:0:0:0:
256,192,103045,1,0,0:0:0:0:
256,192,103410,1,8,0:0:0:0:
256,192,103898,1,4,0:0:0:0:
256,192,104386,1,8,0:0:0:0:
256,192,104752,1,8,0:0:0:0:
256,192,105118,1,0,0:0:0:0:
256,192,105362,1,8,0:0:0:0:
256,192,105849,1,0,0:0:0:0:
256,192,106337,1,8,0:0:0:0:
256,192,106581,1,0,0:0:0:0:
256,192,106947,1,0,0:0:0:0:
256,192,107069,1,0,0:0:0:0:
256,192,107313,1,8,0:0:0:0:
256,192,107801,1,4,0:0:0:0:
256,192,108288,1,8,0:0:0:0:
256,192,108532,1,0,0:0:0:0:
256,192,109020,1,0,0:0:0:0:
256,192,109264,1,8,0:0:0:0:
256,192,109810,1,4,0:0:0:0:
256,192,110297,1,8,0:0:0:0:
256,192,110663,1,8,0:0:0:0:
256,192,111029,1,0,0:0:0:0:
256,192,111273,1,8,0:0:0:0:
256,192,111761,1,12,0:0:0:0:
256,192,112249,1,8,0:0:0:0:
256,192,112614,1,0,0:0:0:0:
256,192,112858,1,0,0:0:0:0:
256,192,112980,1,0,0:0:0:0:
256,192,113224,1,8,0:0:0:0:
256,192,113712,1,4,0:0:0:0:
256,192,114200,1,8,0:0:0:0:
256,192,114444,1,0,0:0:0:0:
256,192,114931,1,0,0:0:0:0:
256,192,115175,1,8,0:0:0:0:
256,192,115663,1,4,0:0:0:0:
256,192,116029,1,8,0:0:0:0:
256,192,116517,1,0,0:0:0:0:
256,192,116883,1,0,0:0:0:0:
256,192,117127,1,8,0:0:0:0:
256,192,117980,1,8,0:0:0:0:
256,192,118346,1,0,0:0:0:0:
256,192,118712,1,0,0:0:0:0:
256,192,119078,1,8,0:0:0:0:
256,192,119566,1,4,0:0:0:0:
256,192,120053,1,8,0:0:0:0:
256,192,120419,1,8,0:0:0:0:
256,192,120663,1,0,0:0:0:0:
256,192,120785,1,0,0:0:0:0:
256,192,121029,1,8,0:0:0:0:
256,192,121273,1,8,0:0:0:0:
256,192,121517,1,4,0:0:0:0:
256,192,122249,1,0,0:0:0:0:
256,192,122614,1,0,0:0:0:0:
256,192,122980,1,8,0:0:0:0:
256,192,123468,1,4,0:0:0:0:
256,192,123956,1,8,0:0:0:0:
256,192,124200,1,0,0:0:0:0:
256,192,124566,1,0,0:0:0:0:
256,192,124931,1,8,0:0:0:0:
256,192,125420,1,4,0:0:0:0:
256,192,125907,1,4,0:0:0:0:
256,192,126394,1,4,0:0:0:0:
256,192,126882,1,4,0:0:0:0:
256,192,127369,1,12,0:0:0:0:
256,192,127857,8,0,132000,0:0:0:0:
256,192,132215,5,0,0:0:0:0:
256,192,132702,1,8,0:0:0:0:
256,192,133068,1,8,0:0:0:0:
256,192,133660,1,4,0:0:0:0:
256,192,134147,1,8,0:0:0:0:
256,192,134513,1,0,0:0:0:0:
256,192,134757,1,0,0:0:0:0:
256,192,134879,1,0,0:0:0:0:
256,192,135123,1,8,0:0:0:0:
256,192,135611,1,0,0:0:0:0:
256,192,136099,1,8,0:0:0:0:
256,192,136342,1,0,0:0:0:0:
256,192,136830,1,0,0:0:0:0:
256,192,137074,1,8,0:0:0:0:
256,192,137562,1,4,0:0:0:0:
256,192,138050,1,8,0:0:0:0:
256,192,138416,1,8,0:0:0:0:
256,192,138781,1,0,0:0:0:0:
256,192,139025,1,8,0:0:0:0:
256,192,139880,1,0,0:0:0:0:
256,192,140368,1,8,0:0:0:0:
256,192,140978,1,8,0:0:0:0:
256,192,141466,1,4,0:0:0:0:
256,192,141954,1,8,0:0:0:0:
256,192,142685,1,0,0:0:0:0:
256,192,142929,1,8,0:0:0:0:
256,192,143417,1,4,0:0:0:0:
256,192,143905,1,8,0:0:0:0:
256,192,144271,1,8,0:0:0:0:
256,192,144636,1,0,0:0:0:0:
256,192,144880,1,8,0:0:0:0:
256,192,145368,1,4,0:0:0:0:
256,192,145856,1,8,0:0:0:0:
256,192,146100,1,0,0:0:0:0:
256,192,146466,1,0,0:0:0:0:
256,192,146588,1,0,0:0:0:0:
256,192,146832,1,8,0:0:0:0:
256,192,167925,5,4,0:0:0:0:
256,192,168412,1,8,0:0:0:0:
256,192,168778,1,0,0:0:0:0:
256,192,169144,1,0,0:0:0:0:
256,192,169388,1,8,0:0:0:0:
256,192,170364,1,0,0:0:0:0:
256,192,170729,1,8,0:0:0:0:
256,192,170973,1,0,0:0:0:0:
256,192,171095,1,0,0:0:0:0:
256,192,171339,1,8,0:0:0:0:
256,192,171827,1,4,0:0:0:0:
256,192,172803,1,0,0:0:0:0:
256,192,173290,1,8,0:0:0:0:
256,192,173778,1,4,0:0:0:0:
256,192,174266,1,8,0:0:0:0:
256,192,174632,1,8,0:0:0:0:
256,192,174998,1,0,0:0:0:0:
256,192,175242,1,8,0:0:0:0:
256,192,176095,1,8,0:0:0:0:
256,192,176461,1,0,0:0:0:0:
256,192,176827,1,0,0:0:0:0:
256,192,177193,1,8,0:0:0:0:
256,192,177681,1,4,0:0:0:0:
256,192,178168,1,4,0:0:0:0:
256,192,178656,1,12,0:0:0:0:
256,192,179632,1,4,0:0:0:0:
256,192,180485,1,8,0:0:0:0:
256,192,180851,1,8,0:0:0:0:
256,192,181217,1,8,0:0:0:0:
256,192,181585,1,4,0:0:0:0:
256,192,182072,1,0,0:0:0:0:
256,192,182438,1,8,0:0:0:0:
256,192,182682,1,8,0:0:0:0:
256,192,183048,1,0,0:0:0:0:
256,192,183292,1,8,0:0:0:0:
256,192,183536,1,4,0:0:0:0:
256,192,184024,1,8,0:0:0:0:
256,192,184267,1,0,0:0:0:0:
256,192,184389,1,0,0:0:0:0:
256,192,184511,1,0,0:0:0:0:
256,192,184755,1,0,0:0:0:0:
256,192,184999,1,8,0:0:0:0:
256,192,185487,1,0,0:0:0:0:
256,192,186097,1,8,0:0:0:0:
256,192,186463,1,8,0:0:0:0:
256,192,186950,1,0,0:0:0:0:
256,192,187438,1,4,0:0:0:0:
256,192,188170,1,8,0:0:0:0:
256,192,188536,1,0,0:0:0:0:
256,192,188902,1,8,0:0:0:0:
256,192,189389,1,4,0:0:0:0:
256,192,190243,1,8,0:0:0:0:
256,192,190609,1,0,0:0:0:0:
256,192,190853,1,8,0:0:0:0:
256,192,191341,1,12,0:0:0:0:
256,192,191828,1,8,0:0:0:0:
256,192,192194,1,0,0:0:0:0:
256,192,192560,1,0,0:0:0:0:
256,192,192804,1,8,0:0:0:0:
256,192,193658,1,0,0:0:0:0:
256,192,194725,1,8,0:0:0:0:
256,192,195243,1,4,0:0:0:0:
256,192,195731,1,8,0:0:0:0:
256,192,196097,1,8,0:0:0:0:
256,192,196463,1,0,0:0:0:0:
256,192,196706,1,8,0:0:0:0:
256,192,197194,1,0,0:0:0:0:
256,192,197682,1,8,0:0:0:0:
256,192,198658,1,8,0:0:0:0:
256,192,199145,1,0,0:0:0:0:
256,192,200853,1,8,0:0:0:0:
256,192,201097,1,4,0:0:0:0:
256,192,201706,1,8,0:0:0:0:
256,192,202072,1,8,0:0:0:0:
256,192,202316,1,0,0:0:0:0:
256,192,202560,12,0,203536,0:0:0:0:
256,192,203902,5,8,0:0:0:0:
256,192,204145,1,0,0:0:0:0:
256,192,204267,1,0,0:0:0:0:
256,192,204511,1,8,0:0:0:0:
256,192,204999,1,4,0:0:0:0:
256,192,205487,1,8,0:0:0:0:
256,192,205853,1,8,0:0:0:0:
256,192,206219,1,0,0:0:0:0:
256,192,206463,1,8,0:0:0:0:
256,192,206950,1,4,0:0:0:0:
256,192,207438,1,8,0:0:0:0:
256,192,207804,1,0,0:0:0:0:
256,192,208170,1,0,0:0:0:0:
256,192,208414,1,8,0:0:0:0:
256,192,209267,1,0,0:0:0:0:
256,192,209999,1,0,0:0:0:0:
256,192,210853,1,4,0:0:0:0:
256,192,211341,1,8,0:0:0:0:
256,192,211706,1,8,0:0:0:0:
256,192,211950,1,0,0:0:0:0:
256,192,212072,1,0,0:0:0:0:
256,192,212316,1,8,0:0:0:0:
256,192,212560,1,8,0:0:0:0:
256,192,212804,12,0,216676,0:0:0:0:
256,192,216920,12,0,218536,0:0:0:0:
256,192,218660,5,4,0:0:0:0:
256,192,219147,1,8,0:0:0:0:
256,192,219391,1,0,0:0:0:0:
256,192,219879,1,0,0:0:0:0:
256,192,220123,1,8,0:0:0:0:
256,192,220611,1,4,0:0:0:0:
256,192,221099,1,8,0:0:0:0:
256,192,221464,1,8,0:0:0:0:
256,192,221830,1,0,0:0:0:0:
256,192,222074,1,8,0:0:0:0:
256,192,222562,1,0,0:0:0:0:
256,192,224635,1,8,0:0:0:0:
256,192,224879,1,0,0:0:0:0:
256,192,226099,1,0,0:0:0:0:
256,192,226464,1,8,0:0:0:0:
256,192,230367,12,0,241007,0:0:0:0:
