osu file format v14

[General]
AudioFilename: audio.mp3
AudioLeadIn: 0
PreviewTime: 24031
Countdown: 0
SampleSet: Soft
StackLeniency: 0.7
Mode: 3
LetterboxInBreaks: 0
SpecialStyle: 0
WidescreenStoryboard: 1

[Editor]
DistanceSpacing: 0.7
BeatDivisor: 4
GridSize: 32
TimelineZoom: 0.9999998

[Metadata]
Title:Sigma Anthem (feat. Christian Bale) (Sped Up Ver.)
TitleUnicode:Sigma Anthem (feat. Christian Bale) (Sped Up Ver.)
Artist:Mqx
ArtistUnicode:Mqx
Creator:zohie
Version:BAGJETTKA'S HYPER
Source:
Tags:instrumental american psycho hardstyle hard style electronic patrick bateman edit boot leg bootleg SICKKUNT SOUNDS bagjettka mareux the perfect girl
BeatmapID:4325581
BeatmapSetID:2048850

[Difficulty]
HPDrainRate:8.5
CircleSize:4
OverallDifficulty:8.5
ApproachRate:5
SliderMultiplier:1.4
SliderTickRate:1

[Events]
//Background and Video events
0,0,"bg.jpg",0,0
//Break Periods
//Storyboard Layer 0 (Background)
//Storyboard Layer 1 (Fail)
//Storyboard Layer 2 (Pass)
//Storyboard Layer 3 (Foreground)
//Storyboard Layer 4 (Overlay)
//Storyboard Sound Samples

[TimingPoints]
1037,359.281437125748,4,2,1,40,1,0
24031,-100,4,2,1,40,0,1
47025,-100,4,2,1,40,0,0
58522,-100,4,2,1,40,0,1
81516,-100,4,2,1,40,0,0

[HitObjects]
64,192,1037,5,0,0:0:0:0:
448,192,1216,1,0,0:0:0:0:
192,192,1396,1,0,0:0:0:0:
64,192,1396,1,0,0:0:0:0:
320,192,1575,1,0,0:0:0:0:
64,192,1755,1,0,0:0:0:0:
448,192,1935,1,0,0:0:0:0:
192,192,2114,1,0,0:0:0:0:
64,192,2114,1,0,0:0:0:0:
320,192,2294,1,0,0:0:0:0:
64,192,2474,1,0,0:0:0:0:
192,192,2653,1,0,0:0:0:0:
320,192,2833,1,0,0:0:0:0:
448,192,2833,1,0,0:0:0:0:
192,192,3013,1,0,0:0:0:0:
448,192,3192,1,0,0:0:0:0:
64,192,3372,1,0,0:0:0:0:
320,192,3551,1,0,0:0:0:0:
448,192,3551,1,0,0:0:0:0:
192,192,3731,1,0,0:0:0:0:
448,192,3911,1,0,0:0:0:0:
320,192,4090,1,0,0:0:0:0:
192,192,4270,1,0,0:0:0:0:
64,192,4270,1,0,0:0:0:0:
320,192,4450,1,0,0:0:0:0:
64,192,4629,1,0,0:0:0:0:
448,192,4809,1,0,0:0:0:0:
64,192,4989,1,0,0:0:0:0:
192,192,4989,1,0,0:0:0:0:
320,192,5168,1,0,0:0:0:0:
64,192,5348,1,0,0:0:0:0:
192,192,5528,1,0,0:0:0:0:
448,192,5707,1,0,0:0:0:0:
320,192,5707,1,0,0:0:0:0:
192,192,5887,1,0,0:0:0:0:
448,192,6066,1,0,0:0:0:0:
64,192,6246,1,0,0:0:0:0:
448,192,6426,1,0,0:0:0:0:
320,192,6426,1,0,0:0:0:0:
192,192,6605,1,0,0:0:0:0:
448,192,6785,1,0,0:0:0:0:
320,192,6965,1,0,0:0:0:0:
192,192,7144,1,0,0:0:0:0:
64,192,7144,1,0,0:0:0:0:
448,192,7324,1,0,0:0:0:0:
192,192,7504,1,0,0:0:0:0:
448,192,7683,1,0,0:0:0:0:
192,192,7863,1,0,0:0:0:0:
64,192,7863,1,0,0:0:0:0:
320,192,8042,1,0,0:0:0:0:
64,192,8222,1,0,0:0:0:0:
192,192,8402,1,0,0:0:0:0:
320,192,8581,1,0,0:0:0:0:
448,192,8581,1,0,0:0:0:0:
64,192,8761,1,0,0:0:0:0:
320,192,8941,1,0,0:0:0:0:
64,192,9120,1,0,0:0:0:0:
320,192,9300,1,0,0:0:0:0:
448,192,9300,1,0,0:0:0:0:
192,192,9480,1,0,0:0:0:0:
448,192,9659,1,0,0:0:0:0:
320,192,9839,1,0,0:0:0:0:
192,192,10019,1,0,0:0:0:0:
64,192,10019,1,0,0:0:0:0:
448,192,10198,1,0,0:0:0:0:
64,192,10378,1,0,0:0:0:0:
448,192,10557,1,0,0:0:0:0:
192,192,10737,1,0,0:0:0:0:
64,192,10737,1,0,0:0:0:0:
320,192,10917,1,0,0:0:0:0:
64,192,11096,1,0,0:0:0:0:
192,192,11276,1,0,0:0:0:0:
320,192,11456,1,0,0:0:0:0:
448,192,11456,1,0,0:0:0:0:
64,192,11635,1,0,0:0:0:0:
448,192,11815,1,0,0:0:0:0:
64,192,11995,1,0,0:0:0:0:
448,192,12174,1,0,0:0:0:0:
320,192,12174,1,0,0:0:0:0:
192,192,12354,1,0,0:0:0:0:
448,192,12534,1,0,0:0:0:0:
64,192,12713,1,0,0:0:0:0:
192,192,12893,128,0,13072:0:0:0:0:
448,192,12893,1,0,0:0:0:0:
320,192,13072,1,0,0:0:0:0:
64,192,13252,128,0,13432:0:0:0:0:
448,192,13252,1,0,0:0:0:0:
192,192,13432,1,0,0:0:0:0:
448,192,13611,128,0,13791:0:0:0:0:
64,192,13611,1,0,0:0:0:0:
320,192,13791,1,0,0:0:0:0:
64,192,13971,128,0,14150:0:0:0:0:
448,192,13971,1,0,0:0:0:0:
192,192,14150,1,0,0:0:0:0:
320,192,14330,128,0,14510:0:0:0:0:
64,192,14330,1,0,0:0:0:0:
448,192,14510,1,0,0:0:0:0:
64,192,14689,128,0,14869:0:0:0:0:
320,192,14689,1,0,0:0:0:0:
192,192,14869,1,0,0:0:0:0:
448,192,15048,128,0,15228:0:0:0:0:
64,192,15048,1,0,0:0:0:0:
320,192,15228,1,0,0:0:0:0:
192,192,15408,128,0,15587:0:0:0:0:
64,192,15408,1,0,0:0:0:0:
320,192,15587,1,0,0:0:0:0:
64,192,15767,128,0,15947:0:0:0:0:
448,192,15767,1,0,0:0:0:0:
192,192,15947,1,0,0:0:0:0:
320,192,16126,128,0,16306:0:0:0:0:
64,192,16126,1,0,0:0:0:0:
448,192,16306,1,0,0:0:0:0:
192,192,16486,128,0,16665:0:0:0:0:
320,192,16486,1,0,0:0:0:0:
64,192,16665,1,0,0:0:0:0:
448,192,16845,128,0,17025:0:0:0:0:
192,192,16845,1,0,0:0:0:0:
320,192,17025,1,0,0:0:0:0:
64,192,17204,128,0,17384:0:0:0:0:
448,192,17204,1,0,0:0:0:0:
320,192,17384,1,0,0:0:0:0:
192,192,17563,128,0,17743:0:0:0:0:
448,192,17563,1,0,0:0:0:0:
64,192,17743,1,0,0:0:0:0:
320,192,17923,128,0,18102:0:0:0:0:
192,192,17923,1,0,0:0:0:0:
448,192,18102,1,0,0:0:0:0:
64,192,18282,1,0,0:0:0:0:
448,192,18462,1,0,0:0:0:0:
192,192,18641,128,0,18821:0:0:0:0:
64,192,18641,1,0,0:0:0:0:
320,192,18821,1,0,0:0:0:0:
64,192,19001,128,0,19180:0:0:0:0:
448,192,19001,1,0,0:0:0:0:
192,192,19180,1,0,0:0:0:0:
448,192,19360,128,0,19539:0:0:0:0:
64,192,19360,1,0,0:0:0:0:
320,192,19539,1,0,0:0:0:0:
64,192,19719,128,0,19899:0:0:0:0:
448,192,19719,1,0,0:0:0:0:
192,192,19899,1,0,0:0:0:0:
320,192,20078,128,0,20258:0:0:0:0:
448,192,20078,1,0,0:0:0:0:
192,192,20258,1,0,0:0:0:0:
448,192,20438,128,0,20617:0:0:0:0:
64,192,20438,1,0,0:0:0:0:
320,192,20617,1,0,0:0:0:0:
64,192,20797,128,0,20977:0:0:0:0:
192,192,20797,1,0,0:0:0:0:
448,192,20977,1,0,0:0:0:0:
320,192,21156,128,0,21336:0:0:0:0:
64,192,21156,1,0,0:0:0:0:
192,192,21336,1,0,0:0:0:0:
448,192,21516,128,0,21695:0:0:0:0:
64,192,21516,1,0,0:0:0:0:
320,192,21695,1,0,0:0:0:0:
192,192,21875,128,0,22054:0:0:0:0:
448,192,21875,1,0,0:0:0:0:
64,192,22054,1,0,0:0:0:0:
320,192,22234,128,0,22414:0:0:0:0:
192,192,22234,1,0,0:0:0:0:
448,192,22414,1,0,0:0:0:0:
64,192,22593,128,0,22773:0:0:0:0:
320,192,22593,1,0,0:0:0:0:
192,192,22773,1,0,0:0:0:0:
448,192,22953,128,0,23132:0:0:0:0:
64,192,22953,1,0,0:0:0:0:
192,192,23132,1,0,0:0:0:0:
320,192,23312,128,0,23492:0:0:0:0:
448,192,23312,1,0,0:0:0:0:
64,192,23492,1,0,0:0:0:0:
192,192,23671,128,0,23851:0:0:0:0:
320,192,23671,1,0,0:0:0:0:
448,192,23851,1,0,0:0:0:0:
64,192,24031,1,0,0:0:0:0:
192,192,24031,1,0,0:0:0:0:
320,192,24031,1,0,0:0:0:0:
448,192,24031,1,0,0:0:0:0:
64,192,24210,1,0,0:0:0:0:
192,192,24210,1,0,0:0:0:0:
64,192,24390,1,0,0:0:0:0:
320,192,24390,1,0,0:0:0:0:
448,192,24390,1,0,0:0:0:0:
192,192,24569,1,0,0:0:0:0:
320,192,24569,1,0,0:0:0:0:
64,192,24749,1,0,0:0:0:0:
448,192,24749,1,0,0:0:0:0:
192,192,24749,1,0,0:0:0:0:
64,192,24929,1,0,0:0:0:0:
320,192,24929,1,0,0:0:0:0:
192,192,25108,1,0,0:0:0:0:
320,192,25108,1,0,0:0:0:0:
448,192,25108,1,0,0:0:0:0:
448,192,25288,1,0,0:0:0:0:
64,192,25288,1,0,0:0:0:0:
64,192,25468,1,0,0:0:0:0:
320,192,25468,1,0,0:0:0:0:
448,192,25468,1,0,0:0:0:0:
192,192,25468,1,0,0:0:0:0:
192,192,25647,1,0,0:0:0:0:
320,192,25647,1,0,0:0:0:0:
448,192,25827,1,0,0:0:0:0:
192,192,25827,1,0,0:0:0:0:
64,192,25827,1,0,0:0:0:0:
320,192,26007,1,0,0:0:0:0:
448,192,26007,1,0,0:0:0:0:
192,192,26186,1,0,0:0:0:0:
320,192,26186,1,0,0:0:0:0:
64,192,26186,1,0,0:0:0:0:
448,192,26366,1,0,0:0:0:0:
192,192,26366,1,0,0:0:0:0:
320,192,26545,1,0,0:0:0:0:
448,192,26545,1,0,0:0:0:0:
64,192,26545,1,0,0:0:0:0:
320,192,26725,1,0,0:0:0:0:
192,192,26725,1,0,0:0:0:0:
320,192,26905,1,0,0:0:0:0:
64,192,26905,1,0,0:0:0:0:
192,192,26905,1,0,0:0:0:0:
448,192,26905,1,0,0:0:0:0:
64,192,27084,1,0,0:0:0:0:
448,192,27084,1,0,0:0:0:0:
192,192,27264,1,0,0:0:0:0:
320,192,27264,1,0,0:0:0:0:
64,192,27264,1,0,0:0:0:0:
320,192,27444,1,0,0:0:0:0:
448,192,27444,1,0,0:0:0:0:
192,192,27623,1,0,0:0:0:0:
448,192,27623,1,0,0:0:0:0:
64,192,27623,1,0,0:0:0:0:
320,192,27803,1,0,0:0:0:0:
64,192,27803,1,0,0:0:0:0:
320,192,27983,1,0,0:0:0:0:
192,192,27983,1,0,0:0:0:0:
448,192,27983,1,0,0:0:0:0:
448,192,28162,1,0,0:0:0:0:
64,192,28162,1,0,0:0:0:0:
192,192,28342,1,0,0:0:0:0:
320,192,28342,1,0,0:0:0:0:
448,192,28342,1,0,0:0:0:0:
64,192,28342,1,0,0:0:0:0:
192,192,28522,1,0,0:0:0:0:
320,192,28522,1,0,0:0:0:0:
192,192,28701,1,0,0:0:0:0:
448,192,28701,1,0,0:0:0:0:
64,192,28701,1,0,0:0:0:0:
320,192,28881,1,0,0:0:0:0:
64,192,28881,1,0,0:0:0:0:
320,192,29060,1,0,0:0:0:0:
448,192,29060,1,0,0:0:0:0:
192,192,29060,1,0,0:0:0:0:
192,192,29240,1,0,0:0:0:0:
64,192,29240,1,0,0:0:0:0:
320,192,29420,1,0,0:0:0:0:
64,192,29420,1,0,0:0:0:0:
448,192,29420,1,0,0:0:0:0:
192,192,29599,1,0,0:0:0:0:
320,192,29599,1,0,0:0:0:0:
64,192,29779,1,0,0:0:0:0:
192,192,29779,1,0,0:0:0:0:
320,192,29779,1,0,0:0:0:0:
448,192,29779,1,0,0:0:0:0:
64,192,30138,1,0,0:0:0:0:
192,192,30138,1,0,0:0:0:0:
320,192,30138,1,0,0:0:0:0:
448,192,30138,1,0,0:0:0:0:
320,192,30318,1,0,0:0:0:0:
448,192,30318,1,0,0:0:0:0:
192,192,30498,1,0,0:0:0:0:
64,192,30498,1,0,0:0:0:0:
448,192,30498,1,0,0:0:0:0:
320,192,30677,1,0,0:0:0:0:
192,192,30677,1,0,0:0:0:0:
320,192,30857,1,0,0:0:0:0:
64,192,30857,1,0,0:0:0:0:
448,192,30857,1,0,0:0:0:0:
448,192,31036,1,0,0:0:0:0:
64,192,31036,1,0,0:0:0:0:
192,192,31036,1,0,0:0:0:0:
192,192,31216,1,0,0:0:0:0:
320,192,31216,1,0,0:0:0:0:
448,192,31216,1,0,0:0:0:0:
64,192,31216,1,0,0:0:0:0:
320,192,31396,1,0,0:0:0:0:
192,192,31396,1,0,0:0:0:0:
448,192,31575,1,0,0:0:0:0:
64,192,31575,1,0,0:0:0:0:
320,192,31575,1,0,0:0:0:0:
192,192,31755,1,0,0:0:0:0:
64,192,31755,1,0,0:0:0:0:
192,192,31935,1,0,0:0:0:0:
320,192,31935,1,0,0:0:0:0:
448,192,31935,1,0,0:0:0:0:
64,192,32114,1,0,0:0:0:0:
448,192,32114,1,0,0:0:0:0:
192,192,32294,1,0,0:0:0:0:
320,192,32294,1,0,0:0:0:0:
64,192,32294,1,0,0:0:0:0:
448,192,32474,1,0,0:0:0:0:
192,192,32474,1,0,0:0:0:0:
320,192,32653,1,0,0:0:0:0:
192,192,32653,1,0,0:0:0:0:
64,192,32653,1,0,0:0:0:0:
448,192,32653,1,0,0:0:0:0:
64,192,32833,1,0,0:0:0:0:
320,192,32833,1,0,0:0:0:0:
192,192,33013,1,0,0:0:0:0:
448,192,33013,1,0,0:0:0:0:
320,192,33013,1,0,0:0:0:0:
448,192,33192,1,0,0:0:0:0:
64,192,33192,1,0,0:0:0:0:
192,192,33372,1,0,0:0:0:0:
320,192,33372,1,0,0:0:0:0:
64,192,33372,1,0,0:0:0:0:
448,192,33551,1,0,0:0:0:0:
320,192,33551,1,0,0:0:0:0:
192,192,33731,1,0,0:0:0:0:
64,192,33731,1,0,0:0:0:0:
448,192,33731,1,0,0:0:0:0:
320,192,33911,1,0,0:0:0:0:
192,192,33911,1,0,0:0:0:0:
64,192,34090,1,0,0:0:0:0:
320,192,34090,1,0,0:0:0:0:
448,192,34090,1,0,0:0:0:0:
192,192,34090,1,0,0:0:0:0:
448,192,34270,1,0,0:0:0:0:
64,192,34270,1,0,0:0:0:0:
320,192,34450,1,0,0:0:0:0:
192,192,34450,1,0,0:0:0:0:
448,192,34450,1,0,0:0:0:0:
192,192,34629,1,0,0:0:0:0:
64,192,34629,1,0,0:0:0:0:
320,192,34809,1,0,0:0:0:0:
64,192,34809,1,0,0:0:0:0:
448,192,34809,1,0,0:0:0:0:
320,192,34989,1,0,0:0:0:0:
192,192,34989,1,0,0:0:0:0:
192,192,35168,1,0,0:0:0:0:
448,192,35168,1,0,0:0:0:0:
320,192,35168,1,0,0:0:0:0:
64,192,35168,1,0,0:0:0:0:
64,192,35348,1,0,0:0:0:0:
448,192,35348,1,0,0:0:0:0:
320,192,35438,1,0,0:0:0:0:
192,192,35438,1,0,0:0:0:0:
64,192,35528,1,0,0:0:0:0:
448,192,35528,1,0,0:0:0:0:
192,192,35707,1,0,0:0:0:0:
320,192,35707,1,0,0:0:0:0:
192,192,35887,1,0,0:0:0:0:
320,192,35887,1,0,0:0:0:0:
448,192,35887,1,0,0:0:0:0:
64,192,35887,1,0,0:0:0:0:
64,192,36066,1,0,0:0:0:0:
448,192,36066,1,0,0:0:0:0:
320,192,36246,1,0,0:0:0:0:
192,192,36246,1,0,0:0:0:0:
64,192,36246,1,0,0:0:0:0:
448,192,36426,1,0,0:0:0:0:
192,192,36426,1,0,0:0:0:0:
320,192,36605,1,0,0:0:0:0:
448,192,36605,1,0,0:0:0:0:
64,192,36605,1,0,0:0:0:0:
320,192,36785,1,0,0:0:0:0:
192,192,36785,1,0,0:0:0:0:
64,192,36785,1,0,0:0:0:0:
320,192,36965,1,0,0:0:0:0:
192,192,36965,1,0,0:0:0:0:
64,192,36965,1,0,0:0:0:0:
448,192,36965,1,0,0:0:0:0:
448,192,37144,1,0,0:0:0:0:
192,192,37144,1,0,0:0:0:0:
448,192,37324,1,0,0:0:0:0:
64,192,37324,1,0,0:0:0:0:
320,192,37324,1,0,0:0:0:0:
320,192,37504,1,0,0:0:0:0:
192,192,37504,1,0,0:0:0:0:
64,192,37683,1,0,0:0:0:0:
448,192,37683,1,0,0:0:0:0:
192,192,37683,1,0,0:0:0:0:
320,192,37863,1,0,0:0:0:0:
64,192,37863,1,0,0:0:0:0:
192,192,38042,1,0,0:0:0:0:
320,192,38042,1,0,0:0:0:0:
448,192,38042,1,0,0:0:0:0:
448,192,38222,1,0,0:0:0:0:
64,192,38222,1,0,0:0:0:0:
64,192,38402,1,0,0:0:0:0:
192,192,38402,1,0,0:0:0:0:
320,192,38402,1,0,0:0:0:0:
448,192,38402,1,0,0:0:0:0:
192,192,38581,1,0,0:0:0:0:
320,192,38581,1,0,0:0:0:0:
192,192,38761,1,0,0:0:0:0:
64,192,38761,1,0,0:0:0:0:
448,192,38761,1,0,0:0:0:0:
320,192,38941,1,0,0:0:0:0:
64,192,38941,1,0,0:0:0:0:
320,192,39120,1,0,0:0:0:0:
448,192,39120,1,0,0:0:0:0:
192,192,39120,1,0,0:0:0:0:
64,192,39300,1,0,0:0:0:0:
192,192,39300,1,0,0:0:0:0:
320,192,39480,1,0,0:0:0:0:
64,192,39480,1,0,0:0:0:0:
448,192,39480,1,0,0:0:0:0:
192,192,39659,1,0,0:0:0:0:
320,192,39659,1,0,0:0:0:0:
320,192,39839,1,0,0:0:0:0:
192,192,39839,1,0,0:0:0:0:
448,192,39839,1,0,0:0:0:0:
64,192,39839,1,0,0:0:0:0:
448,192,40019,1,0,0:0:0:0:
64,192,40019,1,0,0:0:0:0:
320,192,40198,1,0,0:0:0:0:
192,192,40198,1,0,0:0:0:0:
64,192,40198,1,0,0:0:0:0:
448,192,40378,1,0,0:0:0:0:
192,192,40378,1,0,0:0:0:0:
448,192,40557,1,0,0:0:0:0:
320,192,40557,1,0,0:0:0:0:
64,192,40557,1,0,0:0:0:0:
320,192,40737,1,0,0:0:0:0:
192,192,40737,1,0,0:0:0:0:
192,192,40917,1,0,0:0:0:0:
64,192,40917,1,0,0:0:0:0:
448,192,40917,1,0,0:0:0:0:
320,192,41096,1,0,0:0:0:0:
64,192,41276,1,0,0:0:0:0:
192,192,41276,1,0,0:0:0:0:
320,192,41276,1,0,0:0:0:0:
448,192,41276,1,0,0:0:0:0:
192,192,41635,1,0,0:0:0:0:
320,192,41635,1,0,0:0:0:0:
448,192,41635,1,0,0:0:0:0:
64,192,41635,1,0,0:0:0:0:
192,192,41815,1,0,0:0:0:0:
448,192,41815,1,0,0:0:0:0:
320,192,41995,1,0,0:0:0:0:
64,192,41995,1,0,0:0:0:0:
448,192,41995,1,0,0:0:0:0:
320,192,42174,1,0,0:0:0:0:
192,192,42174,1,0,0:0:0:0:
448,192,42354,1,0,0:0:0:0:
192,192,42354,1,0,0:0:0:0:
64,192,42354,1,0,0:0:0:0:
320,192,42534,1,0,0:0:0:0:
448,192,42534,1,0,0:0:0:0:
64,192,42534,1,0,0:0:0:0:
192,192,42713,1,0,0:0:0:0:
320,192,42713,1,0,0:0:0:0:
64,192,42713,1,0,0:0:0:0:
448,192,42713,1,0,0:0:0:0:
192,192,42893,1,0,0:0:0:0:
320,192,42893,1,0,0:0:0:0:
64,192,43072,1,0,0:0:0:0:
192,192,43072,1,0,0:0:0:0:
448,192,43072,1,0,0:0:0:0:
320,192,43252,1,0,0:0:0:0:
64,192,43252,1,0,0:0:0:0:
320,192,43432,1,0,0:0:0:0:
448,192,43432,1,0,0:0:0:0:
192,192,43432,1,0,0:0:0:0:
64,192,43611,1,0,0:0:0:0:
192,192,43611,1,0,0:0:0:0:
320,192,43791,1,0,0:0:0:0:
64,192,43791,1,0,0:0:0:0:
448,192,43791,1,0,0:0:0:0:
192,192,43971,1,0,0:0:0:0:
320,192,43971,1,0,0:0:0:0:
192,192,44150,1,0,0:0:0:0:
320,192,44150,1,0,0:0:0:0:
448,192,44150,1,0,0:0:0:0:
64,192,44150,1,0,0:0:0:0:
448,192,44330,1,0,0:0:0:0:
64,192,44330,1,0,0:0:0:0:
192,192,44510,1,0,0:0:0:0:
320,192,44510,1,0,0:0:0:0:
64,192,44510,1,0,0:0:0:0:
192,192,44689,1,0,0:0:0:0:
448,192,44689,1,0,0:0:0:0:
320,192,44869,1,0,0:0:0:0:
64,192,44869,1,0,0:0:0:0:
448,192,44869,1,0,0:0:0:0:
192,192,45048,1,0,0:0:0:0:
64,192,45048,1,0,0:0:0:0:
192,192,45228,1,0,0:0:0:0:
448,192,45228,1,0,0:0:0:0:
320,192,45228,1,0,0:0:0:0:
64,192,45408,1,0,0:0:0:0:
448,192,45408,1,0,0:0:0:0:
320,192,45587,1,0,0:0:0:0:
192,192,45587,1,0,0:0:0:0:
448,192,45587,1,0,0:0:0:0:
64,192,45587,1,0,0:0:0:0:
320,192,45767,1,0,0:0:0:0:
192,192,45767,1,0,0:0:0:0:
192,192,45947,1,0,0:0:0:0:
448,192,45947,1,0,0:0:0:0:
64,192,45947,1,0,0:0:0:0:
320,192,46126,1,0,0:0:0:0:
64,192,46126,1,0,0:0:0:0:
320,192,46306,1,0,0:0:0:0:
192,192,46306,1,0,0:0:0:0:
448,192,46306,1,0,0:0:0:0:
64,192,46486,1,0,0:0:0:0:
192,192,46486,1,0,0:0:0:0:
64,192,46665,1,0,0:0:0:0:
320,192,46665,1,0,0:0:0:0:
448,192,46665,1,0,0:0:0:0:
320,192,46845,1,0,0:0:0:0:
448,192,47025,1,0,0:0:0:0:
64,192,47204,1,0,0:0:0:0:
320,192,47384,1,0,0:0:0:0:
64,192,47743,1,0,0:0:0:0:
448,192,47923,1,0,0:0:0:0:
192,192,48102,1,0,0:0:0:0:
64,192,48462,1,0,0:0:0:0:
192,192,48641,1,0,0:0:0:0:
448,192,48821,1,0,0:0:0:0:
448,192,49180,1,0,0:0:0:0:
320,192,49360,1,0,0:0:0:0:
64,192,49539,1,0,0:0:0:0:
448,192,49899,1,0,0:0:0:0:
64,192,50078,1,0,0:0:0:0:
320,192,50258,1,0,0:0:0:0:
64,192,50617,1,0,0:0:0:0:
448,192,50797,1,0,0:0:0:0:
192,192,50977,1,0,0:0:0:0:
320,192,51336,1,0,0:0:0:0:
192,192,51516,1,0,0:0:0:0:
64,192,51695,1,0,0:0:0:0:
192,192,52054,1,0,0:0:0:0:
320,192,52234,1,0,0:0:0:0:
448,192,52414,1,0,0:0:0:0:
64,192,52773,1,0,0:0:0:0:
448,192,52953,1,0,0:0:0:0:
320,192,53132,1,0,0:0:0:0:
448,192,53492,1,0,0:0:0:0:
64,192,53671,1,0,0:0:0:0:
192,192,53851,1,0,0:0:0:0:
448,192,54210,1,0,0:0:0:0:
64,192,54390,1,0,0:0:0:0:
320,192,54569,1,0,0:0:0:0:
64,192,54929,1,0,0:0:0:0:
448,192,55108,1,0,0:0:0:0:
192,192,55288,1,0,0:0:0:0:
320,192,55647,1,0,0:0:0:0:
64,192,55827,1,0,0:0:0:0:
448,192,56007,1,0,0:0:0:0:
64,192,56366,1,0,0:0:0:0:
448,192,56545,1,0,0:0:0:0:
192,192,56725,1,0,0:0:0:0:
64,192,57084,1,0,0:0:0:0:
192,192,57264,1,0,0:0:0:0:
320,192,57444,5,0,0:0:0:0:
448,192,57803,1,0,0:0:0:0:
320,192,57983,1,0,0:0:0:0:
192,192,58162,1,0,0:0:0:0:
192,192,58522,1,0,0:0:0:0:
64,192,58522,1,0,0:0:0:0:
448,192,58522,1,0,0:0:0:0:
320,192,58522,1,0,0:0:0:0:
320,192,58701,1,0,0:0:0:0:
448,192,58701,1,0,0:0:0:0:
64,192,58881,1,0,0:0:0:0:
192,192,58881,1,0,0:0:0:0:
448,192,58881,1,0,0:0:0:0:
192,192,59060,1,0,0:0:0:0:
320,192,59060,1,0,0:0:0:0:
320,192,59240,1,0,0:0:0:0:
64,192,59240,1,0,0:0:0:0:
448,192,59240,1,0,0:0:0:0:
192,192,59420,1,0,0:0:0:0:
448,192,59420,1,0,0:0:0:0:
64,192,59599,1,0,0:0:0:0:
192,192,59599,1,0,0:0:0:0:
320,192,59599,1,0,0:0:0:0:
448,192,59779,1,0,0:0:0:0:
64,192,59779,1,0,0:0:0:0:
64,192,59959,1,0,0:0:0:0:
320,192,59959,1,0,0:0:0:0:
448,192,59959,1,0,0:0:0:0:
192,192,59959,1,0,0:0:0:0:
192,192,60138,1,0,0:0:0:0:
320,192,60138,1,0,0:0:0:0:
448,192,60318,1,0,0:0:0:0:
320,192,60318,1,0,0:0:0:0:
64,192,60318,1,0,0:0:0:0:
64,192,60498,1,0,0:0:0:0:
192,192,60498,1,0,0:0:0:0:
448,192,60677,1,0,0:0:0:0:
192,192,60677,1,0,0:0:0:0:
320,192,60677,1,0,0:0:0:0:
320,192,60857,1,0,0:0:0:0:
64,192,60857,1,0,0:0:0:0:
448,192,61036,1,0,0:0:0:0:
64,192,61036,1,0,0:0:0:0:
192,192,61036,1,0,0:0:0:0:
320,192,61216,1,0,0:0:0:0:
192,192,61216,1,0,0:0:0:0:
320,192,61396,1,0,0:0:0:0:
64,192,61396,1,0,0:0:0:0:
192,192,61396,1,0,0:0:0:0:
448,192,61396,1,0,0:0:0:0:
64,192,61575,1,0,0:0:0:0:
448,192,61575,1,0,0:0:0:0:
448,192,61755,1,0,0:0:0:0:
192,192,61755,1,0,0:0:0:0:
320,192,61755,1,0,0:0:0:0:
64,192,61935,1,0,0:0:0:0:
192,192,61935,1,0,0:0:0:0:
448,192,62114,1,0,0:0:0:0:
64,192,62114,1,0,0:0:0:0:
320,192,62114,1,0,0:0:0:0:
448,192,62294,1,0,0:0:0:0:
192,192,62294,1,0,0:0:0:0:
64,192,62474,1,0,0:0:0:0:
320,192,62474,1,0,0:0:0:0:
192,192,62474,1,0,0:0:0:0:
448,192,62653,1,0,0:0:0:0:
64,192,62653,1,0,0:0:0:0:
64,192,62833,1,0,0:0:0:0:
448,192,62833,1,0,0:0:0:0:
320,192,62833,1,0,0:0:0:0:
192,192,62833,1,0,0:0:0:0:
192,192,63013,1,0,0:0:0:0:
320,192,63013,1,0,0:0:0:0:
448,192,63192,1,0,0:0:0:0:
64,192,63192,1,0,0:0:0:0:
320,192,63192,1,0,0:0:0:0:
448,192,63372,1,0,0:0:0:0:
192,192,63372,1,0,0:0:0:0:
320,192,63551,1,0,0:0:0:0:
64,192,63551,1,0,0:0:0:0:
192,192,63551,1,0,0:0:0:0:
448,192,63731,1,0,0:0:0:0:
320,192,63731,1,0,0:0:0:0:
64,192,63911,1,0,0:0:0:0:
448,192,63911,1,0,0:0:0:0:
192,192,63911,1,0,0:0:0:0:
192,192,64090,1,0,0:0:0:0:
320,192,64090,1,0,0:0:0:0:
192,192,64270,1,0,0:0:0:0:
64,192,64270,1,0,0:0:0:0:
448,192,64270,1,0,0:0:0:0:
320,192,64270,1,0,0:0:0:0:
192,192,64629,1,0,0:0:0:0:
64,192,64629,1,0,0:0:0:0:
448,192,64629,1,0,0:0:0:0:
320,192,64629,1,0,0:0:0:0:
64,192,64809,1,0,0:0:0:0:
192,192,64809,1,0,0:0:0:0:
64,192,64989,1,0,0:0:0:0:
448,192,64989,1,0,0:0:0:0:
320,192,64989,1,0,0:0:0:0:
320,192,65168,1,0,0:0:0:0:
192,192,65168,1,0,0:0:0:0:
64,192,65348,1,0,0:0:0:0:
448,192,65348,1,0,0:0:0:0:
192,192,65348,1,0,0:0:0:0:
320,192,65528,1,0,0:0:0:0:
448,192,65528,1,0,0:0:0:0:
64,192,65528,1,0,0:0:0:0:
64,192,65707,1,0,0:0:0:0:
448,192,65707,1,0,0:0:0:0:
320,192,65707,1,0,0:0:0:0:
192,192,65707,1,0,0:0:0:0:
320,192,65887,1,0,0:0:0:0:
192,192,65887,1,0,0:0:0:0:
192,192,66066,1,0,0:0:0:0:
448,192,66066,1,0,0:0:0:0:
64,192,66066,1,0,0:0:0:0:
448,192,66246,1,0,0:0:0:0:
320,192,66246,1,0,0:0:0:0:
64,192,66426,1,0,0:0:0:0:
192,192,66426,1,0,0:0:0:0:
320,192,66426,1,0,0:0:0:0:
64,192,66605,1,0,0:0:0:0:
448,192,66605,1,0,0:0:0:0:
448,192,66785,1,0,0:0:0:0:
192,192,66785,1,0,0:0:0:0:
320,192,66785,1,0,0:0:0:0:
320,192,66965,1,0,0:0:0:0:
64,192,66965,1,0,0:0:0:0:
448,192,67144,1,0,0:0:0:0:
64,192,67144,1,0,0:0:0:0:
192,192,67144,1,0,0:0:0:0:
320,192,67144,1,0,0:0:0:0:
192,192,67324,1,0,0:0:0:0:
448,192,67324,1,0,0:0:0:0:
192,192,67504,1,0,0:0:0:0:
64,192,67504,1,0,0:0:0:0:
320,192,67504,1,0,0:0:0:0:
448,192,67683,1,0,0:0:0:0:
64,192,67683,1,0,0:0:0:0:
448,192,67863,1,0,0:0:0:0:
192,192,67863,1,0,0:0:0:0:
320,192,67863,1,0,0:0:0:0:
192,192,68042,1,0,0:0:0:0:
64,192,68042,1,0,0:0:0:0:
64,192,68222,1,0,0:0:0:0:
448,192,68222,1,0,0:0:0:0:
320,192,68222,1,0,0:0:0:0:
320,192,68402,1,0,0:0:0:0:
192,192,68402,1,0,0:0:0:0:
64,192,68581,1,0,0:0:0:0:
448,192,68581,1,0,0:0:0:0:
320,192,68581,1,0,0:0:0:0:
192,192,68581,1,0,0:0:0:0:
64,192,68761,1,0,0:0:0:0:
448,192,68761,1,0,0:0:0:0:
320,192,68941,1,0,0:0:0:0:
192,192,68941,1,0,0:0:0:0:
64,192,68941,1,0,0:0:0:0:
448,192,69120,1,0,0:0:0:0:
320,192,69120,1,0,0:0:0:0:
192,192,69300,1,0,0:0:0:0:
64,192,69300,1,0,0:0:0:0:
448,192,69300,1,0,0:0:0:0:
320,192,69480,1,0,0:0:0:0:
192,192,69480,1,0,0:0:0:0:
64,192,69659,1,0,0:0:0:0:
192,192,69659,1,0,0:0:0:0:
320,192,69659,1,0,0:0:0:0:
448,192,69659,1,0,0:0:0:0:
64,192,69839,1,0,0:0:0:0:
448,192,69839,1,0,0:0:0:0:
192,192,69929,1,0,0:0:0:0:
320,192,69929,1,0,0:0:0:0:
448,192,70019,1,0,0:0:0:0:
64,192,70019,1,0,0:0:0:0:
192,192,70198,1,0,0:0:0:0:
320,192,70198,1,0,0:0:0:0:
64,192,70378,1,0,0:0:0:0:
448,192,70378,1,0,0:0:0:0:
320,192,70378,1,0,0:0:0:0:
192,192,70378,1,0,0:0:0:0:
64,192,70557,1,0,0:0:0:0:
448,192,70557,1,0,0:0:0:0:
448,192,70737,1,0,0:0:0:0:
320,192,70737,1,0,0:0:0:0:
192,192,70737,1,0,0:0:0:0:
320,192,70917,1,0,0:0:0:0:
64,192,70917,1,0,0:0:0:0:
448,192,71096,1,0,0:0:0:0:
64,192,71096,1,0,0:0:0:0:
192,192,71096,1,0,0:0:0:0:
448,192,71276,1,0,0:0:0:0:
320,192,71276,1,0,0:0:0:0:
192,192,71276,1,0,0:0:0:0:
448,192,71456,1,0,0:0:0:0:
64,192,71456,1,0,0:0:0:0:
192,192,71456,1,0,0:0:0:0:
320,192,71456,1,0,0:0:0:0:
320,192,71635,1,0,0:0:0:0:
64,192,71635,1,0,0:0:0:0:
192,192,71815,1,0,0:0:0:0:
448,192,71815,1,0,0:0:0:0:
64,192,71815,1,0,0:0:0:0:
320,192,71995,1,0,0:0:0:0:
192,192,71995,1,0,0:0:0:0:
320,192,72174,1,0,0:0:0:0:
64,192,72174,1,0,0:0:0:0:
448,192,72174,1,0,0:0:0:0:
448,192,72354,1,0,0:0:0:0:
192,192,72354,1,0,0:0:0:0:
64,192,72534,1,0,0:0:0:0:
192,192,72534,1,0,0:0:0:0:
320,192,72534,1,0,0:0:0:0:
448,192,72713,1,0,0:0:0:0:
64,192,72713,1,0,0:0:0:0:
192,192,72893,1,0,0:0:0:0:
64,192,72893,1,0,0:0:0:0:
448,192,72893,1,0,0:0:0:0:
320,192,72893,1,0,0:0:0:0:
192,192,73072,1,0,0:0:0:0:
320,192,73072,1,0,0:0:0:0:
64,192,73252,1,0,0:0:0:0:
448,192,73252,1,0,0:0:0:0:
320,192,73252,1,0,0:0:0:0:
448,192,73432,1,0,0:0:0:0:
192,192,73432,1,0,0:0:0:0:
320,192,73611,1,0,0:0:0:0:
64,192,73611,1,0,0:0:0:0:
192,192,73611,1,0,0:0:0:0:
320,192,73791,1,0,0:0:0:0:
448,192,73791,1,0,0:0:0:0:
64,192,73971,1,0,0:0:0:0:
448,192,73971,1,0,0:0:0:0:
192,192,73971,1,0,0:0:0:0:
192,192,74150,1,0,0:0:0:0:
320,192,74150,1,0,0:0:0:0:
64,192,74330,1,0,0:0:0:0:
448,192,74330,1,0,0:0:0:0:
192,192,74330,1,0,0:0:0:0:
320,192,74330,1,0,0:0:0:0:
448,192,74510,1,0,0:0:0:0:
64,192,74510,1,0,0:0:0:0:
448,192,74689,1,0,0:0:0:0:
320,192,74689,1,0,0:0:0:0:
192,192,74689,1,0,0:0:0:0:
320,192,74869,1,0,0:0:0:0:
64,192,74869,1,0,0:0:0:0:
448,192,75048,1,0,0:0:0:0:
192,192,75048,1,0,0:0:0:0:
64,192,75048,1,0,0:0:0:0:
320,192,75228,1,0,0:0:0:0:
192,192,75228,1,0,0:0:0:0:
64,192,75408,1,0,0:0:0:0:
448,192,75408,1,0,0:0:0:0:
320,192,75408,1,0,0:0:0:0:
192,192,75587,1,0,0:0:0:0:
192,192,75767,1,0,0:0:0:0:
64,192,75767,1,0,0:0:0:0:
448,192,75767,1,0,0:0:0:0:
320,192,75767,1,0,0:0:0:0:
64,192,76126,1,0,0:0:0:0:
448,192,76126,1,0,0:0:0:0:
320,192,76126,1,0,0:0:0:0:
192,192,76126,1,0,0:0:0:0:
64,192,76306,1,0,0:0:0:0:
320,192,76306,1,0,0:0:0:0:
64,192,76486,1,0,0:0:0:0:
448,192,76486,1,0,0:0:0:0:
192,192,76486,1,0,0:0:0:0:
320,192,76665,1,0,0:0:0:0:
192,192,76665,1,0,0:0:0:0:
448,192,76845,1,0,0:0:0:0:
320,192,76845,1,0,0:0:0:0:
64,192,76845,1,0,0:0:0:0:
448,192,77025,1,0,0:0:0:0:
64,192,77025,1,0,0:0:0:0:
192,192,77025,1,0,0:0:0:0:
448,192,77204,1,0,0:0:0:0:
64,192,77204,1,0,0:0:0:0:
320,192,77204,1,0,0:0:0:0:
192,192,77204,1,0,0:0:0:0:
192,192,77384,1,0,0:0:0:0:
320,192,77384,1,0,0:0:0:0:
64,192,77563,1,0,0:0:0:0:
320,192,77563,1,0,0:0:0:0:
448,192,77563,1,0,0:0:0:0:
448,192,77743,1,0,0:0:0:0:
192,192,77743,1,0,0:0:0:0:
320,192,77923,1,0,0:0:0:0:
64,192,77923,1,0,0:0:0:0:
192,192,77923,1,0,0:0:0:0:
320,192,78102,1,0,0:0:0:0:
448,192,78102,1,0,0:0:0:0:
64,192,78282,1,0,0:0:0:0:
448,192,78282,1,0,0:0:0:0:
192,192,78282,1,0,0:0:0:0:
192,192,78462,1,0,0:0:0:0:
320,192,78462,1,0,0:0:0:0:
64,192,78641,1,0,0:0:0:0:
448,192,78641,1,0,0:0:0:0:
320,192,78641,1,0,0:0:0:0:
192,192,78641,1,0,0:0:0:0:
448,192,78821,1,0,0:0:0:0:
64,192,78821,1,0,0:0:0:0:
448,192,79001,1,0,0:0:0:0:
192,192,79001,1,0,0:0:0:0:
320,192,79001,1,0,0:0:0:0:
64,192,79180,1,0,0:0:0:0:
320,192,79180,1,0,0:0:0:0:
64,192,79360,1,0,0:0:0:0:
448,192,79360,1,0,0:0:0:0:
192,192,79360,1,0,0:0:0:0:
448,192,79539,1,0,0:0:0:0:
320,192,79539,1,0,0:0:0:0:
192,192,79719,1,0,0:0:0:0:
64,192,79719,1,0,0:0:0:0:
320,192,79719,1,0,0:0:0:0:
64,192,79899,1,0,0:0:0:0:
448,192,79899,1,0,0:0:0:0:
64,192,80078,1,0,0:0:0:0:
448,192,80078,1,0,0:0:0:0:
192,192,80078,1,0,0:0:0:0:
320,192,80078,1,0,0:0:0:0:
320,192,80258,1,0,0:0:0:0:
192,192,80258,1,0,0:0:0:0:
448,192,80438,1,0,0:0:0:0:
64,192,80438,1,0,0:0:0:0:
320,192,80438,1,0,0:0:0:0:
448,192,80617,1,0,0:0:0:0:
192,192,80617,1,0,0:0:0:0:
64,192,80797,1,0,0:0:0:0:
320,192,80797,1,0,0:0:0:0:
192,192,80797,1,0,0:0:0:0:
320,192,80977,1,0,0:0:0:0:
448,192,80977,1,0,0:0:0:0:
64,192,81156,1,0,0:0:0:0:
192,192,81156,1,0,0:0:0:0:
448,192,81156,1,0,0:0:0:0:
192,192,81336,1,0,0:0:0:0:
320,192,81516,1,0,0:0:0:0:
