osu file format v14

[General]
AudioFilename: audio.mp3
AudioLeadIn: 0
PreviewTime: 35594
Countdown: 0
SampleSet: Soft
StackLeniency: 0.4
Mode: 0
LetterboxInBreaks: 0
SkinPreference:Default
WidescreenStoryboard: 0

[Editor]
DistanceSpacing: 1
BeatDivisor: 4
GridSize: 16
TimelineZoom: 1.5

[Metadata]
Title:Ben 10 (TV Size)
TitleUnicode:Ben 10 (TV Size)
Artist:Moxy
ArtistUnicode:Moxy
Creator:AJT
Version:On The Case
Source:Ben 10
Tags:english pop mz. cartoon network main theme nitroz bloxi
BeatmapID:4168913
BeatmapSetID:2004646

[Difficulty]
HPDrainRate:5
CircleSize:4
OverallDifficulty:8
ApproachRate:8
SliderMultiplier:2.15
SliderTickRate:1

[Events]
//Background and Video events
0,0,"ben 10.png",0,0
Video,60,"ben10video.mp4"
//Break Periods
//Storyboard Layer 0 (Background)
//Storyboard Layer 1 (Fail)
//Storyboard Layer 2 (Pass)
//Storyboard Layer 3 (Foreground)
//Storyboard Layer 4 (Overlay)
//Storyboard Sound Samples

[TimingPoints]
306,441.176470588235,4,2,0,70,1,0
5600,-107.573529001003,4,2,0,70,0,0
35600,-89.6446075003537,4,2,0,90,0,1
49717,-97.7941172728741,4,2,0,80,0,0

[Colours]
Combo1 : 128,255,0
Combo2 : 85,85,85

[HitObjects]
256,0,5600,5,0,1:0:0:0:
256,0,6041,1,0,1:0:0:0:
256,0,6482,1,0,1:0:0:0:
297,62,6592,1,0,1:0:0:0:
339,125,6703,1,0,1:0:0:0:
339,208,6813,1,0,1:0:0:0:
256,208,6923,1,0,1:0:0:0:
172,208,7033,1,0,1:0:0:0:
172,125,7144,1,0,1:0:0:0:
214,62,7254,1,0,1:0:0:0:
254,0,7364,6,0,P|301:57|316:127,1,99.9316447986288,4|0,0:0|0:0,0:0:0:0:
254,0,7805,2,0,P|206:57|191:127,1,99.9316447986288,0|0,1:0|0:0,0:0:0:0:
80,192,8247,6,0,P|118:160|164:150,1,99.9316447986288,2|0,0:0|0:0,0:0:0:0:
432,192,8688,2,0,P|393:160|347:150,1,99.9316447986288,0|0,1:0|0:0,0:0:0:0:
160,240,9129,5,2,0:0:0:0:
140,384,9350,1,0,0:0:0:0:
372,384,9570,1,0,1:0:0:0:
352,240,9791,1,0,0:0:0:0:
160,240,10011,1,2,0:0:0:0:
352,240,10453,5,0,1:0:0:0:
326,130,10673,1,0,1:0:0:0:
326,130,10783,1,0,1:0:0:0:
326,130,10894,5,2,0:0:0:0:
435,105,11114,1,0,0:0:0:0:
460,214,11335,1,0,1:0:0:0:
352,240,11555,1,0,0:0:0:0:
186,130,11776,5,2,0:0:0:0:
77,105,11996,1,0,0:0:0:0:
52,214,12217,1,0,1:0:0:0:
160,240,12437,1,0,0:0:0:0:
352,240,12658,5,2,0:0:0:0:
326,130,12878,1,0,0:0:0:0:
256,40,13099,1,0,1:0:0:0:
186,130,13320,1,0,0:0:0:0:
160,240,13541,1,2,0:0:0:0:
352,240,13761,1,0,0:0:0:0:
207,216,13982,5,0,1:0:0:0:
221,160,14093,1,0,1:0:0:0:
256,116,14203,1,0,1:0:0:0:
291,160,14313,1,0,1:0:0:0:
304,216,14424,5,2,0:0:0:0:
208,216,14644,1,0,0:0:0:0:
304,216,14864,1,0,1:0:0:0:
208,216,15084,1,0,0:0:0:0:
384,272,15305,5,2,0:0:0:0:
304,316,15525,1,0,0:0:0:0:
208,316,15747,1,0,1:0:0:0:
128,272,15967,1,0,0:0:0:0:
0,192,16188,5,2,0:0:0:0:
127,272,16408,1,0,0:0:0:0:
256,192,16629,1,0,1:0:0:0:
128,112,16850,1,0,0:0:0:0:
256,192,17070,1,2,0:0:0:0:
384,112,17291,1,0,0:0:0:0:
512,192,17512,1,0,1:0:0:0:
385,272,17732,1,0,1:0:0:0:
385,272,17842,1,0,1:0:0:0:
385,272,17953,2,0,B|336:235|348:188|350:183|353:178|365:130|316:94,1,200,2|0,0:0|1:0,0:0:0:0:
256,0,18614,5,0,0:0:0:0:
317,94,18835,1,2,0:0:0:0:
196,94,19055,2,0,B|171:112|177:135|178:138|180:140|186:164|161:182,1,99.9316447986288,0|0,0:0|1:0,0:0:0:0:
256,384,19497,1,0,0:0:0:0:
196,290,19718,1,2,0:0:0:0:
316,290,19938,2,0,B|340:271|334:248|333:245|331:243|325:219|350:201,1,99.9316447986288,0|0,0:0|1:0,0:0:0:0:
256,0,20379,1,0,0:0:0:0:
196,94,20600,1,2,0:0:0:0:
316,94,21041,1,0,1:0:0:0:
304,36,21151,1,0,1:0:0:0:
256,0,21261,1,0,1:0:0:0:
208,36,21372,1,0,1:0:0:0:
196,94,21482,5,4,0:0:0:0:
121,192,21703,1,0,0:0:0:0:
16,128,21923,1,0,1:0:0:0:
121,192,22144,1,0,0:0:0:0:
224,256,22364,1,2,0:0:0:0:
121,192,22585,1,0,0:0:0:0:
16,256,22805,1,0,1:0:0:0:
121,192,23026,1,0,0:0:0:0:
196,94,23247,5,2,0:0:0:0:
302,138,23467,1,0,0:0:0:0:
292,253,23688,1,0,1:0:0:0:
179,279,23908,1,0,0:0:0:0:
119,180,24129,1,2,0:0:0:0:
119,180,24570,1,0,1:0:0:0:
316,94,24791,1,0,1:0:0:0:
316,94,24901,1,0,1:0:0:0:
316,94,25011,5,4,0:0:0:0:
391,192,25232,1,0,0:0:0:0:
496,128,25452,1,0,1:0:0:0:
391,192,25673,1,0,0:0:0:0:
288,256,25893,1,2,0:0:0:0:
391,192,26114,1,0,0:0:0:0:
496,256,26334,1,0,1:0:0:0:
391,192,26555,1,0,0:0:0:0:
316,94,26776,5,2,0:0:0:0:
210,138,26996,1,0,0:0:0:0:
220,253,27217,1,0,1:0:0:0:
333,279,27437,1,0,0:0:0:0:
393,180,27658,1,2,0:0:0:0:
144,296,27879,1,0,1:0:0:0:
117,269,27989,1,0,1:0:0:0:
100,235,28100,1,0,1:0:0:0:
94,196,28210,1,0,1:0:0:0:
100,157,28320,1,0,1:0:0:0:
117,123,28430,1,0,1:0:0:0:
144,96,28541,5,4,0:0:0:0:
256,0,28761,1,0,0:0:0:0:
368,96,28982,1,0,1:0:0:0:
256,192,29203,1,0,0:0:0:0:
144,288,29423,5,2,0:0:0:0:
256,384,29643,1,0,0:0:0:0:
368,288,29864,1,0,1:0:0:0:
256,192,30085,1,0,0:0:0:0:
385,62,30305,5,2,0:0:0:0:
255,9,30526,1,0,0:0:0:0:
126,62,30747,1,0,1:0:0:0:
73,192,30967,1,0,0:0:0:0:
126,321,31188,1,2,0:0:0:0:
256,374,31408,1,0,0:0:0:0:
385,321,31629,1,0,1:0:0:0:
438,191,31850,1,0,1:0:0:0:
438,192,31960,1,0,1:0:0:0:
438,192,32070,6,0,L|426:91,1,99.9316447986288,4|0,0:0|0:0,0:0:0:0:
74,192,32511,2,0,L|86:293,1,99.9316447986288,0|0,1:0|0:0,0:0:0:0:
384,192,32953,5,2,0:0:0:0:
256,128,33173,1,0,0:0:0:0:
127,192,33394,1,0,1:0:0:0:
256,256,33614,1,0,0:0:0:0:
384,192,33835,1,4,0:0:0:0:
130,69,34055,5,0,1:0:0:0:
155,56,34166,1,0,1:0:0:0:
180,45,34276,1,0,1:0:0:0:
205,34,34386,1,0,1:0:0:0:
231,23,34497,1,0,1:0:0:0:
255,11,34607,1,0,1:0:0:0:
279,23,34717,1,0,1:0:0:0:
304,34,34828,1,0,1:0:0:0:
330,45,34938,1,0,1:0:0:0:
355,56,35048,1,0,1:0:0:0:
380,69,35158,1,0,1:0:0:0:
328,104,35268,1,0,1:0:0:0:
255,121,35379,1,0,1:0:0:0:
184,104,35489,1,0,1:0:0:0:
112,80,35600,6,0,P|72:194|136:297,1,239.835954320625,4|0,0:0|1:0,0:0:0:0:
256,356,36261,1,2,0:0:0:0:
400,192,36482,1,0,3:0:0:0:
256,356,36703,1,2,0:0:0:0:
112,192,36923,1,0,1:0:0:0:
399,192,37144,6,0,P|420:135|425:76,1,119.917977160312,2|0,0:0|3:0,0:0:0:0:
86,76,37585,2,0,P|91:135|112:192,1,119.917977160312,2|0,0:0|1:0,0:0:0:0:
256,160,38026,5,2,0:0:0:0:
400,80,38247,1,0,3:0:0:0:
256,0,38467,1,2,0:0:0:0:
112,80,38688,1,0,1:0:0:0:
400,80,38908,6,0,P|440:194|376:297,1,239.835954320625,4|2,0:0|0:0,0:0:0:0:
256,356,39569,1,0,1:0:0:0:
112,192,39790,1,2,0:0:0:0:
256,356,40011,1,0,3:0:0:0:
400,192,40231,1,2,0:0:0:0:
112,192,40453,1,0,1:0:0:0:
400,192,40674,6,0,P|420:139|426:77,1,119.917977160312,2|0,0:0|3:0,0:0:0:0:
86,76,41115,2,0,P|91:135|112:192,1,119.917977160312,2|0,0:0|1:0,0:0:0:0:
320,224,41555,5,2,0:0:0:0:
353,14,41775,1,0,3:0:0:0:
159,14,41997,1,2,0:0:0:0:
192,224,42217,1,0,1:0:0:0:
0,256,42438,6,0,B|37:196|99:209|104:211|110:213|172:226|209:166,1,239.835954320625,4|2,0:0|0:0,0:0:0:0:
303,167,43100,1,0,1:0:0:0:
303,167,43320,1,2,0:0:0:0:
512,256,43541,1,0,3:0:0:0:
400,384,43761,1,2,0:0:0:0:
512,256,43982,1,0,1:0:0:0:
303,167,44203,5,2,0:0:0:0:
209,217,44423,1,0,3:0:0:0:
394,200,44644,2,0,P|394:137|362:91,1,119.917977160312,2|0,0:0|1:0,0:0:0:0:
118,184,45085,2,0,P|118:247|150:293,1,119.917977160312,2|0,0:0|3:0,0:0:0:0:
256,384,45525,5,2,0:0:0:0:
256,192,45746,1,0,1:0:0:0:
256,384,45967,1,2,0:0:0:0:
337,274,46188,5,4,0:0:0:0:
175,273,46408,1,2,0:0:0:0:
175,111,46629,1,4,1:0:0:0:
337,111,46850,1,2,0:0:0:0:
409,192,47070,5,4,0:0:0:0:
256,345,47290,1,2,0:0:0:0:
104,192,47511,1,4,1:0:0:0:
256,40,47732,1,2,0:0:0:0:
400,48,47953,5,4,0:0:0:0:
400,336,48173,1,6,0:0:0:0:
112,336,48394,1,4,1:0:0:0:
112,48,48615,1,6,0:0:0:0:
192,160,49055,5,2,0:0:0:0:
112,48,49276,1,0,1:0:0:0:
176,0,49386,1,0,1:0:0:0:
256,32,49497,1,0,1:0:0:0:
256,112,49607,1,0,1:0:0:0:
192,160,49717,6,0,P|140:169|88:192,1,109.924808498876,4|2,1:0|0:0,0:0:0:0:
256,384,50158,1,0,1:0:0:0:
423,192,50379,1,2,0:0:0:0:
423,192,50489,1,2,0:0:0:0:
423,192,50600,1,4,3:0:0:0:
423,192,50710,2,0,P|373:169|320:160,1,109.924808498876,2|0,0:0|0:0,0:0:0:0:
192,160,51041,1,0,1:0:0:0:
352,256,51261,5,2,0:0:0:0:
352,256,51372,1,2,0:0:0:0:
352,256,51482,2,0,B|369:306|369:306|341:358,1,109.924808498876,2|2,1:0|0:0,0:0:0:0:
256,304,51813,1,2,0:0:0:0:
170,356,51923,2,0,B|143:306|143:306|160:256,1,109.924808498876,2|2,1:0|1:0,0:0:0:0:
160,256,52254,1,2,1:0:0:0:
208,192,52364,5,2,1:0:0:0:
256,160,52475,1,2,0:0:0:0:
304,192,52585,1,2,0:0:0:0:
256,384,52805,1,2,1:0:0:0:
467,243,53026,1,2,0:0:0:0:
467,243,53136,1,2,0:0:0:0:
467,243,53247,6,0,P|483:191|467:139,1,110.000003356934,4|2,1:0|0:0,0:0:0:0:
45,140,53688,2,0,P|30:192|46:244,1,110.000003356934,0|2,1:0|0:0,0:0:0:0:
45,243,54019,1,2,0:0:0:0:
128,192,54129,5,4,3:0:0:0:
128,192,54239,1,2,0:0:0:0:
384,192,54460,1,2,0:0:0:0:
384,192,54570,1,0,1:0:0:0:
256,288,54791,1,2,0:0:0:0:
256,288,54901,1,2,0:0:0:0:
256,288,55011,1,2,1:0:0:0:
256,48,55342,5,2,1:0:0:0:
256,96,55453,1,2,1:0:0:0:
352,192,55673,5,2,1:0:0:0:
396,158,55783,1,2,1:0:0:0:
384,104,55893,1,2,1:0:0:0:
128,104,56114,5,2,0:0:0:0:
116,158,56225,1,2,0:0:0:0:
160,192,56335,1,0,1:0:0:0:
176,304,56555,5,2,0:0:0:0:
176,304,56665,1,2,0:0:0:0:
176,304,56776,2,0,P|124:295|72:272,1,109.924808498876,4|2,1:0|0:0,0:0:0:0:
256,192,57216,1,0,1:0:0:0:
441,271,57437,1,2,0:0:0:0:
441,271,57547,1,2,0:0:0:0:
441,271,57658,1,4,3:0:0:0:
441,271,57769,2,0,P|390:294|336:304,1,109.924808498876,2|0,0:0|0:0,0:0:0:0:
256,384,58099,1,0,1:0:0:0:
255,71,58320,5,0,1:0:0:0:
255,71,58430,1,0,1:0:0:0:
333,99,58540,1,0,1:0:0:0:
374,171,58651,1,0,1:0:0:0:
360,252,58761,1,0,1:0:0:0:
297,305,58871,1,0,1:0:0:0:
214,305,58982,1,0,1:0:0:0:
151,252,59092,1,0,1:0:0:0:
137,171,59202,1,0,1:0:0:0:
178,99,59313,1,4,1:0:0:0:
