osu file format v14

[General]
AudioFilename: audio.mp3
AudioLeadIn: 0
PreviewTime: 35594
Countdown: 0
SampleSet: Soft
StackLeniency: 0.4
Mode: 0
LetterboxInBreaks: 0
SkinPreference:Default
WidescreenStoryboard: 1

[Editor]
DistanceSpacing: 1
BeatDivisor: 4
GridSize: 8
TimelineZoom: 2

[Metadata]
Title:Ben 10 (TV Size)
TitleUnicode:Ben 10 (TV Size)
Artist:Moxy
ArtistUnicode:Moxy
Creator:AJT
Version:Nitroz's Insane
Source:Ben 10
Tags:english pop mz. cartoon network main theme nitroz bloxi
BeatmapID:4169150
BeatmapSetID:2004646

[Difficulty]
HPDrainRate:5
CircleSize:4
OverallDifficulty:7
ApproachRate:8
SliderMultiplier:2.15
SliderTickRate:1

[Events]
//Background and Video events
Video,60,"ben10video.mp4"
0,0,"t6ZLdL7.jpeg",0,0
//Break Periods
//Storyboard Layer 0 (Background)
//Storyboard Layer 1 (Fail)
//Storyboard Layer 2 (Pass)
//Storyboard Layer 3 (Foreground)
//Storyboard Layer 4 (Overlay)
//Storyboard Sound Samples

[TimingPoints]
306,441.176470588235,4,2,0,70,1,0
5600,-100,4,2,0,70,0,0
35600,-89.6446075003537,4,2,0,90,0,1
49717,-97.7941172728741,4,2,0,80,0,0

[Colours]
Combo1 : 128,255,0
Combo2 : 85,85,85
SliderTrackOverride : 0,0,0
SliderBorder : 216,216,216

[HitObjects]
80,256,5600,5,0,1:0:0:0:
256,336,6041,1,0,1:0:0:0:
432,256,6482,1,0,1:0:0:0:
432,224,6592,1,0,1:0:0:0:
456,192,6703,1,0,1:0:0:0:
456,160,6813,1,0,1:0:0:0:
432,128,6923,2,0,L|456:80,3,53.75,0|0|0|0,1:0|1:0|1:0|1:0,0:0:0:0:
432,48,7364,6,0,P|400:24|328:24,1,107.5,4|0,0:0|0:0,0:0:0:0:
80,48,7805,2,0,P|112:24|184:24,1,107.5,0|0,1:0|0:0,0:0:0:0:
304,104,8247,1,2,0:0:0:0:
208,104,8467,1,0,0:0:0:0:
336,192,8688,1,0,1:0:0:0:
176,192,8908,1,0,0:0:0:0:
304,104,9129,1,2,0:0:0:0:
256,256,9350,1,0,0:0:0:0:
208,104,9570,1,0,1:0:0:0:
256,176,9791,1,0,0:0:0:0:
256,176,10011,1,2,0:0:0:0:
256,176,10453,5,0,1:0:0:0:
120,208,10673,1,0,1:0:0:0:
104,248,10783,1,0,1:0:0:0:
120,288,10894,6,0,P|136:336|184:360,1,107.5,2|0,0:0|0:0,0:0:0:0:
392,288,11335,2,0,P|376:336|328:360,1,107.5,0|0,1:0|0:0,0:0:0:0:
256,288,11776,1,2,0:0:0:0:
256,192,11997,1,0,0:0:0:0:
184,120,12217,1,0,1:0:0:0:
256,192,12438,1,0,0:0:0:0:
328,120,12658,5,2,0:0:0:0:
256,192,12879,1,0,0:0:0:0:
184,120,13100,1,0,1:0:0:0:
256,48,13320,1,0,0:0:0:0:
328,120,13541,1,2,0:0:0:0:
328,120,13761,1,0,0:0:0:0:
448,160,13982,1,0,1:0:0:0:
472,192,14092,1,0,1:0:0:0:
472,232,14203,1,0,1:0:0:0:
448,264,14313,1,0,1:0:0:0:
416,287,14423,6,0,L|312:320,1,107.5,2|0,0:0|0:0,0:0:0:0:
96,287,14864,2,0,L|200:320,1,107.5,0|0,1:0|0:0,0:0:0:0:
304,240,15305,1,2,0:0:0:0:
304,144,15526,1,0,0:0:0:0:
208,144,15747,1,0,1:0:0:0:
208,240,15967,1,0,0:0:0:0:
304,56,16188,6,0,B|256:32|256:32|208:56,3,107.5,2|0|0|0,0:0|0:0|1:0|0:0,0:0:0:0:
136,160,17070,1,2,0:0:0:0:
256,132,17291,1,0,0:0:0:0:
376,160,17511,1,0,1:0:0:0:
288,256,17732,1,0,1:0:0:0:
256,264,17842,1,0,1:0:0:0:
224,256,17953,5,2,0:0:0:0:
160,336,18173,1,2,0:0:0:0:
160,336,18394,1,0,1:0:0:0:
256,240,18614,2,0,L|256:128,2,107.5,0|2|0,0:0|0:0|0:0,0:0:0:0:
352,336,19276,1,0,1:0:0:0:
352,336,19497,1,2,0:0:0:0:
432,240,19717,6,0,L|432:128,1,107.5,2|0,0:0|0:0,0:0:0:0:
320,72,20158,1,0,1:0:0:0:
192,72,20379,1,2,0:0:0:0:
80,132,20600,2,0,L|80:240,1,107.5,2|0,0:0|0:0,0:0:0:0:
144,352,21041,1,0,1:0:0:0:
184,336,21151,1,0,1:0:0:0:
216,344,21261,1,0,1:0:0:0:
256,352,21372,1,0,1:0:0:0:
296,336,21482,5,4,0:0:0:0:
384,376,21703,1,0,0:0:0:0:
472,336,21923,1,0,1:0:0:0:
472,232,22144,1,0,0:0:0:0:
384,192,22364,1,2,0:0:0:0:
296,232,22585,1,0,0:0:0:0:
216,336,22805,5,0,1:0:0:0:
128,376,23026,1,0,0:0:0:0:
40,336,23247,1,2,0:0:0:0:
40,232,23467,1,0,0:0:0:0:
128,192,23688,1,0,1:0:0:0:
216,232,23908,1,0,0:0:0:0:
296,336,24129,2,0,P|352:328|416:248,1,161.25,2|0,0:0|0:0,0:0:0:0:
416,208,24570,1,0,1:0:0:0:
496,152,24791,1,0,1:0:0:0:
472,128,24901,1,0,1:0:0:0:
448,104,25011,5,4,0:0:0:0:
368,32,25232,1,0,0:0:0:0:
256,32,25453,1,0,1:0:0:0:
368,32,25673,1,0,0:0:0:0:
256,32,25894,1,2,0:0:0:0:
144,32,26114,1,0,0:0:0:0:
144,144,26335,1,0,1:0:0:0:
32,144,26555,1,0,0:0:0:0:
144,144,26776,5,2,0:0:0:0:
200,232,26997,1,0,0:0:0:0:
312,232,27217,1,0,1:0:0:0:
368,144,27438,1,0,0:0:0:0:
256,144,27658,1,2,0:0:0:0:
208,56,27879,1,0,1:0:0:0:
222,45,27989,1,0,1:0:0:0:
238,38,28100,1,0,1:0:0:0:
256,36,28210,1,0,1:0:0:0:
274,38,28320,1,0,1:0:0:0:
290,45,28430,1,0,1:0:0:0:
304,56,28541,5,4,0:0:0:0:
400,16,28761,1,0,0:0:0:0:
496,64,28982,1,0,1:0:0:0:
400,112,29203,1,0,0:0:0:0:
496,160,29423,1,2,0:0:0:0:
400,208,29644,1,0,0:0:0:0:
312,256,29864,1,0,1:0:0:0:
312,160,30085,1,0,0:0:0:0:
200,160,30305,5,2,0:0:0:0:
200,256,30526,1,0,0:0:0:0:
312,256,30747,1,0,1:0:0:0:
312,160,30967,1,0,0:0:0:0:
128,208,31188,5,2,0:0:0:0:
256,312,31408,1,0,0:0:0:0:
384,208,31629,1,0,1:0:0:0:
416,104,31850,1,0,1:0:0:0:
401,66,31960,1,0,1:0:0:0:
384,32,32070,5,4,0:0:0:0:
256,24,32291,1,0,0:0:0:0:
256,24,32511,1,0,1:0:0:0:
96,104,32732,1,2,0:0:0:0:
111,66,32842,1,2,0:0:0:0:
128,32,32953,1,2,0:0:0:0:
256,24,33173,1,0,0:0:0:0:
320,136,33394,1,0,1:0:0:0:
192,136,33614,1,0,0:0:0:0:
256,248,33835,5,4,0:0:0:0:
376,288,34055,1,0,1:0:0:0:
360,320,34166,1,0,1:0:0:0:
328,344,34276,2,0,L|272:360,1,53.75,0|0,1:0|1:0,0:0:0:0:
235,358,34497,2,0,L|184:344,1,53.75,0|0,1:0|1:0,0:0:0:0:
152,320,34717,1,0,1:0:0:0:
136,288,34828,1,0,1:0:0:0:
136,248,34938,2,0,L|136:192,1,53.75,0|0,1:0|1:0,0:0:0:0:
256,160,35158,2,0,L|256:216,1,53.75,0|0,1:0|1:0,0:0:0:0:
376,248,35379,2,0,L|376:192,1,53.75,0|0,1:0|1:0,0:0:0:0:
408,80,35600,6,0,P|368:32|312:24,1,119.917977160312,4|0,0:0|0:0,0:0:0:0:
198,23,36041,2,0,P|140:34|104:80,1,119.917977160312,0|2,1:0|0:0,0:0:0:0:
48,192,36482,1,0,3:0:0:0:
104,305,36703,1,2,0:0:0:0:
160,192,36923,1,0,1:0:0:0:
256,80,37144,6,0,B|296:192|296:192|256:312,2,239.835954320625,2|2|2,0:0|0:0|0:0,0:0:0:0:
192,16,38247,1,0,3:0:0:0:
320,16,38467,1,2,0:0:0:0:
192,16,38688,1,0,1:0:0:0:
128,144,38908,1,4,0:0:0:0:
144,168,39019,1,2,0:0:0:0:
160,192,39129,6,0,L|192:312,1,119.917977160312,0|2,3:0|0:0,0:0:0:0:
321,307,39570,2,0,L|352:192,1,119.917977160312,0|2,1:0|0:0,0:0:0:0:
464,192,40011,1,0,3:0:0:0:
408,305,40232,1,2,0:0:0:0:
352,192,40452,1,0,1:0:0:0:
256,80,40673,6,0,B|216:192|216:192|256:312,2,239.835954320625,2|2|2,0:0|0:0|0:0,0:0:0:0:
320,16,41776,1,0,3:0:0:0:
192,16,41996,1,2,0:0:0:0:
320,16,42217,1,0,1:0:0:0:
192,16,42438,1,4,0:0:0:0:
160,24,42548,1,2,0:0:0:0:
128,32,42658,6,0,L|8:64,1,119.917977160312,0|2,3:0|0:0,0:0:0:0:
48,192,43100,1,0,1:0:0:0:
176,160,43320,1,2,0:0:0:0:
192,280,43541,1,0,3:0:0:0:
320,280,43761,1,2,0:0:0:0:
336,160,43982,1,0,1:0:0:0:
368,48,44203,6,0,B|256:5|256:5|144:48,2,239.835954320625,2|2|2,0:0|0:0|0:0,0:0:0:0:
392,56,45195,1,2,0:0:0:0:
416,64,45305,1,0,3:0:0:0:
464,192,45526,1,2,0:0:0:0:
416,320,45747,1,0,1:0:0:0:
296,360,45967,1,2,0:0:0:0:
256,368,46078,1,2,0:0:0:0:
216,360,46188,5,4,0:0:0:0:
96,320,46408,1,2,0:0:0:0:
96,192,46629,1,4,1:0:0:0:
120,64,46850,1,2,0:0:0:0:
256,48,47070,1,4,0:0:0:0:
392,64,47291,1,2,0:0:0:0:
416,192,47512,1,4,1:0:0:0:
416,320,47732,1,2,0:0:0:0:
416,192,47953,5,4,0:0:0:0:
256,48,48174,1,6,0:0:0:0:
96,192,48394,1,4,1:0:0:0:
256,192,48614,1,6,0:0:0:0:
256,192,49055,1,2,0:0:0:0:
144,248,49276,1,0,1:0:0:0:
138,261,49386,1,0,1:0:0:0:
132,275,49496,1,0,1:0:0:0:
126,289,49606,1,0,1:0:0:0:
120,303,49717,6,0,B|152:351|152:351|203:358,1,109.924808498876,4|2,1:0|0:0,0:0:0:0:
256,240,50158,1,0,1:0:0:0:
380,275,50379,1,2,0:0:0:0:
386,289,50489,1,2,0:0:0:0:
392,303,50600,2,0,B|360:351|360:351|304:359,1,109.924808498876,4|0,3:0|0:0,0:0:0:0:
256,240,51041,1,0,1:0:0:0:
144,184,51261,1,2,0:0:0:0:
144,184,51372,1,2,0:0:0:0:
144,184,51482,6,0,L|160:72,1,109.924808498876,2|2,1:0|0:0,0:0:0:0:
208,24,51813,2,0,P|256:1|304:24,1,109.924808498876,2|0,1:1|0:0,0:0:0:0:
352,75,52144,2,0,L|368:184,1,109.924808498876,2|2,1:0|1:0,0:0:0:0:
372,208,52475,1,2,0:0:0:0:
376,232,52585,1,2,0:0:0:0:
256,352,52805,2,0,L|256:297,3,54.9624042494382,0|2|2|2,1:0|0:0|0:0|0:0,0:0:0:0:
216,288,53247,6,0,B|176:248|176:248|176:192,1,109.924808498876,4|2,1:0|0:0,0:0:0:0:
104,128,53688,1,0,1:0:0:0:
296,96,53908,1,2,0:0:0:0:
296,96,54019,1,2,0:0:0:0:
296,96,54129,2,0,B|336:136|336:136|336:192,1,109.924808498876,4|0,3:0|0:0,0:0:0:0:
408,256,54570,1,0,1:0:0:0:
352,368,54791,1,2,0:0:0:0:
328,360,54901,1,2,0:0:0:0:
304,352,55011,6,0,P|256:375|208:352,1,109.924808498876,2|0,1:0|0:0,0:0:0:0:
176,288,55342,2,0,L|224:176,1,109.924808498876,2|0,1:0|0:0,0:0:0:0:
292,186,55673,2,0,L|336:288,1,109.924808498876,2|2,1:0|1:0,0:0:0:0:
304,96,56114,1,2,0:0:0:0:
256,80,56225,1,2,0:0:0:0:
208,96,56335,1,0,1:0:0:0:
120,192,56555,6,0,L|120:248,1,54.9624042494382,2|2,0:0|0:0,0:0:0:0:
120,288,56776,1,4,1:0:0:0:
256,312,56997,6,0,L|256:256,1,54.9624042494382,2|0,0:0|0:0,0:0:0:0:
256,216,57218,1,0,1:0:0:0:
392,192,57438,6,0,L|392:248,1,54.9624042494382,2|2,0:0|0:0,0:0:0:0:
392,288,57659,1,4,3:0:0:0:
256,176,57879,6,0,L|256:120,1,54.9624042494382,2|0,0:0|0:0,0:0:0:0:
256,80,58100,1,0,1:0:0:0:
128,56,58320,5,0,1:0:0:0:
104,88,58430,1,0,1:0:0:0:
88,112,58541,5,0,1:0:0:0:
96,144,58651,1,0,1:0:0:0:
104,176,58761,1,0,1:0:0:0:
80,200,58872,5,0,1:0:0:0:
88,232,58982,1,0,1:0:0:0:
96,264,59092,1,0,1:0:0:0:
80,288,59203,5,0,1:0:0:0:
56,320,59313,1,4,1:0:0:0:
