osu file format v14

[General]
AudioFilename: audio.mp3
AudioLeadIn: 0
PreviewTime: 35594
Countdown: 0
SampleSet: Soft
StackLeniency: 0.7
Mode: 0
LetterboxInBreaks: 0
SkinPreference:Default
WidescreenStoryboard: 1

[Editor]
DistanceSpacing: 1
BeatDivisor: 4
GridSize: 8
TimelineZoom: 1.4

[Metadata]
Title:Ben 10 (TV Size)
TitleUnicode:Ben 10 (TV Size)
Artist:Moxy
ArtistUnicode:Moxy
Creator:AJT
Version:Bloxi's Hard
Source:Ben 10
Tags:english pop mz. cartoon network main theme nitroz bloxi
BeatmapID:4168911
BeatmapSetID:2004646

[Difficulty]
HPDrainRate:4
CircleSize:4.5
OverallDifficulty:6
ApproachRate:7
SliderMultiplier:1.5
SliderTickRate:1

[Events]
//Background and Video events
Video,60,"ben10video.mp4"
0,0,"bg2.jpg",0,0
//Break Periods
//Storyboard Layer 0 (Background)
//Storyboard Layer 1 (Fail)
//Storyboard Layer 2 (Pass)
//Storyboard Layer 3 (Foreground)
//Storyboard Layer 4 (Overlay)
//Storyboard Sound Samples

[TimingPoints]
306,441.176470588235,4,2,0,70,1,0
35600,-83.3333333333333,4,2,0,90,0,1
49717,-100,4,2,0,80,0,0

[Colours]
Combo1 : 128,255,0
Combo2 : 85,85,85
SliderTrackOverride : 0,0,0
SliderBorder : 216,216,216

[HitObjects]
74,358,5600,6,0,L|69:268,1,75,0|0,1:0|0:0,0:0:0:0:
139,253,6041,2,0,L|144:163,1,75,0|0,1:0|0:0,0:0:0:0:
102,116,6482,2,0,L|58:113,3,37.5,0|0|0|0,1:0|1:0|1:0|1:0,0:0:0:0:
32,131,6923,2,0,L|24:88,3,37.5,0|0|0|0,1:0|1:0|1:0|1:0,0:0:0:0:
0,67,7364,6,0,L|68:35,1,75,4|0,0:0|0:0,0:0:0:0:
142,35,7805,1,0,1:0:0:0:
209,66,8025,1,0,0:0:0:0:
277,35,8247,2,0,P|315:29|352:27,1,75,2|0,0:0|0:0,0:0:0:0:
422,1,8688,2,0,P|437:35|448:71,1,75,0|0,1:0|0:0,0:0:0:0:
492,131,9129,1,2,0:0:0:0:
431,174,9349,1,0,0:0:0:0:
365,211,9570,1,0,1:0:0:0:
300,249,9791,1,0,0:0:0:0:
227,267,10011,2,0,P|160:259|77:255,1,150,2|0,0:0|1:0,0:0:0:0:
26,309,10673,5,0,1:0:0:0:
26,309,10783,1,0,1:0:0:0:
26,309,10894,2,0,L|33:391,1,75,2|0,0:0|0:0,0:0:0:0:
107,381,11335,2,0,L|189:374,1,75,0|0,1:0|0:0,0:0:0:0:
218,308,11776,1,2,0:0:0:0:
294,308,11997,1,0,0:0:0:0:
330,374,12217,2,0,L|405:381,1,75,0|0,1:0|0:0,0:0:0:0:
479,383,12658,2,0,L|486:309,1,75,2|0,0:0|0:0,0:0:0:0:
428,260,13100,1,0,1:0:0:0:
414,186,13320,1,0,0:0:0:0:
456,124,13541,2,0,P|475:91|476:54,1,75,2|0,0:0|0:0,0:0:0:0:
419,4,13982,2,0,L|374:8,3,37.5,0|0|0|0,1:0|1:0|1:0|1:0,0:0:0:0:
346,21,14423,6,0,L|356:95,1,75,2|0,0:0|0:0,0:0:0:0:
294,137,14864,1,0,1:0:0:0:
218,137,15085,1,0,0:0:0:0:
155,95,15305,2,0,L|166:21,1,75,2|0,0:0|0:0,0:0:0:0:
89,13,15747,2,0,P|56:27|39:60,1,75,0|0,1:0|0:0,0:0:0:0:
69,129,16188,1,2,0:0:0:0:
16,181,16408,1,0,0:0:0:0:
53,246,16629,1,0,1:0:0:0:
6,305,16850,1,0,0:0:0:0:
52,363,17070,2,0,B|107:348|107:348|165:360,1,112.5,2|0,0:0|0:0,0:0:0:0:
197,371,17511,6,0,L|182:276,1,75,0|0,1:0|1:0,0:0:0:0:
210,269,17842,1,0,1:0:0:0:
239,245,17953,2,0,L|224:150,1,75,2|0,0:0|0:0,0:0:0:0:
197,102,18394,2,0,P|218:67|244:44,1,75,0|0,1:0|0:0,0:0:0:0:
316,23,18835,1,2,0:0:0:0:
388,41,19055,1,0,0:0:0:0:
441,94,19276,2,0,L|426:243,1,150,0|2,1:0|0:0,0:0:0:0:
494,284,19938,1,0,0:0:0:0:
494,284,20158,2,0,B|448:319|448:319|417:317|417:317|334:314,1,150,0|2,1:0|0:0,0:0:0:0:
280,310,20820,1,0,0:0:0:0:
229,254,21041,2,0,L|237:209,3,37.5,0|0|0|0,1:0|1:0|1:0|1:0,0:0:0:0:
262,190,21482,6,0,P|259:152|240:121,1,75,4|0,0:0|0:0,0:0:0:0:
257,47,21923,2,0,P|220:39|185:49,1,75,0|0,1:0|0:0,0:0:0:0:
117,14,22364,1,2,0:0:0:0:
102,84,22584,1,0,0:0:0:0:
28,105,22805,1,0,1:0:0:0:
44,176,23025,1,0,0:0:0:0:
59,249,23247,2,0,L|133:236,1,75,2|0,0:0|0:0,0:0:0:0:
167,303,23688,2,0,L|92:315,1,75,0|0,1:0|0:0,0:0:0:0:
125,381,24129,2,0,L|200:369,1,75,2|0,0:0|0:0,0:0:0:0:
256,319,24570,1,0,1:0:0:0:
256,245,24791,5,0,1:0:0:0:
256,245,24901,1,0,1:0:0:0:
256,245,25011,2,0,L|256:165,1,75,4|0,0:0|0:0,0:0:0:0:
218,104,25453,2,0,L|146:82,1,75,0|0,1:0|0:0,0:0:0:0:
294,104,25894,2,0,L|365:82,1,75,2|0,0:0|0:0,0:0:0:0:
434,113,26335,2,0,P|423:173|426:191,1,75,0|0,1:0|0:0,0:0:0:0:
481,235,26776,1,2,0:0:0:0:
502,306,26997,1,0,0:0:0:0:
455,364,27217,1,0,1:0:0:0:
381,377,27438,1,0,0:0:0:0:
317,338,27658,1,0,0:0:0:0:
248,347,27879,1,0,1:0:0:0:
248,347,27989,1,0,1:0:0:0:
248,347,28100,2,0,L|254:392,3,37.5,0|0|0|0,1:0|1:0|1:0|1:0,0:0:0:0:
215,383,28541,6,0,B|178:384|178:384|143:364,1,75,4|0,0:0|0:0,0:0:0:0:
90,314,28982,1,0,1:0:0:0:
140,259,29203,1,2,0:0:0:0:
97,197,29423,2,0,P|88:172|82:123,1,75,2|0,0:0|0:0,0:0:0:0:
93,49,29864,2,0,L|177:58,1,75,0|0,1:0|0:0,0:0:0:0:
224,105,30305,1,2,0:0:0:0:
296,86,30526,1,0,0:0:0:0:
359,125,30747,2,0,P|350:162|346:199,1,75,0|0,1:0|0:0,0:0:0:0:
301,260,31188,2,0,P|333:277|368:291,1,75,2|0,0:0|0:0,0:0:0:0:
443,287,31629,1,0,1:0:0:0:
496,235,31850,1,0,1:0:0:0:
496,235,31960,1,0,1:0:0:0:
496,235,32070,6,0,P|494:197|487:141,1,75,4|0,0:0|0:0,0:0:0:0:
480,86,32511,2,0,B|445:101|445:101|401:94,1,75,0|0,1:0|0:0,0:0:0:0:
337,68,32953,1,2,0:0:0:0:
282,17,33173,1,0,0:0:0:0:
208,0,33394,2,0,L|75:3,1,112.5,0|0,1:0|0:0,0:0:0:0:
69,29,33835,2,0,P|66:66|69:103,1,75,4|0,0:0|1:0,0:0:0:0:
88,137,34166,1,0,1:0:0:0:
122,153,34276,2,0,P|140:152|159:150,3,37.5,0|0|0|0,1:0|1:0|1:0|1:0,0:0:0:0:
195,137,34717,2,0,P|213:137|232:139,3,37.5,0|0|0|0,1:0|1:0|1:0|1:0,0:0:0:0:
265,157,35158,2,0,L|257:201,3,37.5,0|0|0|0,1:0|1:0|1:0|1:0,0:0:0:0:
246,230,35600,6,0,P|168:250|194:328,1,179.999994506836,4|0,0:0|1:0,0:0:0:0:
263,381,36261,1,2,0:0:0:0:
353,375,36482,2,0,L|445:365,1,89.9999972534181,0|2,3:0|0:0,0:0:0:0:
409,281,36923,1,0,1:0:0:0:
481,227,37144,2,0,P|478:165|508:98,1,134.999995880127,2|0,0:0|0:0,0:0:0:0:
511,54,37585,2,0,P|450:59|378:42,1,134.999995880127,2|0,0:0|0:0,0:0:0:0:
345,73,38026,2,0,P|304:65|256:75,1,89.9999972534181,2|0,0:0|3:0,0:0:0:0:
243,118,38357,1,2,0:0:0:0:
256,161,38467,1,2,0:0:0:0:
215,240,38688,1,0,1:0:0:0:
129,213,38908,6,0,P|52:210|25:115,1,179.999994506836,4|2,0:0|0:0,0:0:0:0:
34,33,39570,1,0,1:0:0:0:
118,0,39791,1,2,0:0:0:0:
207,7,40011,1,0,3:0:0:0:
273,68,40232,1,2,0:0:0:0:
285,157,40453,1,0,1:0:0:0:
275,246,40673,2,0,L|123:229,1,134.999995880127,2|0,0:0|0:0,0:0:0:0:
103,206,41114,2,0,P|114:246|105:292,1,89.9999972534181,2|0,0:0|1:0,0:0:0:0:
14,284,41555,2,0,P|30:348|85:384,1,134.999995880127,2|0,0:0|0:0,0:0:0:0:
130,381,41997,1,2,0:0:0:0:
191,315,42217,1,0,1:0:0:0:
261,372,42438,6,0,L|442:368,1,179.999994506836,4|2,0:0|0:0,0:0:0:0:
454,325,42989,1,2,0:0:0:0:
466,281,43100,1,0,1:0:0:0:
394,229,43320,1,2,0:0:0:0:
314,270,43541,2,0,P|289:237|265:194,1,89.9999972534181,0|2,3:0|0:0,0:0:0:0:
187,148,43982,1,0,1:0:0:0:
222,64,44203,2,0,L|356:49,1,134.999995880127,2|0,0:0|0:0,0:0:0:0:
400,61,44644,2,0,B|427:97|427:97|399:182,1,134.999995880127,2|0,0:0|0:0,0:0:0:0:
360,205,45085,2,0,P|359:246|375:293,1,89.9999972534181,2|0,0:0|3:0,0:0:0:0:
449,341,45526,2,0,P|415:370|371:380,1,89.9999972534181,2|0,0:0|1:0,0:0:0:0:
295,331,45967,5,2,0:0:0:0:
216,375,46188,1,4,0:0:0:0:
146,318,46408,1,2,0:0:0:0:
53,366,46629,2,0,P|55:321|51:276,1,89.9999972534181,4|2,1:0|0:0,0:0:0:0:
4,199,47070,2,0,P|2:154|6:109,1,89.9999972534181,4|2,0:0|0:0,0:0:0:0:
92,74,47511,1,4,1:0:0:0:
92,74,47622,1,2,0:0:0:0:
92,74,47732,1,2,0:0:0:0:
161,130,47953,1,4,0:0:0:0:
239,85,48173,1,6,0:0:0:0:
402,9,48614,6,0,P|496:16|503:127,1,224.999993133545,6|0,0:0|0:0,0:0:0:0:
461,144,49276,2,0,L|415:134,3,44.999998626709,0|0|0|0,1:0|1:0|1:0|1:0,0:0:0:0:
372,140,49717,6,0,P|335:167|365:279,1,150,4|0,1:0|1:0,0:0:0:0:
385,323,50379,1,2,0:0:0:0:
329,372,50600,2,0,L|251:372,1,75,4|0,3:0|0:0,0:0:0:0:
181,353,51041,2,0,B|173:293|173:293|197:246,1,112.5,0|2,1:0|0:0,0:0:0:0:
233,240,51482,2,0,B|250:188|250:188|216:133,1,112.5,2|2,1:0|1:0,0:0:0:0:
196,109,51923,2,0,L|154:117,1,37.5,2|0,1:0|0:0,0:0:0:0:
133,143,52144,2,0,L|91:135,1,37.5,2|2,1:0|1:0,0:0:0:0:
67,112,52364,2,0,L|65:69,3,37.5,2|2|2|2,1:0|0:0|0:0|0:0,0:0:0:0:
81,40,52805,2,0,L|122:26,3,37.5,0|2|2|2,1:0|0:0|0:0|0:0,0:0:0:0:
154,34,53247,6,0,L|226:83,1,75,4|2,1:0|0:0,0:0:0:0:
295,76,53688,2,0,L|358:34,1,75,0|2,1:0|0:0,0:0:0:0:
432,28,54129,1,4,3:0:0:0:
500,59,54350,1,2,0:0:0:0:
496,133,54570,2,0,P|483:190|501:266,1,112.5,0|2,1:0|0:0,0:0:0:0:
509,275,55011,2,0,L|398:260,1,112.5,2|2,1:0|1:0,0:0:0:0:
359,254,55453,1,2,1:0:0:0:
321,252,55563,1,2,0:0:0:0:
283,248,55673,2,0,L|296:300,2,37.5,2|2|2,1:0|1:0|1:0,0:0:0:0:
264,175,56114,2,0,L|251:123,2,37.5,2|2|0,0:0|0:0|1:0,0:0:0:0:
206,220,56555,1,2,0:0:0:0:
206,220,56666,1,2,0:0:0:0:
206,220,56776,6,0,P|99:209|64:211,1,112.5,4|0,1:0|0:0,0:0:0:0:
63,230,57217,2,0,L|78:304,1,75,0|2,1:0|0:0,0:0:0:0:
135,351,57658,1,4,3:0:0:0:
204,322,57879,2,0,B|243:317|243:317|277:327,1,75,2|0,0:0|1:0,0:0:0:0:
343,287,58320,1,0,1:0:0:0:
343,287,58430,1,0,1:0:0:0:
343,287,58541,2,0,L|335:238,2,37.5,0|0|0,1:0|1:0|1:0,0:0:0:0:
377,302,58872,2,0,L|385:351,2,37.5,0|0|0,1:0|1:0|1:0,0:0:0:0:
407,280,59203,1,0,1:0:0:0:
444,276,59313,1,4,1:0:0:0:
