osu file format v14

[General]
AudioFilename: audio.mp3
AudioLeadIn: 0
PreviewTime: -1
Countdown: 1
SampleSet: Normal
StackLeniency: 0.7
Mode: 3
LetterboxInBreaks: 0
SpecialStyle: 0
WidescreenStoryboard: 0

[Editor]
Bookmarks: 63576,69933,89006
DistanceSpacing: 0.8
BeatDivisor: 4
GridSize: 4
TimelineZoom: 1

[Metadata]
Title:Sluggish Star [instrumental]
TitleUnicode:Sluggish Star [instrumental]
Artist:Mowtendoo
ArtistUnicode:Mowtendoo
Creator:Hydria
Version:Hard
Source:
Tags:
BeatmapID:1263644
BeatmapSetID:597775

[Difficulty]
HPDrainRate:8
CircleSize:4
OverallDifficulty:9.2
ApproachRate:5
SliderMultiplier:1.4
SliderTickRate:1

[Events]
//Background and Video events
0,0,"artworks-000207795673-y3ggp5-t500x500.jpg",0,0
//Break Periods
//Storyboard Layer 0 (Background)
//Storyboard Layer 1 (Fail)
//Storyboard Layer 2 (Pass)
//Storyboard Layer 3 (Foreground)
//Storyboard Sound Samples

[TimingPoints]
0,794.701986754967,4,1,0,20,1,0

[HitObjects]
320,192,0,128,0,198:0:0:0:0:
320,192,397,128,0,596:0:0:0:0:
320,192,794,128,0,993:0:0:0:0:
192,192,1192,128,0,1291:0:0:0:0:
320,192,1390,128,0,1490:0:0:0:0:
320,192,1788,128,0,1986:0:0:0:0:
192,192,2185,128,0,2284:0:0:0:0:
320,192,2384,128,0,2483:0:0:0:0:
192,192,2582,128,0,2682:0:0:0:0:
320,192,2781,128,0,2980:0:0:0:0:
192,192,3178,128,0,3377:0:0:0:0:
192,192,3576,128,0,3774:0:0:0:0:
192,192,3973,128,0,4172:0:0:0:0:
64,192,4370,128,0,4470:0:0:0:0:
192,192,4569,128,0,4668:0:0:0:0:
192,192,4966,128,0,5165:0:0:0:0:
64,192,5364,128,0,5463:0:0:0:0:
192,192,5562,128,0,5662:0:0:0:0:
64,192,5761,128,0,5860:0:0:0:0:
192,192,5960,128,0,6158:0:0:0:0:
320,192,6357,128,0,6556:0:0:0:0:
320,192,6754,128,0,6953:0:0:0:0:
320,192,7152,128,0,7350:0:0:0:0:
192,192,7549,128,0,7649:0:0:0:0:
320,192,7748,128,0,7847:0:0:0:0:
320,192,8145,128,0,8344:0:0:0:0:
192,192,8543,128,0,8642:0:0:0:0:
320,192,8741,128,0,8841:0:0:0:0:
192,192,8940,128,0,9039:0:0:0:0:
320,192,9139,128,0,9337:0:0:0:0:
192,192,9536,128,0,9735:0:0:0:0:
192,192,9933,128,0,10132:0:0:0:0:
192,192,10331,128,0,10529:0:0:0:0:
64,192,10728,128,0,10827:0:0:0:0:
192,192,10927,128,0,11026:0:0:0:0:
320,192,11125,1,0,0:0:0:0:
448,192,11125,1,0,0:0:0:0:
192,192,11324,128,0,11523:0:0:0:0:
320,192,11324,1,0,0:0:0:0:
64,192,11523,1,0,0:0:0:0:
448,192,11523,1,0,0:0:0:0:
64,192,11721,128,0,11821:0:0:0:0:
320,192,11721,1,0,0:0:0:0:
192,192,11920,128,0,12019:0:0:0:0:
448,192,11920,1,0,0:0:0:0:
64,192,12119,128,0,12218:0:0:0:0:
320,192,12119,1,0,0:0:0:0:
320,192,12317,1,0,0:0:0:0:
64,192,12317,1,0,0:0:0:0:
320,192,12715,128,0,12913:0:0:0:0:
64,192,12715,1,0,0:0:0:0:
192,192,12715,1,0,0:0:0:0:
320,192,13112,128,0,13311:0:0:0:0:
192,192,13112,1,0,0:0:0:0:
64,192,13311,1,0,0:0:0:0:
320,192,13509,128,0,13708:0:0:0:0:
192,192,13509,1,0,0:0:0:0:
448,192,13509,1,0,0:0:0:0:
192,192,13907,128,0,14006:0:0:0:0:
64,192,13907,1,0,0:0:0:0:
320,192,14105,128,0,14205:0:0:0:0:
448,192,14105,1,0,0:0:0:0:
64,192,14304,1,0,0:0:0:0:
192,192,14304,1,0,0:0:0:0:
320,192,14503,128,0,14701:0:0:0:0:
448,192,14503,1,0,0:0:0:0:
64,192,14701,1,0,0:0:0:0:
192,192,14701,1,0,0:0:0:0:
192,192,14900,128,0,15000:0:0:0:0:
448,192,14900,1,0,0:0:0:0:
320,192,15099,128,0,15198:0:0:0:0:
448,192,15099,1,0,0:0:0:0:
64,192,15099,1,0,0:0:0:0:
192,192,15298,128,0,15397:0:0:0:0:
320,192,15496,128,0,15695:0:0:0:0:
64,192,15496,1,0,0:0:0:0:
192,192,15894,128,0,16092:0:0:0:0:
320,192,15894,1,0,0:0:0:0:
448,192,15894,1,0,0:0:0:0:
192,192,16291,128,0,16490:0:0:0:0:
64,192,16291,1,0,0:0:0:0:
320,192,16490,1,0,0:0:0:0:
192,192,16688,128,0,16887:0:0:0:0:
448,192,16688,1,0,0:0:0:0:
64,192,16688,1,0,0:0:0:0:
64,192,17086,128,0,17185:0:0:0:0:
320,192,17086,1,0,0:0:0:0:
192,192,17284,128,0,17384:0:0:0:0:
448,192,17284,1,0,0:0:0:0:
320,192,17483,1,0,0:0:0:0:
64,192,17483,1,0,0:0:0:0:
192,192,17682,128,0,17880:0:0:0:0:
320,192,17682,1,0,0:0:0:0:
448,192,17880,1,0,0:0:0:0:
64,192,17880,1,0,0:0:0:0:
64,192,18079,128,0,18178:0:0:0:0:
320,192,18079,1,0,0:0:0:0:
192,192,18278,128,0,18377:0:0:0:0:
448,192,18278,1,0,0:0:0:0:
320,192,18278,1,0,0:0:0:0:
64,192,18476,128,0,18576:0:0:0:0:
192,192,18675,128,0,18874:0:0:0:0:
320,192,18675,1,0,0:0:0:0:
320,192,19072,128,0,19271:0:0:0:0:
448,192,19072,1,0,0:0:0:0:
64,192,19072,1,0,0:0:0:0:
320,192,19470,128,0,19668:0:0:0:0:
192,192,19470,1,0,0:0:0:0:
64,192,19668,1,0,0:0:0:0:
320,192,19867,128,0,20066:0:0:0:0:
64,192,19867,1,0,0:0:0:0:
448,192,19867,1,0,0:0:0:0:
192,192,20264,128,0,20364:0:0:0:0:
64,192,20264,1,0,0:0:0:0:
320,192,20463,128,0,20562:0:0:0:0:
448,192,20463,1,0,0:0:0:0:
192,192,20662,1,0,0:0:0:0:
64,192,20662,1,0,0:0:0:0:
320,192,20860,128,0,21059:0:0:0:0:
448,192,20860,1,0,0:0:0:0:
192,192,21059,1,0,0:0:0:0:
192,192,21258,128,0,21357:0:0:0:0:
448,192,21258,1,0,0:0:0:0:
320,192,21456,128,0,21556:0:0:0:0:
64,192,21456,1,0,0:0:0:0:
448,192,21456,1,0,0:0:0:0:
192,192,21655,128,0,21754:0:0:0:0:
320,192,21854,128,0,22052:0:0:0:0:
64,192,21854,1,0,0:0:0:0:
192,192,22251,128,0,22450:0:0:0:0:
64,192,22251,1,0,0:0:0:0:
448,192,22251,1,0,0:0:0:0:
192,192,22649,128,0,22847:0:0:0:0:
320,192,22649,1,0,0:0:0:0:
64,192,22847,1,0,0:0:0:0:
192,192,23046,128,0,23245:0:0:0:0:
320,192,23046,1,0,0:0:0:0:
448,192,23046,1,0,0:0:0:0:
64,192,23443,128,0,23543:0:0:0:0:
320,192,23443,1,0,0:0:0:0:
192,192,23642,128,0,23741:0:0:0:0:
448,192,23642,1,0,0:0:0:0:
64,192,23841,1,0,0:0:0:0:
320,192,23841,1,0,0:0:0:0:
192,192,24039,128,0,24238:0:0:0:0:
64,192,24039,1,0,0:0:0:0:
320,192,24238,1,0,0:0:0:0:
448,192,24238,1,0,0:0:0:0:
64,192,24437,128,0,24536:0:0:0:0:
192,192,24437,1,0,0:0:0:0:
192,192,24635,128,0,24735:0:0:0:0:
448,192,24635,1,0,0:0:0:0:
320,192,24635,1,0,0:0:0:0:
64,192,24834,128,0,24933:0:0:0:0:
192,192,25033,128,0,25430:0:0:0:0:
320,192,25033,1,0,0:0:0:0:
64,192,25430,1,0,0:0:0:0:
320,192,25430,1,0,0:0:0:0:
448,192,25430,128,0,25629:0:0:0:0:
448,192,25827,128,0,26026:0:0:0:0:
192,192,25827,1,0,0:0:0:0:
64,192,26026,1,0,0:0:0:0:
448,192,26225,128,0,26423:0:0:0:0:
192,192,26225,1,0,0:0:0:0:
320,192,26225,1,0,0:0:0:0:
320,192,26622,128,0,26721:0:0:0:0:
64,192,26622,1,0,0:0:0:0:
448,192,26821,128,0,26920:0:0:0:0:
192,192,26821,1,0,0:0:0:0:
64,192,27019,1,0,0:0:0:0:
192,192,27019,1,0,0:0:0:0:
448,192,27218,128,0,27417:0:0:0:0:
320,192,27218,1,0,0:0:0:0:
192,192,27417,1,0,0:0:0:0:
320,192,27615,128,0,27715:0:0:0:0:
64,192,27615,1,0,0:0:0:0:
448,192,27814,128,0,27913:0:0:0:0:
192,192,27814,1,0,0:0:0:0:
64,192,27814,1,0,0:0:0:0:
320,192,28013,128,0,28112:0:0:0:0:
448,192,28211,128,0,28410:0:0:0:0:
192,192,28211,1,0,0:0:0:0:
320,192,28609,128,0,28807:0:0:0:0:
64,192,28609,1,0,0:0:0:0:
192,192,28609,1,0,0:0:0:0:
320,192,29006,128,0,29205:0:0:0:0:
448,192,29006,1,0,0:0:0:0:
192,192,29205,1,0,0:0:0:0:
320,192,29403,128,0,29602:0:0:0:0:
64,192,29403,1,0,0:0:0:0:
448,192,29403,1,0,0:0:0:0:
192,192,29801,128,0,29900:0:0:0:0:
64,192,29801,1,0,0:0:0:0:
320,192,30000,128,0,30099:0:0:0:0:
448,192,30000,1,0,0:0:0:0:
192,192,30198,1,0,0:0:0:0:
448,192,30198,1,0,0:0:0:0:
320,192,30397,128,0,30596:0:0:0:0:
64,192,30397,1,0,0:0:0:0:
448,192,30596,1,0,0:0:0:0:
192,192,30794,128,0,30894:0:0:0:0:
64,192,30794,1,0,0:0:0:0:
320,192,30993,128,0,31092:0:0:0:0:
448,192,30993,1,0,0:0:0:0:
64,192,30993,1,0,0:0:0:0:
192,192,31192,128,0,31291:0:0:0:0:
320,192,31390,128,0,31589:0:0:0:0:
448,192,31390,1,0,0:0:0:0:
320,192,31788,128,0,31986:0:0:0:0:
64,192,31788,1,0,0:0:0:0:
192,192,31788,1,0,0:0:0:0:
320,192,32185,128,0,32384:0:0:0:0:
448,192,32185,1,0,0:0:0:0:
64,192,32384,1,0,0:0:0:0:
320,192,32582,128,0,32781:0:0:0:0:
192,192,32582,1,0,0:0:0:0:
448,192,32582,1,0,0:0:0:0:
192,192,32980,128,0,33079:0:0:0:0:
64,192,32980,1,0,0:0:0:0:
320,192,33178,128,0,33278:0:0:0:0:
448,192,33178,1,0,0:0:0:0:
64,192,33377,1,0,0:0:0:0:
192,192,33377,1,0,0:0:0:0:
320,192,33576,128,0,33774:0:0:0:0:
192,192,33576,1,0,0:0:0:0:
448,192,33774,1,0,0:0:0:0:
192,192,33973,128,0,34072:0:0:0:0:
64,192,33973,1,0,0:0:0:0:
320,192,34172,128,0,34271:0:0:0:0:
448,192,34172,1,0,0:0:0:0:
64,192,34172,1,0,0:0:0:0:
192,192,34370,128,0,34470:0:0:0:0:
320,192,34569,128,0,34768:0:0:0:0:
64,192,34569,1,0,0:0:0:0:
192,192,34966,128,0,35165:0:0:0:0:
448,192,34966,1,0,0:0:0:0:
320,192,34966,1,0,0:0:0:0:
192,192,35364,128,0,35562:0:0:0:0:
64,192,35364,1,0,0:0:0:0:
320,192,35562,1,0,0:0:0:0:
192,192,35761,128,0,35960:0:0:0:0:
448,192,35761,1,0,0:0:0:0:
64,192,35761,1,0,0:0:0:0:
64,192,36158,128,0,36258:0:0:0:0:
320,192,36158,1,0,0:0:0:0:
192,192,36357,128,0,36456:0:0:0:0:
448,192,36357,1,0,0:0:0:0:
64,192,36556,1,0,0:0:0:0:
320,192,36556,1,0,0:0:0:0:
192,192,36754,128,0,36953:0:0:0:0:
448,192,36754,1,0,0:0:0:0:
320,192,36953,1,0,0:0:0:0:
64,192,37152,128,0,37251:0:0:0:0:
192,192,37152,1,0,0:0:0:0:
192,192,37350,128,0,37450:0:0:0:0:
448,192,37350,1,0,0:0:0:0:
320,192,37350,1,0,0:0:0:0:
64,192,37549,128,0,37649:0:0:0:0:
192,192,37748,128,0,37947:0:0:0:0:
448,192,37748,1,0,0:0:0:0:
64,192,38145,1,0,0:0:0:0:
448,192,38145,1,0,0:0:0:0:
320,192,38145,128,0,38344:0:0:0:0:
320,192,38543,128,0,38741:0:0:0:0:
320,192,38940,128,0,39139:0:0:0:0:
64,192,38940,1,0,0:0:0:0:
320,192,39139,128,0,39337:0:0:0:0:
64,192,39139,1,0,0:0:0:0:
192,192,39337,128,0,39536:0:0:0:0:
448,192,39337,1,0,0:0:0:0:
192,192,39536,128,0,39735:0:0:0:0:
448,192,39536,1,0,0:0:0:0:
64,192,39735,1,0,0:0:0:0:
320,192,39735,1,0,0:0:0:0:
448,192,39933,128,0,40132:0:0:0:0:
192,192,40132,1,0,0:0:0:0:
64,192,40331,128,0,40529:0:0:0:0:
192,192,40529,128,0,40728:0:0:0:0:
320,192,40529,1,0,0:0:0:0:
192,192,40728,128,0,40927:0:0:0:0:
320,192,40728,1,0,0:0:0:0:
448,192,40927,128,0,41125:0:0:0:0:
64,192,40927,1,0,0:0:0:0:
448,192,41125,128,0,41324:0:0:0:0:
64,192,41125,1,0,0:0:0:0:
320,192,41324,1,0,0:0:0:0:
192,192,41324,128,0,41523:0:0:0:0:
192,192,41721,128,0,41920:0:0:0:0:
320,192,41721,1,0,0:0:0:0:
448,192,41920,1,0,0:0:0:0:
192,192,42119,128,0,42317:0:0:0:0:
64,192,42119,1,0,0:0:0:0:
192,192,42317,128,0,42516:0:0:0:0:
64,192,42317,1,0,0:0:0:0:
448,192,42516,128,0,42715:0:0:0:0:
320,192,42516,1,0,0:0:0:0:
448,192,42715,128,0,42913:0:0:0:0:
320,192,42715,1,0,0:0:0:0:
64,192,42913,1,0,0:0:0:0:
192,192,42913,1,0,0:0:0:0:
320,192,43112,128,0,43311:0:0:0:0:
448,192,43112,1,0,0:0:0:0:
64,192,43311,1,0,0:0:0:0:
192,192,43509,128,0,43708:0:0:0:0:
448,192,43509,1,0,0:0:0:0:
64,192,43708,128,0,43907:0:0:0:0:
320,192,43708,1,0,0:0:0:0:
64,192,43907,128,0,44105:0:0:0:0:
320,192,43907,1,0,0:0:0:0:
448,192,44105,128,0,44304:0:0:0:0:
192,192,44105,1,0,0:0:0:0:
192,192,44304,1,0,0:0:0:0:
448,192,44304,128,0,44503:0:0:0:0:
64,192,44503,1,0,0:0:0:0:
320,192,44503,128,0,44701:0:0:0:0:
320,192,44900,128,0,45099:0:0:0:0:
320,192,45298,128,0,45496:0:0:0:0:
64,192,45298,1,0,0:0:0:0:
320,192,45496,128,0,45695:0:0:0:0:
64,192,45496,1,0,0:0:0:0:
192,192,45695,128,0,45894:0:0:0:0:
448,192,45695,1,0,0:0:0:0:
192,192,45894,128,0,46092:0:0:0:0:
448,192,45894,1,0,0:0:0:0:
64,192,46092,1,0,0:0:0:0:
320,192,46092,1,0,0:0:0:0:
448,192,46291,128,0,46490:0:0:0:0:
192,192,46490,1,0,0:0:0:0:
64,192,46688,128,0,46887:0:0:0:0:
192,192,46887,128,0,47086:0:0:0:0:
320,192,46887,1,0,0:0:0:0:
192,192,47086,128,0,47284:0:0:0:0:
320,192,47086,1,0,0:0:0:0:
448,192,47284,128,0,47483:0:0:0:0:
64,192,47284,1,0,0:0:0:0:
448,192,47483,128,0,47682:0:0:0:0:
64,192,47483,1,0,0:0:0:0:
320,192,47682,1,0,0:0:0:0:
192,192,47682,128,0,47880:0:0:0:0:
192,192,48079,128,0,48278:0:0:0:0:
320,192,48079,1,0,0:0:0:0:
448,192,48278,1,0,0:0:0:0:
192,192,48476,128,0,48675:0:0:0:0:
64,192,48476,1,0,0:0:0:0:
192,192,48675,128,0,48874:0:0:0:0:
64,192,48675,1,0,0:0:0:0:
448,192,48874,128,0,49072:0:0:0:0:
320,192,48874,1,0,0:0:0:0:
448,192,49072,128,0,49271:0:0:0:0:
320,192,49072,1,0,0:0:0:0:
64,192,49271,1,0,0:0:0:0:
192,192,49271,1,0,0:0:0:0:
320,192,49470,128,0,49668:0:0:0:0:
448,192,49470,1,0,0:0:0:0:
64,192,49668,1,0,0:0:0:0:
192,192,49867,128,0,50066:0:0:0:0:
320,192,49867,1,0,0:0:0:0:
64,192,50066,128,0,50264:0:0:0:0:
448,192,50066,1,0,0:0:0:0:
64,192,50264,128,0,50463:0:0:0:0:
448,192,50264,1,0,0:0:0:0:
320,192,50463,128,0,50662:0:0:0:0:
192,192,50463,1,0,0:0:0:0:
320,192,50662,128,0,50860:0:0:0:0:
192,192,50662,1,0,0:0:0:0:
448,192,50860,128,0,51059:0:0:0:0:
64,192,50860,1,0,0:0:0:0:
448,192,51258,128,0,51456:0:0:0:0:
64,192,51655,1,0,0:0:0:0:
448,192,51655,128,0,51854:0:0:0:0:
64,192,51854,1,0,0:0:0:0:
448,192,51854,128,0,52052:0:0:0:0:
320,192,52052,1,0,0:0:0:0:
192,192,52052,128,0,52251:0:0:0:0:
320,192,52251,1,0,0:0:0:0:
192,192,52251,128,0,52450:0:0:0:0:
448,192,52450,1,0,0:0:0:0:
64,192,52450,1,0,0:0:0:0:
448,192,52649,128,0,52847:0:0:0:0:
192,192,52847,1,0,0:0:0:0:
64,192,53046,128,0,53245:0:0:0:0:
320,192,53245,1,0,0:0:0:0:
192,192,53245,128,0,53443:0:0:0:0:
320,192,53443,1,0,0:0:0:0:
192,192,53443,128,0,53642:0:0:0:0:
64,192,53642,1,0,0:0:0:0:
448,192,53642,128,0,53841:0:0:0:0:
64,192,53841,1,0,0:0:0:0:
448,192,53841,128,0,54039:0:0:0:0:
320,192,54039,128,0,54238:0:0:0:0:
192,192,54039,1,0,0:0:0:0:
192,192,54437,1,0,0:0:0:0:
320,192,54437,128,0,54635:0:0:0:0:
448,192,54635,1,0,0:0:0:0:
192,192,54834,1,0,0:0:0:0:
64,192,54834,128,0,55033:0:0:0:0:
192,192,55033,1,0,0:0:0:0:
64,192,55033,128,0,55231:0:0:0:0:
448,192,55231,1,0,0:0:0:0:
320,192,55231,128,0,55430:0:0:0:0:
448,192,55430,1,0,0:0:0:0:
320,192,55430,128,0,55629:0:0:0:0:
192,192,55629,1,0,0:0:0:0:
64,192,55629,1,0,0:0:0:0:
320,192,55827,1,0,0:0:0:0:
448,192,55827,128,0,56026:0:0:0:0:
64,192,56026,1,0,0:0:0:0:
448,192,56225,1,0,0:0:0:0:
192,192,56225,128,0,56423:0:0:0:0:
320,192,56423,1,0,0:0:0:0:
64,192,56423,128,0,56622:0:0:0:0:
320,192,56622,1,0,0:0:0:0:
64,192,56622,128,0,56821:0:0:0:0:
192,192,56821,1,0,0:0:0:0:
448,192,56821,128,0,57019:0:0:0:0:
192,192,57019,1,0,0:0:0:0:
448,192,57019,128,0,57218:0:0:0:0:
64,192,57218,1,0,0:0:0:0:
320,192,57218,128,0,57417:0:0:0:0:
320,192,57615,128,0,57814:0:0:0:0:
320,192,58013,128,0,58211:0:0:0:0:
64,192,58013,1,0,0:0:0:0:
320,192,58211,128,0,58410:0:0:0:0:
64,192,58211,1,0,0:0:0:0:
192,192,58410,128,0,58609:0:0:0:0:
448,192,58410,1,0,0:0:0:0:
192,192,58609,128,0,58807:0:0:0:0:
448,192,58609,1,0,0:0:0:0:
64,192,58807,1,0,0:0:0:0:
320,192,58807,1,0,0:0:0:0:
448,192,59006,128,0,59205:0:0:0:0:
192,192,59205,1,0,0:0:0:0:
64,192,59403,128,0,59602:0:0:0:0:
192,192,59602,128,0,59801:0:0:0:0:
320,192,59602,1,0,0:0:0:0:
192,192,59801,128,0,60000:0:0:0:0:
320,192,59801,1,0,0:0:0:0:
448,192,60000,128,0,60198:0:0:0:0:
64,192,60000,1,0,0:0:0:0:
448,192,60198,128,0,60397:0:0:0:0:
64,192,60198,1,0,0:0:0:0:
320,192,60397,1,0,0:0:0:0:
192,192,60397,128,0,60596:0:0:0:0:
192,192,60794,128,0,60993:0:0:0:0:
320,192,60794,1,0,0:0:0:0:
448,192,60993,1,0,0:0:0:0:
192,192,61192,128,0,61390:0:0:0:0:
64,192,61192,1,0,0:0:0:0:
192,192,61390,128,0,61589:0:0:0:0:
64,192,61390,1,0,0:0:0:0:
448,192,61589,128,0,61788:0:0:0:0:
320,192,61589,1,0,0:0:0:0:
448,192,61788,128,0,61986:0:0:0:0:
320,192,61788,1,0,0:0:0:0:
64,192,61986,1,0,0:0:0:0:
192,192,61986,1,0,0:0:0:0:
320,192,62185,128,0,62384:0:0:0:0:
448,192,62185,1,0,0:0:0:0:
64,192,62384,1,0,0:0:0:0:
192,192,62582,128,0,62781:0:0:0:0:
448,192,62582,1,0,0:0:0:0:
64,192,62781,128,0,62980:0:0:0:0:
320,192,62781,1,0,0:0:0:0:
64,192,62980,128,0,63178:0:0:0:0:
320,192,62980,1,0,0:0:0:0:
448,192,63178,128,0,63377:0:0:0:0:
192,192,63178,1,0,0:0:0:0:
448,192,63377,128,0,63576:0:0:0:0:
192,192,63377,1,0,0:0:0:0:
320,192,63576,128,0,63774:0:0:0:0:
320,192,63973,128,0,64172:0:0:0:0:
320,192,64370,128,0,64569:0:0:0:0:
192,192,64768,128,0,64867:0:0:0:0:
320,192,64966,128,0,65066:0:0:0:0:
320,192,65364,128,0,65562:0:0:0:0:
192,192,65761,128,0,65860:0:0:0:0:
320,192,65960,128,0,66059:0:0:0:0:
192,192,66158,128,0,66258:0:0:0:0:
320,192,66357,128,0,66556:0:0:0:0:
192,192,66754,128,0,66953:0:0:0:0:
192,192,67152,128,0,67350:0:0:0:0:
192,192,67549,128,0,67748:0:0:0:0:
64,192,67947,128,0,68046:0:0:0:0:
192,192,68145,128,0,68245:0:0:0:0:
192,192,68543,128,0,68741:0:0:0:0:
64,192,68940,128,0,69039:0:0:0:0:
192,192,69139,128,0,69238:0:0:0:0:
64,192,69337,128,0,69437:0:0:0:0:
192,192,69536,128,0,69735:0:0:0:0:
64,192,69933,1,0,0:0:0:0:
448,192,69933,1,0,0:0:0:0:
320,192,69933,128,0,70132:0:0:0:0:
320,192,70331,128,0,70529:0:0:0:0:
320,192,70728,128,0,70927:0:0:0:0:
64,192,70728,1,0,0:0:0:0:
320,192,70927,128,0,71125:0:0:0:0:
64,192,70927,1,0,0:0:0:0:
192,192,71125,128,0,71324:0:0:0:0:
448,192,71125,1,0,0:0:0:0:
192,192,71324,128,0,71523:0:0:0:0:
448,192,71324,1,0,0:0:0:0:
64,192,71523,1,0,0:0:0:0:
320,192,71523,1,0,0:0:0:0:
448,192,71721,128,0,71920:0:0:0:0:
192,192,71920,1,0,0:0:0:0:
64,192,72119,128,0,72317:0:0:0:0:
192,192,72317,128,0,72516:0:0:0:0:
320,192,72317,1,0,0:0:0:0:
192,192,72516,128,0,72715:0:0:0:0:
320,192,72516,1,0,0:0:0:0:
448,192,72715,128,0,72913:0:0:0:0:
64,192,72715,1,0,0:0:0:0:
448,192,72913,128,0,73112:0:0:0:0:
64,192,72913,1,0,0:0:0:0:
320,192,73112,1,0,0:0:0:0:
192,192,73112,128,0,73311:0:0:0:0:
192,192,73509,128,0,73708:0:0:0:0:
320,192,73509,1,0,0:0:0:0:
448,192,73708,1,0,0:0:0:0:
192,192,73907,128,0,74105:0:0:0:0:
64,192,73907,1,0,0:0:0:0:
192,192,74105,128,0,74304:0:0:0:0:
64,192,74105,1,0,0:0:0:0:
448,192,74304,128,0,74503:0:0:0:0:
320,192,74304,1,0,0:0:0:0:
448,192,74503,128,0,74701:0:0:0:0:
320,192,74503,1,0,0:0:0:0:
64,192,74701,1,0,0:0:0:0:
192,192,74701,1,0,0:0:0:0:
320,192,74900,128,0,75099:0:0:0:0:
448,192,74900,1,0,0:0:0:0:
64,192,75099,1,0,0:0:0:0:
192,192,75298,128,0,75496:0:0:0:0:
448,192,75298,1,0,0:0:0:0:
64,192,75496,128,0,75695:0:0:0:0:
320,192,75496,1,0,0:0:0:0:
64,192,75695,128,0,75894:0:0:0:0:
320,192,75695,1,0,0:0:0:0:
448,192,76291,128,0,76490:0:0:0:0:
64,192,76291,1,0,0:0:0:0:
448,192,76688,128,0,76887:0:0:0:0:
64,192,77086,1,0,0:0:0:0:
448,192,77086,128,0,77284:0:0:0:0:
64,192,77284,1,0,0:0:0:0:
448,192,77284,128,0,77483:0:0:0:0:
320,192,77483,1,0,0:0:0:0:
192,192,77483,128,0,77682:0:0:0:0:
320,192,77682,1,0,0:0:0:0:
192,192,77682,128,0,77880:0:0:0:0:
448,192,77880,1,0,0:0:0:0:
64,192,77880,1,0,0:0:0:0:
448,192,78079,128,0,78278:0:0:0:0:
192,192,78278,1,0,0:0:0:0:
64,192,78476,128,0,78675:0:0:0:0:
320,192,78675,1,0,0:0:0:0:
192,192,78675,128,0,78874:0:0:0:0:
320,192,78874,1,0,0:0:0:0:
192,192,78874,128,0,79072:0:0:0:0:
64,192,79072,1,0,0:0:0:0:
448,192,79072,128,0,79271:0:0:0:0:
64,192,79271,1,0,0:0:0:0:
448,192,79271,128,0,79470:0:0:0:0:
320,192,79470,128,0,79668:0:0:0:0:
192,192,79470,1,0,0:0:0:0:
192,192,79867,1,0,0:0:0:0:
320,192,79867,128,0,80066:0:0:0:0:
448,192,80066,1,0,0:0:0:0:
192,192,80264,1,0,0:0:0:0:
64,192,80264,128,0,80463:0:0:0:0:
192,192,80463,1,0,0:0:0:0:
64,192,80463,128,0,80662:0:0:0:0:
448,192,80662,1,0,0:0:0:0:
320,192,80662,128,0,80860:0:0:0:0:
448,192,80860,1,0,0:0:0:0:
320,192,80860,128,0,81059:0:0:0:0:
192,192,81059,1,0,0:0:0:0:
64,192,81059,1,0,0:0:0:0:
320,192,81258,1,0,0:0:0:0:
448,192,81258,128,0,81456:0:0:0:0:
64,192,81456,1,0,0:0:0:0:
448,192,81655,1,0,0:0:0:0:
192,192,81655,128,0,81854:0:0:0:0:
320,192,81854,1,0,0:0:0:0:
64,192,81854,128,0,82052:0:0:0:0:
320,192,82052,1,0,0:0:0:0:
64,192,82052,128,0,82251:0:0:0:0:
192,192,82251,1,0,0:0:0:0:
448,192,82251,128,0,82450:0:0:0:0:
192,192,82450,1,0,0:0:0:0:
448,192,82450,128,0,82649:0:0:0:0:
64,192,82649,1,0,0:0:0:0:
320,192,82649,128,0,82847:0:0:0:0:
320,192,83046,128,0,83245:0:0:0:0:
320,192,83443,128,0,83642:0:0:0:0:
64,192,83443,1,0,0:0:0:0:
320,192,83642,128,0,83841:0:0:0:0:
64,192,83642,1,0,0:0:0:0:
192,192,83841,128,0,84039:0:0:0:0:
448,192,83841,1,0,0:0:0:0:
192,192,84039,128,0,84238:0:0:0:0:
448,192,84039,1,0,0:0:0:0:
64,192,84238,1,0,0:0:0:0:
320,192,84238,1,0,0:0:0:0:
448,192,84437,128,0,84635:0:0:0:0:
192,192,84635,1,0,0:0:0:0:
64,192,84834,128,0,85033:0:0:0:0:
192,192,85033,128,0,85231:0:0:0:0:
320,192,85033,1,0,0:0:0:0:
192,192,85231,128,0,85430:0:0:0:0:
320,192,85231,1,0,0:0:0:0:
448,192,85430,128,0,85629:0:0:0:0:
64,192,85430,1,0,0:0:0:0:
448,192,85629,128,0,85827:0:0:0:0:
64,192,85629,1,0,0:0:0:0:
320,192,85827,1,0,0:0:0:0:
192,192,85827,128,0,86026:0:0:0:0:
192,192,86225,128,0,86423:0:0:0:0:
320,192,86225,1,0,0:0:0:0:
448,192,86423,1,0,0:0:0:0:
192,192,86622,128,0,86821:0:0:0:0:
64,192,86622,1,0,0:0:0:0:
192,192,86821,128,0,87019:0:0:0:0:
64,192,86821,1,0,0:0:0:0:
448,192,87019,128,0,87218:0:0:0:0:
320,192,87019,1,0,0:0:0:0:
448,192,87218,128,0,87417:0:0:0:0:
320,192,87218,1,0,0:0:0:0:
64,192,87417,1,0,0:0:0:0:
192,192,87417,1,0,0:0:0:0:
320,192,87615,128,0,87814:0:0:0:0:
448,192,87615,1,0,0:0:0:0:
64,192,87814,1,0,0:0:0:0:
192,192,88013,128,0,88211:0:0:0:0:
448,192,88013,1,0,0:0:0:0:
320,192,89006,128,0,89205:0:0:0:0:
64,192,89006,1,0,0:0:0:0:
192,192,89006,1,0,0:0:0:0:
320,192,89403,128,0,89602:0:0:0:0:
192,192,89403,1,0,0:0:0:0:
64,192,89602,1,0,0:0:0:0:
320,192,89801,128,0,90000:0:0:0:0:
192,192,89801,1,0,0:0:0:0:
448,192,89801,1,0,0:0:0:0:
192,192,90198,128,0,90298:0:0:0:0:
64,192,90198,1,0,0:0:0:0:
320,192,90397,128,0,90496:0:0:0:0:
448,192,90397,1,0,0:0:0:0:
64,192,90596,1,0,0:0:0:0:
192,192,90596,1,0,0:0:0:0:
320,192,90794,128,0,90993:0:0:0:0:
448,192,90794,1,0,0:0:0:0:
64,192,90993,1,0,0:0:0:0:
192,192,90993,1,0,0:0:0:0:
192,192,91192,128,0,91291:0:0:0:0:
448,192,91192,1,0,0:0:0:0:
320,192,91390,128,0,91490:0:0:0:0:
448,192,91390,1,0,0:0:0:0:
64,192,91390,1,0,0:0:0:0:
192,192,91589,128,0,91688:0:0:0:0:
320,192,91788,128,0,91986:0:0:0:0:
64,192,91788,1,0,0:0:0:0:
192,192,92185,128,0,92384:0:0:0:0:
320,192,92185,1,0,0:0:0:0:
448,192,92185,1,0,0:0:0:0:
192,192,92582,128,0,92781:0:0:0:0:
64,192,92582,1,0,0:0:0:0:
320,192,92781,1,0,0:0:0:0:
192,192,92980,128,0,93178:0:0:0:0:
448,192,92980,1,0,0:0:0:0:
64,192,92980,1,0,0:0:0:0:
64,192,93377,128,0,93476:0:0:0:0:
320,192,93377,1,0,0:0:0:0:
192,192,93576,128,0,93675:0:0:0:0:
448,192,93576,1,0,0:0:0:0:
320,192,93774,1,0,0:0:0:0:
64,192,93774,1,0,0:0:0:0:
192,192,93973,128,0,94172:0:0:0:0:
320,192,93973,1,0,0:0:0:0:
448,192,94172,1,0,0:0:0:0:
64,192,94172,1,0,0:0:0:0:
64,192,94370,128,0,94470:0:0:0:0:
320,192,94370,1,0,0:0:0:0:
192,192,94569,128,0,94668:0:0:0:0:
448,192,94569,1,0,0:0:0:0:
320,192,94569,1,0,0:0:0:0:
64,192,94768,128,0,94867:0:0:0:0:
192,192,94966,128,0,95165:0:0:0:0:
320,192,94966,1,0,0:0:0:0:
320,192,95364,128,0,95562:0:0:0:0:
448,192,95364,1,0,0:0:0:0:
64,192,95364,1,0,0:0:0:0:
320,192,95761,128,0,95960:0:0:0:0:
192,192,95761,1,0,0:0:0:0:
64,192,95960,1,0,0:0:0:0:
320,192,96158,128,0,96357:0:0:0:0:
64,192,96158,1,0,0:0:0:0:
448,192,96158,1,0,0:0:0:0:
192,192,96556,128,0,96655:0:0:0:0:
64,192,96556,1,0,0:0:0:0:
320,192,96754,128,0,96854:0:0:0:0:
448,192,96754,1,0,0:0:0:0:
192,192,96953,1,0,0:0:0:0:
64,192,96953,1,0,0:0:0:0:
320,192,97152,128,0,97350:0:0:0:0:
448,192,97152,1,0,0:0:0:0:
192,192,97350,1,0,0:0:0:0:
192,192,97549,128,0,97649:0:0:0:0:
448,192,97549,1,0,0:0:0:0:
320,192,97748,128,0,97847:0:0:0:0:
64,192,97748,1,0,0:0:0:0:
448,192,97748,1,0,0:0:0:0:
192,192,97947,128,0,98046:0:0:0:0:
320,192,98145,128,0,98344:0:0:0:0:
64,192,98145,1,0,0:0:0:0:
192,192,98543,128,0,98741:0:0:0:0:
64,192,98543,1,0,0:0:0:0:
448,192,98543,1,0,0:0:0:0:
192,192,98940,128,0,99139:0:0:0:0:
320,192,98940,1,0,0:0:0:0:
64,192,99139,1,0,0:0:0:0:
192,192,99337,128,0,99536:0:0:0:0:
320,192,99337,1,0,0:0:0:0:
448,192,99337,1,0,0:0:0:0:
64,192,99735,128,0,99834:0:0:0:0:
320,192,99735,1,0,0:0:0:0:
192,192,99933,128,0,100033:0:0:0:0:
448,192,99933,1,0,0:0:0:0:
64,192,100132,1,0,0:0:0:0:
320,192,100132,1,0,0:0:0:0:
192,192,100331,128,0,100529:0:0:0:0:
64,192,100331,1,0,0:0:0:0:
320,192,100529,1,0,0:0:0:0:
448,192,100529,1,0,0:0:0:0:
64,192,100728,128,0,100827:0:0:0:0:
192,192,100728,1,0,0:0:0:0:
192,192,100927,128,0,101026:0:0:0:0:
448,192,100927,1,0,0:0:0:0:
320,192,100927,1,0,0:0:0:0:
64,192,101125,128,0,101225:0:0:0:0:
192,192,101324,128,0,101721:0:0:0:0:
320,192,101324,1,0,0:0:0:0:
64,192,101721,1,0,0:0:0:0:
320,192,101721,1,0,0:0:0:0:
448,192,101721,128,0,101920:0:0:0:0:
448,192,102119,128,0,102317:0:0:0:0:
192,192,102119,1,0,0:0:0:0:
64,192,102317,1,0,0:0:0:0:
448,192,102516,128,0,102715:0:0:0:0:
192,192,102516,1,0,0:0:0:0:
320,192,102516,1,0,0:0:0:0:
320,192,102913,128,0,103013:0:0:0:0:
64,192,102913,1,0,0:0:0:0:
448,192,103112,128,0,103211:0:0:0:0:
192,192,103112,1,0,0:0:0:0:
64,192,103311,1,0,0:0:0:0:
192,192,103311,1,0,0:0:0:0:
448,192,103509,128,0,103708:0:0:0:0:
320,192,103509,1,0,0:0:0:0:
192,192,103708,1,0,0:0:0:0:
320,192,103907,128,0,104006:0:0:0:0:
64,192,103907,1,0,0:0:0:0:
448,192,104105,128,0,104205:0:0:0:0:
192,192,104105,1,0,0:0:0:0:
64,192,104105,1,0,0:0:0:0:
320,192,104304,128,0,104403:0:0:0:0:
448,192,104503,128,0,104701:0:0:0:0:
192,192,104503,1,0,0:0:0:0:
320,192,104900,128,0,105099:0:0:0:0:
64,192,104900,1,0,0:0:0:0:
192,192,104900,1,0,0:0:0:0:
320,192,105298,128,0,105496:0:0:0:0:
448,192,105298,1,0,0:0:0:0:
192,192,105496,1,0,0:0:0:0:
320,192,105695,128,0,105894:0:0:0:0:
64,192,105695,1,0,0:0:0:0:
448,192,105695,1,0,0:0:0:0:
192,192,106092,128,0,106192:0:0:0:0:
64,192,106092,1,0,0:0:0:0:
320,192,106291,128,0,106390:0:0:0:0:
448,192,106291,1,0,0:0:0:0:
192,192,106490,1,0,0:0:0:0:
448,192,106490,1,0,0:0:0:0:
320,192,106688,128,0,106887:0:0:0:0:
64,192,106688,1,0,0:0:0:0:
448,192,106887,1,0,0:0:0:0:
192,192,107086,128,0,107185:0:0:0:0:
64,192,107086,1,0,0:0:0:0:
320,192,107284,128,0,107384:0:0:0:0:
448,192,107284,1,0,0:0:0:0:
64,192,107284,1,0,0:0:0:0:
192,192,107483,128,0,107582:0:0:0:0:
320,192,107682,128,0,107880:0:0:0:0:
448,192,107682,1,0,0:0:0:0:
320,192,108079,128,0,108278:0:0:0:0:
64,192,108079,1,0,0:0:0:0:
192,192,108079,1,0,0:0:0:0:
320,192,108476,128,0,108675:0:0:0:0:
448,192,108476,1,0,0:0:0:0:
64,192,108675,1,0,0:0:0:0:
320,192,108874,128,0,109072:0:0:0:0:
192,192,108874,1,0,0:0:0:0:
448,192,108874,1,0,0:0:0:0:
192,192,109271,128,0,109370:0:0:0:0:
64,192,109271,1,0,0:0:0:0:
320,192,109470,128,0,109569:0:0:0:0:
448,192,109470,1,0,0:0:0:0:
64,192,109668,1,0,0:0:0:0:
192,192,109668,1,0,0:0:0:0:
320,192,109867,128,0,110066:0:0:0:0:
192,192,109867,1,0,0:0:0:0:
448,192,110066,1,0,0:0:0:0:
192,192,110264,128,0,110364:0:0:0:0:
64,192,110264,1,0,0:0:0:0:
320,192,110463,128,0,110562:0:0:0:0:
448,192,110463,1,0,0:0:0:0:
64,192,110463,1,0,0:0:0:0:
192,192,110662,128,0,110761:0:0:0:0:
320,192,110860,128,0,111059:0:0:0:0:
64,192,110860,1,0,0:0:0:0:
192,192,111258,128,0,111456:0:0:0:0:
448,192,111258,1,0,0:0:0:0:
320,192,111258,1,0,0:0:0:0:
192,192,111655,128,0,111854:0:0:0:0:
64,192,111655,1,0,0:0:0:0:
320,192,111854,1,0,0:0:0:0:
192,192,112052,128,0,112251:0:0:0:0:
448,192,112052,1,0,0:0:0:0:
64,192,112052,1,0,0:0:0:0:
64,192,112450,128,0,112549:0:0:0:0:
320,192,112450,1,0,0:0:0:0:
192,192,112649,128,0,112748:0:0:0:0:
448,192,112649,1,0,0:0:0:0:
64,192,112847,1,0,0:0:0:0:
320,192,112847,1,0,0:0:0:0:
192,192,113046,128,0,113245:0:0:0:0:
448,192,113046,1,0,0:0:0:0:
320,192,113245,1,0,0:0:0:0:
64,192,113443,128,0,113543:0:0:0:0:
192,192,113443,1,0,0:0:0:0:
192,192,113642,128,0,113741:0:0:0:0:
448,192,113642,1,0,0:0:0:0:
320,192,113642,1,0,0:0:0:0:
64,192,113841,128,0,113940:0:0:0:0:
192,192,114039,128,0,114238:0:0:0:0:
448,192,114039,1,0,0:0:0:0:
64,192,114437,1,0,0:0:0:0:
448,192,114437,1,0,0:0:0:0:
320,192,114437,128,0,114635:0:0:0:0:
320,192,114834,128,0,115033:0:0:0:0:
320,192,115231,128,0,115430:0:0:0:0:
64,192,115231,1,0,0:0:0:0:
320,192,115430,128,0,115629:0:0:0:0:
64,192,115430,1,0,0:0:0:0:
192,192,115629,128,0,115827:0:0:0:0:
448,192,115629,1,0,0:0:0:0:
192,192,115827,128,0,116026:0:0:0:0:
448,192,115827,1,0,0:0:0:0:
64,192,116026,1,0,0:0:0:0:
320,192,116026,1,0,0:0:0:0:
448,192,116225,128,0,116423:0:0:0:0:
192,192,116423,1,0,0:0:0:0:
64,192,116622,128,0,116821:0:0:0:0:
192,192,116821,128,0,117019:0:0:0:0:
320,192,116821,1,0,0:0:0:0:
192,192,117019,128,0,117218:0:0:0:0:
320,192,117019,1,0,0:0:0:0:
448,192,117218,128,0,117417:0:0:0:0:
64,192,117218,1,0,0:0:0:0:
448,192,117417,128,0,117615:0:0:0:0:
64,192,117417,1,0,0:0:0:0:
320,192,117615,1,0,0:0:0:0:
192,192,117615,128,0,117814:0:0:0:0:
192,192,118013,128,0,118211:0:0:0:0:
320,192,118013,1,0,0:0:0:0:
448,192,118211,1,0,0:0:0:0:
192,192,118410,128,0,118609:0:0:0:0:
64,192,118410,1,0,0:0:0:0:
192,192,118609,128,0,118807:0:0:0:0:
64,192,118609,1,0,0:0:0:0:
448,192,118807,128,0,119006:0:0:0:0:
320,192,118807,1,0,0:0:0:0:
448,192,119006,128,0,119205:0:0:0:0:
320,192,119006,1,0,0:0:0:0:
64,192,119205,1,0,0:0:0:0:
192,192,119205,1,0,0:0:0:0:
320,192,119403,128,0,119602:0:0:0:0:
448,192,119403,1,0,0:0:0:0:
64,192,119602,1,0,0:0:0:0:
192,192,119801,128,0,120000:0:0:0:0:
448,192,119801,1,0,0:0:0:0:
64,192,120000,128,0,120198:0:0:0:0:
320,192,120000,1,0,0:0:0:0:
64,192,120198,128,0,120397:0:0:0:0:
320,192,120198,1,0,0:0:0:0:
448,192,120397,128,0,120596:0:0:0:0:
192,192,120397,1,0,0:0:0:0:
192,192,120596,1,0,0:0:0:0:
448,192,120596,128,0,120794:0:0:0:0:
64,192,120794,1,0,0:0:0:0:
320,192,120794,128,0,120993:0:0:0:0:
320,192,121192,128,0,121390:0:0:0:0:
320,192,121589,128,0,121788:0:0:0:0:
64,192,121589,1,0,0:0:0:0:
320,192,121788,128,0,121986:0:0:0:0:
64,192,121788,1,0,0:0:0:0:
192,192,121986,128,0,122185:0:0:0:0:
448,192,121986,1,0,0:0:0:0:
192,192,122185,128,0,122384:0:0:0:0:
448,192,122185,1,0,0:0:0:0:
64,192,122384,1,0,0:0:0:0:
320,192,122384,1,0,0:0:0:0:
448,192,122582,128,0,122781:0:0:0:0:
192,192,122781,1,0,0:0:0:0:
64,192,122980,128,0,123178:0:0:0:0:
192,192,123178,128,0,123377:0:0:0:0:
320,192,123178,1,0,0:0:0:0:
192,192,123377,128,0,123576:0:0:0:0:
320,192,123377,1,0,0:0:0:0:
448,192,123576,128,0,123774:0:0:0:0:
64,192,123576,1,0,0:0:0:0:
448,192,123774,128,0,123973:0:0:0:0:
64,192,123774,1,0,0:0:0:0:
320,192,123973,1,0,0:0:0:0:
192,192,123973,128,0,124172:0:0:0:0:
192,192,124370,128,0,124569:0:0:0:0:
320,192,124370,1,0,0:0:0:0:
448,192,124569,1,0,0:0:0:0:
192,192,124768,128,0,124966:0:0:0:0:
64,192,124768,1,0,0:0:0:0:
192,192,124966,128,0,125165:0:0:0:0:
64,192,124966,1,0,0:0:0:0:
448,192,125165,128,0,125364:0:0:0:0:
320,192,125165,1,0,0:0:0:0:
448,192,125364,128,0,125562:0:0:0:0:
320,192,125364,1,0,0:0:0:0:
64,192,125562,1,0,0:0:0:0:
192,192,125562,1,0,0:0:0:0:
320,192,125761,128,0,125960:0:0:0:0:
448,192,125761,1,0,0:0:0:0:
64,192,125960,1,0,0:0:0:0:
192,192,126158,128,0,126357:0:0:0:0:
320,192,126158,1,0,0:0:0:0:
64,192,126357,128,0,126556:0:0:0:0:
448,192,126357,1,0,0:0:0:0:
64,192,126556,128,0,126754:0:0:0:0:
448,192,126556,1,0,0:0:0:0:
320,192,126754,128,0,126953:0:0:0:0:
192,192,126754,1,0,0:0:0:0:
320,192,126953,128,0,127152:0:0:0:0:
192,192,126953,1,0,0:0:0:0:
448,192,127152,128,0,127350:0:0:0:0:
448,192,127549,128,0,127748:0:0:0:0:
448,192,127947,128,0,128145:0:0:0:0:
320,192,128344,128,0,128443:0:0:0:0:
448,192,128543,128,0,128642:0:0:0:0:
448,192,128940,128,0,129139:0:0:0:0:
320,192,129337,128,0,129437:0:0:0:0:
448,192,129536,128,0,129635:0:0:0:0:
320,192,129735,128,0,129834:0:0:0:0:
448,192,129933,128,0,130132:0:0:0:0:
320,192,130331,128,0,130529:0:0:0:0:
320,192,130728,128,0,130927:0:0:0:0:
320,192,131125,128,0,131324:0:0:0:0:
192,192,131523,128,0,131622:0:0:0:0:
320,192,131721,128,0,131821:0:0:0:0:
320,192,132119,128,0,132317:0:0:0:0:
192,192,132516,128,0,132615:0:0:0:0:
320,192,132715,128,0,132814:0:0:0:0:
192,192,132913,128,0,133013:0:0:0:0:
320,192,133112,128,0,133311:0:0:0:0:
320,192,133509,128,0,133708:0:0:0:0:
64,192,133509,1,0,0:0:0:0:
192,192,133509,1,0,0:0:0:0:
320,192,133907,128,0,134105:0:0:0:0:
448,192,133907,1,0,0:0:0:0:
64,192,134105,1,0,0:0:0:0:
320,192,134304,128,0,134503:0:0:0:0:
192,192,134304,1,0,0:0:0:0:
448,192,134304,1,0,0:0:0:0:
192,192,134701,128,0,134801:0:0:0:0:
64,192,134701,1,0,0:0:0:0:
320,192,134900,128,0,135000:0:0:0:0:
448,192,134900,1,0,0:0:0:0:
64,192,135099,1,0,0:0:0:0:
192,192,135099,1,0,0:0:0:0:
320,192,135298,128,0,135496:0:0:0:0:
192,192,135298,1,0,0:0:0:0:
448,192,135496,1,0,0:0:0:0:
192,192,135695,128,0,135794:0:0:0:0:
64,192,135695,1,0,0:0:0:0:
320,192,135894,128,0,135993:0:0:0:0:
448,192,135894,1,0,0:0:0:0:
64,192,135894,1,0,0:0:0:0:
192,192,136092,128,0,136192:0:0:0:0:
320,192,136291,128,0,136490:0:0:0:0:
64,192,136291,1,0,0:0:0:0:
192,192,136688,128,0,136887:0:0:0:0:
448,192,136688,1,0,0:0:0:0:
320,192,136688,1,0,0:0:0:0:
192,192,137086,128,0,137284:0:0:0:0:
64,192,137086,1,0,0:0:0:0:
320,192,137284,1,0,0:0:0:0:
192,192,137483,128,0,137682:0:0:0:0:
448,192,137483,1,0,0:0:0:0:
64,192,137483,1,0,0:0:0:0:
64,192,137880,128,0,137980:0:0:0:0:
320,192,137880,1,0,0:0:0:0:
192,192,138079,128,0,138178:0:0:0:0:
448,192,138079,1,0,0:0:0:0:
64,192,138278,1,0,0:0:0:0:
320,192,138278,1,0,0:0:0:0:
192,192,138476,128,0,138675:0:0:0:0:
448,192,138476,1,0,0:0:0:0:
320,192,138675,1,0,0:0:0:0:
64,192,138874,128,0,138973:0:0:0:0:
192,192,138874,1,0,0:0:0:0:
192,192,139072,128,0,139172:0:0:0:0:
448,192,139072,1,0,0:0:0:0:
320,192,139072,1,0,0:0:0:0:
64,192,139271,128,0,139370:0:0:0:0:
192,192,139470,128,0,139867:0:0:0:0:
448,192,139470,1,0,0:0:0:0:
