osu file format v14

[General]
AudioFilename: audio.mp3
AudioLeadIn: 0
PreviewTime: 48246
Countdown: 0
SampleSet: Normal
StackLeniency: 0.3
Mode: 0
LetterboxInBreaks: 0
SkinPreference:- Azerty's Skin (Incomp's Edit)
WidescreenStoryboard: 1

[Editor]
DistanceSpacing: 1.3
BeatDivisor: 4
GridSize: 4
TimelineZoom: 1.4

[Metadata]
Title:Weed la Weed
TitleUnicode:ウイ-どラウイ-ど
Artist:MowtenDoo ft. Snoop Dogg
ArtistUnicode:MowtenDoo ft. Snoop Dogg
Creator:Incomp
Version:Weed
Source:
Tags:kill la kill snoop dogg smoke weed memes parody aoi eir キルラキル sirius tv size
BeatmapID:1368935
BeatmapSetID:646040

[Difficulty]
HPDrainRate:5
CircleSize:4
OverallDifficulty:7.2
ApproachRate:9.3
SliderMultiplier:1.8
SliderTickRate:2

[Events]
//Background and Video events
0,0,"bg.jpg",0,0
//Break Periods
//Storyboard Layer 0 (Background)
//Storyboard Layer 1 (Fail)
//Storyboard Layer 2 (Pass)
//Storyboard Layer 3 (Foreground)
//Storyboard Sound Samples

[TimingPoints]
10038,340.909090909091,4,2,1,25,1,0
11428,340.909090909091,4,1,1,55,1,0
19865,-100,4,3,1,5,0,0
19950,-100,4,1,1,55,0,0
20206,-100,4,3,1,5,0,0
20291,-100,4,1,1,55,0,0
20376,-100,4,3,1,5,0,0
20462,-100,4,1,1,55,0,0
20803,-200,4,2,1,40,0,0
21143,-200,4,3,1,5,0,0
21314,-200,4,2,1,40,0,0
21570,-200,4,3,1,5,0,0
21655,-200,4,2,1,40,0,0
21910,-200,4,3,1,5,0,0
21996,-200,4,2,1,40,0,0
22337,-100,4,1,1,45,0,0
28047,-100,4,3,1,5,0,0
28132,-100,4,1,1,45,0,0
28388,-100,4,3,1,5,0,0
28473,-100,4,1,1,45,0,0
28558,-100,4,3,1,5,0,0
28643,-100,4,1,1,45,0,0
28729,-100,4,3,1,5,0,0
28814,-100,4,1,1,45,0,0
29070,-100,4,3,1,5,0,0
29155,-100,4,1,1,45,0,0
30774,-100,4,3,1,5,0,0
30859,-100,4,1,1,45,0,0
31456,-100,4,3,1,5,0,0
31541,-100,4,1,1,45,0,0
33160,-100,4,3,1,5,0,0
33246,-100,4,1,1,45,0,0
33842,-100,4,3,1,5,0,0
33928,-100,4,1,1,45,0,0
36229,-100,4,3,1,5,0,0
36314,-100,4,1,1,45,0,0
42706,-100,4,3,1,5,0,0
42791,-100,4,1,1,45,0,0
44070,-100,4,3,1,5,0,0
44155,-100,4,1,1,45,0,0
46541,-83.3333333333333,4,1,1,45,0,0
48246,-80,4,1,1,65,0,1
48501,-80,4,3,1,5,0,1
48587,-80,4,1,1,65,0,1
48842,-80,4,3,1,5,0,1
48928,-80,4,1,1,65,0,1
49695,-80,4,3,1,5,0,1
49780,-80,4,1,1,65,0,1
50547,-80,4,3,1,5,0,1
50632,-133.333333333333,4,1,1,65,0,1
50888,-133.333333333333,4,3,1,5,0,1
50973,-80,4,1,1,65,0,1
51229,-80,4,3,1,5,0,1
51314,-80,4,1,1,65,0,1
52592,-80,4,3,1,5,0,1
52678,-80,4,1,1,65,0,1
55831,-80,4,3,1,5,0,1
55916,-80,4,1,1,65,0,1
56257,-200,4,1,1,65,0,1
56683,-200,4,3,1,5,0,1
56768,-200,4,1,1,65,0,1
56939,-80,4,1,1,65,0,1
57365,-80,4,3,1,5,0,1
57450,-80,4,1,1,65,0,1
59155,-100,4,1,1,55,0,0
59410,-100,4,3,1,5,0,0
59496,-100,4,1,1,55,0,0
60092,-100,4,3,1,5,0,0
60178,-100,4,1,1,55,0,0
62820,-100,4,3,1,5,0,0
62905,-100,4,1,1,55,0,0
64183,-100,4,3,1,5,0,0
64268,-100,4,1,1,55,0,0
70064,-100,4,1,1,65,0,1
70320,-100,4,3,1,5,0,1
70405,-100,4,1,1,65,0,1
71513,-100,4,3,1,5,0,1
71598,-100,4,1,1,65,0,1
71768,-100,4,3,2,5,0,1
71854,-100,4,1,1,65,0,1
73047,-100,4,3,1,5,0,1
73132,-100,4,1,1,65,0,1
73303,-166.666666666667,4,1,1,65,0,1
73558,-166.666666666667,4,3,1,5,0,1
73643,-166.666666666667,4,1,1,65,0,1
73984,-100,4,1,1,65,0,1
74496,-200,4,1,1,65,0,1
74751,-200,4,3,1,5,0,1
74837,-133.333333333333,4,1,1,65,0,1
75092,-133.333333333333,4,3,1,5,0,1
75178,-100,4,1,1,65,0,1
75433,-100,4,3,1,5,0,1
75518,-100,4,1,1,65,0,1
75859,-100,4,1,2,65,0,1
75945,-100,4,1,1,65,0,1
76541,-100,4,1,2,65,0,1
76626,-100,4,3,1,5,0,1
76712,-100,4,1,1,65,0,1
77138,-100,4,3,1,5,0,1
77223,-100,4,1,1,65,0,1
77393,-200,4,1,1,65,0,1
77649,-200,4,3,1,5,0,1
77734,-133.333333333333,4,1,1,65,0,1
77990,-133.333333333333,4,3,1,5,0,1
78075,-100,4,1,1,65,0,1
78587,-100,4,1,2,65,0,1
78672,-100,4,1,1,65,0,1
80973,-100,4,1,1,55,0,0
83615,-100,4,3,1,5,0,0
83700,-100,4,1,1,55,0,0
84297,-100,4,3,1,5,0,0
84382,-100,4,1,1,55,0,0
88729,-100,4,3,1,5,0,0
88814,-100,4,1,1,55,0,0
89496,-100,4,1,2,55,0,0
89581,-100,4,1,1,55,0,0
89922,-100,4,3,1,5,0,0
90007,-100,4,1,1,55,0,0
90092,-100,4,3,1,5,0,0
90178,-100,4,1,1,55,0,0
90263,-100,4,3,1,5,0,0
90348,-100,4,1,1,55,0,0
90859,-100,4,1,2,55,0,0
90945,-100,4,1,1,55,0,0
91115,-100,4,3,1,5,0,0
91200,-100,4,1,1,55,0,0
91456,-100,4,3,1,5,0,0
91541,-100,4,1,1,55,0,0
91797,-100,4,3,1,5,0,0
91882,-100,4,1,1,55,0,0

[Colours]
Combo1 : 0,140,7
Combo2 : 199,181,177
Combo3 : 108,74,62
Combo4 : 121,218,101

[HitObjects]
216,128,10038,6,0,P|196:116|180:100,3,45
180,194,10379,2,0,P|160:205|139:211,3,45
220,258,10720,2,0,P|220:281|214:302,3,45
296,256,11061,2,0,P|315:267|331:283,3,45
331,189,11428,6,0,B|360:192|360:192|416:232,1,90,4|0,0:0|0:0,0:0:0:0:
484,148,11768,2,0,B|471:122|471:122|413:84,1,90,8|0,0:0|0:0,0:0:0:0:
324,36,12109,2,0,P|276:20|218:36,1,90
144,80,12450,1,8,0:0:0:0:
80,168,12621,1,0,0:0:0:0:
96,276,12791,37,0,0:0:0:0:
180,208,12962,2,0,B|205:191|205:191|240:196|268:189,1,90,0|8,0:0|0:0,0:0:0:0:
368,164,13303,1,0,0:0:0:0:
448,56,13473,1,0,0:0:0:0:
324,104,13643,1,0,0:0:0:0:
456,128,13814,2,0,B|448:152|448:152|448:176|440:208|424:220,1,90,8|0,0:0|0:0,0:0:0:0:
320,292,14155,5,0,0:0:0:0:
212,212,14325,1,0,0:0:0:0:
284,156,14496,1,8,0:0:0:0:
240,284,14666,1,0,0:0:0:0:
352,208,14837,2,0,B|408:164|408:164|408:192,1,90
376,280,15178,2,0,P|320:276|280:232,1,90,8|0,0:0|0:0,0:0:0:0:
240,132,15518,37,0,0:0:0:0:
240,132,15689,1,0,0:0:0:0:
120,264,15859,2,0,B|128:292|128:292|172:340,1,90,8|0,0:0|0:0,0:0:0:0:
304,348,16200,1,0,0:0:0:0:
368,260,16371,1,0,0:0:0:0:
360,152,16541,1,8,0:0:0:0:
100,76,16882,5,0,0:0:0:0:
48,148,17053,1,0,0:0:0:0:
228,136,17223,1,8,0:0:0:0:
280,208,17394,1,0,0:0:0:0:
100,220,17564,2,0,P|72:174|75:129,1,90
140,52,17905,1,8,0:0:0:0:
172,156,18075,1,0,0:0:0:0:
248,80,18246,1,0,0:0:0:0:
368,188,18416,37,0,0:0:0:0:
332,116,18587,1,8,0:0:0:0:
344,276,18757,1,0,0:0:0:0:
344,276,18928,1,0,0:0:0:0:
192,336,19098,1,0,0:0:0:0:
192,336,19268,1,8,0:0:0:0:
136,72,19609,6,0,B|196:64|236:80|236:80|212:108,1,135
176,160,19950,2,0,B|152:192|152:192|205:198|259:173,1,135,8|0,0:0|0:0,0:0:0:0:
304,144,20291,2,0,P|324:128|340:108,1,45
376,56,20462,1,0,0:0:0:0:
376,56,20632,1,8,0:0:0:0:
456,216,20803,6,0,P|440:252|392:272,1,90
260,264,21314,2,0,B|224:240|224:240|200:208,1,67.5,8|0,0:0|0:0,0:0:0:0:
172,164,21655,2,0,B|164:127|164:127|166:92,1,67.5
184,32,21996,1,8,0:0:0:0:
184,32,22166,1,0,0:0:0:0:
184,32,22337,21,4,0:0:0:0:
368,228,22678,1,8,0:0:0:0:
235,320,22848,1,0,0:0:0:0:
298,270,23018,2,0,P|246:243|200:248,1,90
111,272,23359,1,8,0:0:0:0:
164,147,23530,2,0,B|199:100|256:84|256:84|237:112|244:148,1,180
377,125,24041,5,8,0:0:0:0:
160,286,24382,1,0,0:0:0:0:
115,158,24553,1,0,0:0:0:0:
160,286,24723,2,0,B|177:300|177:300|250:282,1,90,8|0,0:0|0:0,0:0:0:0:
375,254,25064,38,0,B|388:244|413:241|413:241|386:188|336:192|336:192|348:173|350:147,1,180,0|8,0:0|0:0,0:0:0:0:
350,12,25575,1,0,0:0:0:0:
268,120,25746,2,0,B|243:122|243:122|186:84,2,90,0|0|8,0:0|0:0|0:0,0:0:0:0:
403,115,26257,2,0,B|440:115|440:115|428:180|428:180|404:221|372:243,1,180
288,280,26768,5,8,0:0:0:0:
188,292,26939,2,0,P|141:278|108:244,1,90
192,192,27280,1,0,0:0:0:0:
273,132,27450,2,0,P|235:100|188:92,1,90,8|0,0:0|0:0,0:0:0:0:
192,192,27791,38,0,P|251:236|326:224,1,135,4|0,0:0|0:0,0:0:0:0:
359,212,28132,2,0,P|347:293|286:333,1,135,8|0,0:0|0:0,0:0:0:0:
256,338,28473,2,0,P|237:341|208:338,1,45
159,323,28643,2,0,P|140:315|116:294,1,45
81,261,28814,2,0,P|57:205|79:137,1,135,8|0,0:0|0:0,0:0:0:0:
118,99,29155,5,0,0:0:0:0:
210,63,29325,1,0,0:0:0:0:
157,235,29496,1,8,0:0:0:0:
65,271,29666,1,0,0:0:0:0:
92,180,29837,2,0,P|136:200|158:246,1,90
178,322,30178,1,8,0:0:0:0:
286,242,30348,1,0,0:0:0:0:
286,242,30433,1,0,0:0:0:0:
286,242,30518,38,0,B|312:206|312:206|288:119,1,135,4|0,0:0|0:0,0:0:0:0:
263,55,30859,1,8,0:0:0:0:
263,55,31030,1,0,0:0:0:0:
170,152,31200,2,0,B|144:188|144:188|168:275,1,135
189,339,31541,1,8,0:0:0:0:
295,255,31712,6,0,P|302:305|331:341,2,90
326,123,32223,1,8,0:0:0:0:
205,182,32393,2,0,P|169:218|159:263,2,90
326,123,32905,2,0,B|376:105|424:123|424:123|396:163,1,135,8|0,0:0|0:0,0:0:0:0:
368,209,33246,37,4,0:0:0:0:
368,209,33416,1,0,0:0:0:0:
244,264,33587,2,0,B|211:273|211:273|103:233,1,135,8|0,0:0|0:0,0:0:0:0:
52,214,33928,1,0,0:0:0:0:
163,137,34098,1,0,0:0:0:0:
38,86,34268,1,8,0:0:0:0:
197,304,34609,5,0,0:0:0:0:
287,297,34780,1,0,0:0:0:0:
363,250,34950,1,8,0:0:0:0:
401,168,35121,1,0,0:0:0:0:
268,191,35291,1,0,0:0:0:0:
178,184,35462,1,0,0:0:0:0:
102,137,35632,1,8,0:0:0:0:
64,55,35803,1,0,0:0:0:0:
198,48,35973,38,0,B|238:54|238:54|329:100,1,135,4|0,0:0|0:0,0:0:0:0:
362,151,36314,2,0,B|361:183|361:183|326:248,1,90,8|0,0:0|0:0,0:0:0:0:
226,317,36655,2,0,B|178:303|178:303|146:272,1,90
266,208,36996,2,0,B|314:222|314:222|346:253,1,90,8|0,0:0|0:0,0:0:0:0:
226,317,37337,5,0,0:0:0:0:
88,236,37507,1,0,0:0:0:0:
249,248,37678,1,8,0:0:0:0:
99,307,37848,1,0,0:0:0:0:
209,187,38018,1,0,0:0:0:0:
163,342,38359,1,8,0:0:0:0:
136,181,38530,1,0,0:0:0:0:
159,132,38615,1,0,0:0:0:0:
209,113,38700,38,0,B|238:107|238:107|298:118,1,90,4|0,0:0|0:0,0:0:0:0:
402,143,39041,1,8,0:0:0:0:
260,305,39382,2,0,L|296:333,1,45
80,168,39723,2,0,L|41:137,1,45,8|0,0:0|0:0,0:0:0:0:
192,206,40064,5,0,0:0:0:0:
265,2,40405,2,0,L|231:92,1,90,8|0,0:0|0:0,0:0:0:0:
158,289,40746,1,0,0:0:0:0:
158,289,41087,1,8,0:0:0:0:
44,44,41428,38,0,B|40:72|40:72|56:136,1,90,4|0,0:0|0:0,0:0:0:0:
184,96,41768,2,0,B|188:124|188:124|172:188,1,90,8|0,0:0|0:0,0:0:0:0:
136,312,42109,1,0,0:0:0:0:
136,312,42280,1,0,0:0:0:0:
136,312,42450,2,0,P|180:352|252:336,1,135,8|0,0:0|0:0,0:0:0:0:
288,300,42791,5,4,0:0:0:0:
424,64,43132,1,8,0:0:0:0:
278,136,43303,1,0,0:0:0:0:
318,45,43473,1,0,0:0:0:0:
356,201,43643,1,0,0:0:0:0:
356,201,43814,2,0,B|321:218|321:218|211:215,1,135,8|0,0:0|0:0,0:0:0:0:
170,216,44155,38,0,B|131:214|131:214|82:184,1,90,4|0,0:0|0:0,0:0:0:0:
43,156,44410,1,0,0:0:0:0:
3,118,44496,1,8,0:0:0:0:
192,49,44751,1,0,0:0:0:0:
192,49,44837,1,4,0:0:0:0:
262,194,45007,1,0,0:0:0:0:
335,49,45178,1,8,0:0:0:0:
207,147,45348,1,0,0:0:0:0:
420,114,45518,5,4,0:0:0:0:
436,221,45689,1,0,0:0:0:0:
369,306,45859,1,8,0:0:0:0:
265,338,46030,1,0,0:0:0:0:
158,323,46200,2,0,P|112:298|85:261,1,90,4|0,0:0|0:0,0:0:0:0:
51,167,46541,38,0,B|72:142|72:142|142:103,1,107.999996704102,12|0,0:0|0:0,0:0:0:0:
262,141,46882,2,0,B|241:166|241:166|171:205,1,107.999996704102,4|0,0:0|0:0,0:0:0:0:
297,245,47223,2,0,B|362:208|362:208|383:183,1,107.999996704102,12|0,0:0|0:0,0:0:0:0:
331,59,47564,2,0,B|304:77|304:77|259:144,1,107.999996704102,4|0,0:0|0:0,0:0:0:0:
225,194,47820,1,0,0:0:0:0:
188,247,47905,2,0,B|166:271|166:271|97:311,1,107.999996704102,10|0,0:0|0:0,0:0:0:0:
116,128,48246,22,0,P|156:88|260:100,1,168.75,4|0,0:0|0:0,0:0:0:0:
301,139,48587,2,0,B|321:167|319:211|301:249|301:249|318:225|353:214,1,168.75,8|0,0:0|0:0,0:0:0:0:
403,211,48928,1,0,0:0:0:0:
400,345,49098,1,0,0:0:0:0:
286,275,49268,1,8,0:0:0:0:
286,275,49439,6,0,B|248:260|223:229|221:185|221:185|206:214|181:231,1,168.75
147,262,49780,1,0,0:0:0:0:
51,357,49950,1,8,0:0:0:0:
16,227,50121,2,0,B|31:201|50:186|50:186|74:156|76:126|76:126|81:146|96:155|96:155|118:114|165:98|206:109,1,281.25
247,124,50632,2,0,P|271:149|266:226,1,101.250003862381,8|0,0:0|0:0,0:0:0:0:
250,263,50973,38,0,B|232:291|203:304|203:304|255:321|320:296,1,168.75
359,280,51314,2,0,B|372:258|372:258|354:230|332:222|332:222|311:212|296:197,1,112.5,8|0,0:0|0:0,0:0:0:0:
110,51,51655,1,0,0:0:0:0:
149,155,51825,1,0,0:0:0:0:
39,135,51996,1,8,0:0:0:0:
100,238,52166,6,0,B|120:269|120:269|141:281|141:281|199:251|280:257|280:257|240:281|229:321,1,281.25
217,369,52678,1,8,0:0:0:0:
444,121,53018,1,0,0:0:0:0:
210,256,53359,1,8,0:0:0:0:
458,30,53700,38,0,B|465:61|465:61|429:145,1,112.5,4|0,0:0|0:0,0:0:0:0:
367,253,54041,1,8,0:0:0:0:
215,176,54212,1,0,0:0:0:0:
268,265,54382,1,0,0:0:0:0:
253,84,54553,1,0,0:0:0:0:
398,168,54723,1,8,0:0:0:0:
215,176,54893,1,0,0:0:0:0:
215,176,55064,6,0,P|178:116|124:96,1,112.5
117,196,55405,1,8,0:0:0:0:
205,297,55575,2,0,P|299:289|361:226,1,168.75
382,193,55916,1,0,0:0:0:0:
262,73,56087,1,8,0:0:0:0:
361,92,56257,38,0,B|348:132|302:154|302:154|296:172|297:197,1,112.5
294,200,56768,1,8,0:0:0:0:
245,302,56939,2,0,B|221:238|221:238|213:197|226:139|244:97|244:97|282:88|298:52,1,281.25
308,31,57450,1,8,0:0:0:0:
256,192,57621,12,8,58814,0:0:0:0:
327,85,59155,22,0,B|269:88|230:71|230:71|248:87|260:106,1,135,4|0,0:0|0:0,0:0:0:0:
283,143,59496,2,0,P|300:181|297:243,1,90,8|0,0:0|0:0,0:0:0:0:
192,231,59837,2,0,P|203:282|274:337,1,135,0|0,0:0|0:0,0:0:0:0:
317,346,60178,1,8,0:0:0:0:
317,346,60348,1,0,0:0:0:0:
302,203,60518,2,0,L|286:115,1,90
249,154,60859,2,0,L|233:66,1,90,8|0,0:0|0:0,0:0:0:0:
450,291,61541,5,8,0:0:0:0:
321,333,61712,1,0,0:0:0:0:
194,286,61882,1,4,0:0:0:0:
418,135,62223,37,8,0:0:0:0:
289,93,62394,1,0,0:0:0:0:
162,140,62564,2,0,B|191:187|226:202|226:202|198:202|177:216,1,135
145,251,62905,1,8,0:0:0:0:
145,251,63075,1,0,0:0:0:0:
285,169,63246,2,0,L|352:109,1,90
299,98,63587,2,0,L|366:38,1,90,8|0,0:0|0:0,0:0:0:0:
470,162,63928,2,0,P|448:237|369:266,1,135
351,282,64268,6,0,P|304:290|252:277,2,90,8|0|4,0:0|0:0|0:0,0:0:0:0:
140,111,64950,2,0,P|101:83|73:37,2,90,8|0|0,0:0|0:0|0:0,0:0:0:0:
402,177,65632,1,8,0:0:0:0:
239,255,65803,1,0,0:0:0:0:
328,250,65973,2,0,L|316:161,1,90
363,187,66314,2,0,L|351:98,1,90,8|0,0:0|0:0,0:0:0:0:
451,126,66825,37,0,0:0:0:0:
451,126,66996,1,8,0:0:0:0:
451,126,67166,1,0,0:0:0:0:
350,202,67337,5,4,0:0:0:0:
411,82,67507,1,0,0:0:0:0:
404,226,67678,1,8,0:0:0:0:
353,81,67848,1,0,0:0:0:0:
454,194,68018,1,0,0:0:0:0:
309,120,68189,1,0,0:0:0:0:
477,143,68359,1,8,0:0:0:0:
300,179,68530,1,0,0:0:0:0:
475,249,68700,38,0,L|459:161,1,90
422,200,69041,2,0,L|406:112,1,90,8|0,0:0|0:0,0:0:0:0:
229,42,69382,2,0,L|238:86,3,45
251,138,69723,1,8,0:0:0:0:
259,191,69808,1,0,0:0:0:0:
255,244,69893,1,0,0:0:0:0:
235,294,69979,1,0,0:0:0:0:
195,330,70064,22,0,B|156:338|156:338|59:302,1,135,4|0,0:0|0:0,0:0:0:0:
66,304,70405,1,8,0:0:0:0:
203,188,70575,2,0,B|242:180|242:180|300:202|300:202|317:234,1,135
338,280,70916,1,0,0:0:0:0:
371,322,71001,1,0,0:0:0:0:
407,362,71087,2,0,B|437:365|437:365|459:353|459:353|442:314|442:314|437:270|402:249|376:243|338:255,1,225,8|0,0:0|0:0,0:0:0:0:
297,268,71598,2,0,B|246:276|246:276|187:249,1,90,0|8,0:0|0:0,0:0:0:0:
114,211,71939,2,0,P|93:124|139:52,1,180
207,146,72450,5,8,0:0:0:0:
218,198,72535,1,0,0:0:0:0:
218,252,72621,1,0,0:0:0:0:
196,301,72706,1,0,0:0:0:0:
157,339,72791,2,0,B|112:343|112:343|34:289,1,135,4|0,0:0|0:0,0:0:0:0:
38,291,73132,1,8,0:0:0:0:
199,209,73303,2,0,B|226:192|226:192|296:196,1,80.9999975280763
329,198,73643,2,0,B|360:198|360:198|400:175,1,53.9999983520508,0|8,0:0|0:0,0:0:0:0:
467,123,73984,1,0,0:0:0:0:
226,340,74325,37,0,0:0:0:0:
173,330,74410,1,0,0:0:0:0:
125,303,74496,2,0,B|97:280|97:280|74:240,1,67.5,8|0,0:0|0:0,0:0:0:0:
68,200,74837,6,0,B|71:147|71:147|105:85,1,101.250003862381
127,76,75178,38,0,B|183:46|183:46|261:37,1,135,8|0,0:0|0:0,0:0:0:0:
307,36,75518,6,0,B|351:49|389:47|389:47|334:74|332:107|340:138|376:165|414:155|436:132|418:101|397:87|366:94|366:94|321:145|331:184|357:217|426:221|456:188|456:188|438:212|435:257,1,585,4|0,0:0|0:0,0:0:0:0:
431,291,76712,37,0,0:0:0:0:
303,248,76882,2,0,P|269:209|257:127,1,135
256,128,77223,1,8,0:0:0:0:
123,150,77393,2,0,B|103:158|103:158|76:202,1,67.5
60,237,77734,2,0,B|59:264|59:264|83:297,1,67.5000025749208,0|8,0:0|0:0,0:0:0:0:
187,307,78075,2,0,B|214:297|214:297|264:205|264:205|256:162|256:162|214:227|214:227|312:274|312:274|333:230|333:230|339:212|338:195|334:183|334:183|326:145|326:145|319:112|298:95|281:87|251:84|231:90|212:103,1,630,0|8,0:0|0:0,0:0:0:0:
256,192,79609,12,8,80632,0:0:0:0:
387,243,80973,22,0,P|432:229|459:182,2,90,0|0|8,0:0|0:0|0:0,0:0:0:0:
170,243,81655,2,0,P|120:230|94:187,1,90
86,148,81910,1,0,0:0:0:0:
80,93,81996,2,0,B|106:78|106:78|130:90|144:100|144:100|170:97,1,90,8|0,0:0|0:0,0:0:0:0:
294,81,82337,1,0,0:0:0:0:
211,240,82507,1,0,0:0:0:0:
294,81,82678,1,8,0:0:0:0:
211,240,82848,1,0,0:0:0:0:
294,81,83189,5,0,0:0:0:0:
325,124,83274,1,0,0:0:0:0:
349,172,83359,2,0,B|352:210|352:210|323:307,1,135,8|0,0:0|0:0,0:0:0:0:
324,302,83700,1,0,0:0:0:0:
109,325,84041,2,0,B|106:287|106:287|135:190,1,135,8|0,0:0|0:0,0:0:0:0:
133,194,84382,1,0,0:0:0:0:
309,69,84723,38,0,P|361:68|399:87,1,90,8|0,0:0|0:0,0:0:0:0:
334,174,85064,1,0,0:0:0:0:
412,335,85234,1,0,0:0:0:0:
334,174,85405,1,8,0:0:0:0:
412,335,85575,1,0,0:0:0:0:
231,270,86001,5,8,0:0:0:0:
124,277,86172,1,0,0:0:0:0:
181,185,86342,1,0,0:0:0:0:
181,185,86428,2,0,B|205:167|205:167|265:150,1,90
315,140,86683,1,0,0:0:0:0:
368,131,86768,2,0,P|418:142|453:177,1,90,8|0,0:0|0:0,0:0:0:0:
358,231,87109,2,0,P|308:242|273:277,1,90
221,358,87450,37,8,0:0:0:0:
221,358,87621,1,0,0:0:0:0:
104,290,87791,1,0,0:0:0:0:
104,290,87962,1,0,0:0:0:0:
222,222,88132,1,8,0:0:0:0:
222,222,88303,1,0,0:0:0:0:
82,109,88473,6,0,B|116:93|116:93|215:90,1,135
213,90,88814,1,8,0:0:0:0:
400,284,89155,6,0,B|353:319|295:308|262:282|272:244|294:222|330:246|320:287|320:287|300:306|247:349|187:320|197:240|233:197,1,405
243,179,90007,2,0,P|259:167|284:159,1,45
337,158,90178,2,0,P|366:168|381:182,1,45,8|0,0:0|0:0,0:0:0:0:
415,214,90348,2,0,B|421:243|411:293|411:293|452:251|459:178|460:139|443:113|394:84|359:78|334:77|292:85,1,405
249,123,91200,6,0,B|208:156|202:203|202:203|219:190|251:186,1,135
292,179,91541,2,0,B|310:175|335:183|335:183|294:217|280:285,1,135,8|0,0:0|0:0,0:0:0:0:
275,313,91882,1,4,0:0:0:0:
256,192,92223,12,4,97337,0:0:0:0:
