osu file format v14

[General]
AudioFilename: Super Spice Bros 2.mp3
AudioLeadIn: 0
PreviewTime: 6115
Countdown: 0
SampleSet: Soft
StackLeniency: 0.7
Mode: 0
LetterboxInBreaks: 0
WidescreenStoryboard: 0

[Editor]
Bookmarks: 6302,18531,30760,33440,41461,46429,52557,58290
DistanceSpacing: 1.7
BeatDivisor: 4
GridSize: 4
TimelineZoom: 2

[Metadata]
Title:Super Spice Bros 2
TitleUnicode:Super Spice Bros 2
Artist:MowtenDoo
ArtistUnicode:MowtenDoo
Creator:Krimek
Version:Flobu's Extra Power
Source:
Tags:old spice body spray commercial parody mario bros nintendo Terry Crews Mao -Famous- Yauxo FlobuFlobs Smoothie
BeatmapID:692874
BeatmapSetID:310013

[Difficulty]
HPDrainRate:7
CircleSize:4
OverallDifficulty:9
ApproachRate:9.3
SliderMultiplier:2.1
SliderTickRate:1

[Events]
//Background and Video events
0,0,"background.jpg",0,0
Video,0,"Super Spice Bros 2.avi"
//Break Periods
2,41665,45889
//Storyboard Layer 0 (Background)
//Storyboard Layer 1 (Fail)
//Storyboard Layer 2 (Pass)
//Storyboard Layer 3 (Foreground)
//Storyboard Sound Samples

[TimingPoints]
3249,382.165605095541,4,2,0,60,1,0
21115,-66.6666666666667,4,2,0,60,0,0
21401,-100,4,2,0,60,0,0
36497,-200,4,2,0,60,0,0
36784,-200,4,2,0,5,0,0
36879,-100,4,2,0,60,0,0
46443,382.165605095541,4,2,0,60,1,0

[Colours]
Combo1 : 128,64,0
Combo2 : 43,101,255
Combo3 : 45,234,68
Combo4 : 251,0,6

[HitObjects]
411,139,3249,5,4,0:3:0:0:
340,301,3440,1,0,0:0:0:0:
243,64,3631,1,2,0:3:0:0:
149,215,3822,1,0,0:0:0:0:
149,215,3917,1,2,0:0:0:0:
79,311,4108,6,0,P|31:248|53:153,1,157.5,0|2,0:0|0:3,0:0:0:0:
243,64,4586,1,0,0:0:0:0:
340,301,4777,2,0,P|340:186|422:139,1,210,4|2,0:3|0:3,0:0:0:0:
427,242,5255,1,2,0:0:0:0:
243,64,5446,1,0,0:0:0:0:
60,260,5733,5,0,0:0:0:0:
136,304,5828,1,0,0:0:0:0:
212,257,5924,1,0,0:0:0:0:
319,108,6115,5,4,0:3:0:0:
243,64,6210,1,0,0:0:0:0:
167,111,6306,2,0,L|176:196,1,52.5,4|0,0:0|0:0,0:0:0:0:
55,312,6497,2,0,L|60:259,1,52.5,0|2,0:0|0:3,0:0:0:0:
221,352,6784,1,0,0:0:0:0:
221,352,6879,1,2,0:3:0:0:
353,192,7070,6,0,L|477:192,1,105,2|0,0:0|0:0,0:0:0:0:
353,192,7452,1,2,0:3:0:0:
167,111,7643,5,0,0:0:0:0:
189,197,7739,1,0,0:0:0:0:
151,277,7834,2,0,L|136:376,1,52.5,4|0,0:3|0:0,0:0:0:0:
360,243,8026,2,0,L|352:191,1,52.5,0|2,0:0|0:3,0:0:0:0:
260,37,8312,1,0,0:0:0:0:
260,37,8408,1,2,0:3:0:0:
327,343,8599,6,0,P|391:347|429:321,1,105,2|0,0:0|0:0,0:0:0:0:
257,262,8981,1,2,0:3:0:0:
344,84,9172,6,0,P|302:125|242:126,1,105,2|2,0:0|0:0,0:0:0:0:
175,94,9459,1,0,0:0:0:0:
109,154,9554,2,0,L|112:217,1,52.5,0|4,0:0|0:0,0:0:0:0:
183,334,9745,1,0,0:0:0:0:
408,275,9936,6,0,L|418:341,1,52.5,2|0,0:0|0:0,0:0:0:0:
257,262,10127,2,0,L|264:210,1,52.5,0|4,0:0|0:0,0:0:0:0:
344,84,10319,1,0,0:0:0:0:
415,326,10510,5,2,0:3:0:0:
264,209,10701,1,0,0:0:0:0:
344,84,10892,5,6,0:3:0:0:
183,334,11083,1,0,0:0:0:0:
109,154,11274,1,2,0:3:0:0:
109,154,11370,1,0,0:0:0:0:
264,209,11561,6,0,P|293:207|324:213,1,52.5,0|2,0:0|0:0,0:0:0:0:
415,326,11752,2,0,P|385:327|355:322,1,52.5,0|0,0:0|0:0,0:0:0:0:
344,84,12038,1,2,0:3:0:0:
183,334,12229,5,0,0:3:0:0:
139,360,12325,1,0,0:0:0:0:
89,347,12420,1,4,0:3:0:0:
64,302,12516,1,0,0:0:0:0:
78,253,12612,1,0,0:0:0:0:
123,229,12707,1,2,0:3:0:0:
415,326,12898,1,0,0:0:0:0:
415,326,12994,1,2,0:3:0:0:
469,122,13185,6,0,L|481:260,1,105,2|0,0:0|0:0,0:0:0:0:
344,84,13567,1,2,0:3:0:0:
255,348,13758,5,0,0:0:0:0:
221,86,13949,2,0,L|223:26,1,52.5,4|0,0:3|0:0,0:0:0:0:
121,176,14140,2,0,L|122:228,1,52.5,0|2,0:0|0:3,0:0:0:0:
415,326,14427,1,0,0:0:0:0:
415,326,14522,1,2,0:3:0:0:
344,84,14713,5,2,0:0:0:0:
255,348,14905,1,0,0:0:0:0:
222,33,15096,1,2,0:3:0:0:
78,259,15287,6,0,P|40:235|33:176,1,105,2|2,0:0|0:0,0:0:0:0:
180,219,15573,1,0,0:0:0:0:
186,270,15669,1,0,0:0:0:0:
166,318,15764,1,4,0:0:0:0:
126,350,15860,1,0,0:0:0:0:
171,40,16051,1,2,0:0:0:0:
222,33,16147,1,0,0:0:0:0:
270,53,16242,1,0,0:0:0:0:
302,93,16338,1,4,0:0:0:0:
436,344,16529,5,0,0:0:0:0:
369,285,16624,2,0,P|399:238|374:151,1,105,4|0,0:3|0:0,0:0:0:0:
256,192,17006,12,2,18153,0:3:0:0:
83,236,18344,5,0,0:0:0:0:
63,272,18439,1,0,0:0:0:0:
71,312,18535,1,4,0:3:0:0:
102,339,18630,1,0,0:0:0:0:
143,341,18726,1,0,0:0:0:0:
176,317,18821,1,2,0:3:0:0:
255,61,19013,1,0,0:0:0:0:
255,61,19108,1,2,0:3:0:0:
396,256,19299,5,2,0:0:0:0:
83,236,19491,6,0,P|86:208|99:180,1,52.5,0|0,0:0|0:0,0:0:0:0:
176,317,19682,1,2,0:3:0:0:
255,61,19873,6,0,P|305:86|373:71,1,105,0|4,0:0|0:3,0:0:0:0:
440,121,20159,1,0,0:0:0:0:
451,177,20254,1,0,0:0:0:0:
428,229,20350,1,2,0:3:0:0:
168,135,20541,1,0,0:0:0:0:
168,135,20636,1,2,0:3:0:0:
176,317,20828,6,0,P|157:340|124:350,1,52.5,2|0,0:0|0:0,0:0:0:0:
176,316,21210,2,0,P|231:263|311:273,1,157.500006008148,2|0,0:3|0:0,0:0:0:0:
440,121,21592,6,0,L|499:114,1,52.5,2|0,0:0|0:0,0:0:0:0:
428,229,21784,2,0,L|375:220,1,52.5,0|4,0:0|0:0,0:0:0:0:
255,61,21975,1,0,0:0:0:0:
176,316,22166,6,0,L|111:336,1,52.5,2|0,0:0|0:0,0:0:0:0:
168,135,22357,2,0,L|233:155,1,52.5,0|4,0:0|0:0,0:0:0:0:
366,319,22548,6,0,P|418:340|491:316,1,105,0|2,0:0|0:3,0:0:0:0:
255,61,22930,1,0,0:0:0:0:
177,315,23121,5,4,0:0:0:0:
255,61,23312,1,0,0:0:0:0:
428,229,23503,1,2,0:3:0:0:
428,229,23599,1,0,0:0:0:0:
170,186,23790,6,0,P|172:159|167:134,1,52.5,0|2,0:0|0:0,0:0:0:0:
255,61,23981,2,0,P|257:14|267:-11,2,52.5,0|0|0,0:0|0:0|0:0,0:0:0:0:
428,229,24268,1,2,0:3:0:0:
177,315,24459,5,0,0:0:0:0:
177,315,24554,1,0,0:0:0:0:
177,315,24650,2,0,P|152:330|120:333,1,52.5,4|0,0:3|0:0,0:0:0:0:
170,186,24841,2,0,P|195:190|217:204,1,52.5,0|2,0:0|0:3,0:0:0:0:
371,341,25127,1,0,0:0:0:0:
371,341,25223,1,2,0:3:0:0:
254,59,25414,6,0,P|291:96|356:65,1,105,6|0,0:0|0:0,0:0:0:0:
177,315,25796,1,2,0:3:0:0:
428,229,25987,5,2,0:0:0:0:
428,229,26083,1,0,0:0:0:0:
428,229,26178,2,0,L|479:216,1,52.5,4|0,0:3|0:0,0:0:0:0:
371,341,26370,2,0,L|320:328,1,52.5,0|2,0:0|0:3,0:0:0:0:
341,92,26656,1,0,0:0:0:0:
341,92,26751,1,2,0:3:0:0:
177,315,26943,6,0,L|151:204,1,105,4|0,0:0|0:0,0:0:0:0:
428,229,27325,1,2,0:3:0:0:
371,341,27516,1,0,0:0:0:0:
153,212,27707,6,0,P|121:208|103:193,1,52.5,4|0,0:3|0:0,0:0:0:0:
206,43,27898,2,0,P|237:46|256:62,1,52.5,0|0,0:0|0:0,0:0:0:0:
291,257,28089,1,2,0:3:0:0:
444,83,28280,5,0,0:0:0:0:
440,119,28375,1,0,0:0:0:0:
436,156,28471,1,2,0:0:0:0:
432,192,28566,1,0,0:0:0:0:
428,229,28662,1,0,0:0:0:0:
253,58,28854,5,2,0:3:0:0:
177,315,29045,1,0,0:0:0:0:
428,229,29236,6,0,P|349:276|272:239,1,157.5,4|0,0:0|0:0,0:0:0:0:
61,153,29618,2,0,P|109:149|132:158,1,52.5,2|0,0:3|0:0,0:0:0:0:
177,315,29905,1,0,0:3:0:0:
253,58,30096,1,2,0:3:0:0:
91,240,30287,1,0,0:0:0:0:
91,240,30382,2,0,L|85:312,1,52.5,2|0,0:0|0:0,0:0:0:0:
246,110,30573,2,0,L|253:58,1,52.5,2|0,0:0|0:0,0:0:0:0:
291,257,30764,5,4,0:1:0:0:
444,83,30956,1,0,0:0:0:0:
371,341,31147,1,2,0:3:0:0:
371,341,31338,1,0,0:0:0:0:
246,110,31529,5,2,0:0:0:0:
86,292,31720,1,0,0:0:0:0:
86,292,31815,1,2,0:3:0:0:
48,51,32006,1,0,0:0:0:0:
48,51,32101,1,2,0:3:0:0:
331,46,32293,5,4,0:3:0:0:
246,110,32484,1,0,0:0:0:0:
266,222,32675,6,0,L|274:298,1,52.5,2|0,0:3|0:0,0:0:0:0:
438,135,32866,2,0,L|443:82,1,52.5,0|0,0:0|0:0,0:0:0:0:
331,46,33057,1,0,0:0:0:0:
331,46,33153,1,0,0:0:0:0:
252,112,33248,1,0,0:0:0:0:
252,112,33344,1,0,0:0:0:0:
152,64,33440,6,0,L|140:12,1,52.5,2|0,0:0|0:0,0:0:0:0:
60,196,33631,2,0,L|48:144,1,52.5
184,328,33822,2,0,L|172:276,1,52.5
266,222,34013,1,0,0:0:0:0:
415,318,34204,6,0,P|363:319|317:295,1,105,2|0,0:3|0:0,0:0:0:0:
266,222,34491,1,0,0:0:0:0:
266,222,34586,2,0,L|270:140,1,52.5,0|2,0:0|0:3,0:0:0:0:
143,64,34777,2,0,L|145:116,1,52.5,0|0,0:0|0:0,0:0:0:0:
75,324,34968,5,2,0:3:0:0:
331,46,35159,1,0,0:0:0:0:
415,318,35350,5,4,0:0:0:0:
415,318,35637,1,2,0:0:0:0:
415,318,35924,1,4,0:0:0:0:
143,64,36115,5,6,0:3:0:0:
266,222,36306,1,0,0:0:0:0:
75,324,36497,2,0,P|79:274|57:229,1,78.75,4|0,0:3|0:0,0:0:0:0:
6,183,36879,5,4,0:0:0:0:
143,64,37070,1,0,0:0:0:0:
241,315,37261,1,2,0:3:0:0:
75,324,37452,5,0,0:0:0:0:
143,64,37643,1,2,0:0:0:0:
266,222,37834,1,0,0:0:0:0:
123,209,38026,5,2,0:3:0:0:
292,43,38217,1,0,0:0:0:0:
371,273,38408,5,4,0:0:0:0:
371,273,38694,1,2,0:0:0:0:
371,273,38981,1,4,0:0:0:0:
123,209,39172,6,0,P|75:223|17:220,1,105,4|0,0:3|0:0,0:0:0:0:
353,121,39554,2,0,P|401:107|459:110,1,105,2|0,0:3|0:0,0:0:0:0:
371,273,39936,5,4,0:0:0:0:
221,370,40127,1,0,0:0:0:0:
124,210,40319,1,2,0:3:0:0:
352,120,40510,5,0,0:0:0:0:
242,260,40701,1,2,0:0:0:0:
121,75,40892,1,0,0:0:0:0:
294,32,41083,5,2,0:3:0:0:
124,210,41274,1,0,0:0:0:0:
13,20,41465,1,4,0:3:0:0:
143,103,46443,5,4,0:3:0:0:
143,103,46538,1,2,0:0:0:0:
180,275,46729,1,0,0:0:0:0:
250,220,46825,2,0,P|267:270|245:337,1,105,2|0,0:3|0:0,0:0:0:0:
361,65,47207,5,4,0:3:0:0:
361,65,47302,1,2,0:0:0:0:
419,233,47493,1,0,0:0:0:0:
487,290,47589,2,0,P|444:326|361:303,1,105,2|0,0:3|0:0,0:0:0:0:
180,275,47971,5,4,0:3:0:0:
180,275,48067,1,2,0:0:0:0:
361,65,48258,1,0,0:0:0:0:
444,95,48353,2,0,P|414:145|325:140,1,105,2|0,0:3|0:0,0:0:0:0:
134,119,48735,6,0,L|121:46,1,52.5,4|2,0:3|0:0,0:0:0:0:
238,205,49022,1,0,0:0:0:0:
180,275,49118,2,0,L|207:399,1,105,2|0,0:3|3:3,0:0:0:0:
441,148,49500,6,0,L|445:96,1,52.5,4|2,0:3|0:0,0:0:0:0:
344,243,49786,1,0,0:0:0:0:
395,316,49882,2,0,P|458:326|510:298,1,105,2|0,0:3|0:0,0:0:0:0:
441,148,50264,1,4,0:3:0:0:
441,148,50359,1,2,0:0:0:0:
235,67,50551,5,0,0:0:0:0:
143,129,50646,2,0,L|131:24,1,105,2|0,0:3|0:0,0:0:0:0:
256,192,51028,12,4,52175,0:0:0:0:
145,149,52557,6,0,L|129:55,1,52.5,4|2,0:3|0:0,0:0:0:0:
256,229,52844,1,0,0:0:0:0:
205,302,52939,2,0,P|144:296|74:332,1,105,2|0,0:3|0:0,0:0:0:0:
395,339,53321,6,0,L|414:272,1,52.5,4|2,0:3|0:0,0:0:0:0:
373,112,53608,1,0,0:0:0:0:
458,162,53704,2,0,L|476:43,1,105,2|0,0:3|0:0,0:0:0:0:
256,229,54086,5,4,0:3:0:0:
256,229,54181,1,2,0:0:0:0:
138,95,54372,1,0,0:0:0:0:
73,157,54468,2,0,P|93:201|91:285,1,105,2|0,0:3|0:0,0:0:0:0:
256,229,54850,5,4,0:3:0:0:
256,229,54945,1,2,0:0:0:0:
374,363,55136,1,0,0:0:0:0:
439,301,55232,2,0,P|419:257|421:173,1,105,2|0,0:3|0:0,0:0:0:0:
283,80,55614,6,0,P|316:87|368:70,1,52.5,4|2,0:3|0:0,0:0:0:0:
256,229,55901,1,0,0:0:0:0:
176,272,55997,2,0,P|197:324|168:394,1,105,2|0,0:3|0:0,0:0:0:0:
100,100,56379,5,4,0:3:0:0:
100,100,56474,1,2,0:0:0:0:
256,229,56665,1,0,0:0:0:0:
327,175,56761,2,0,L|273:60,1,105,2|0,0:3|0:0,0:0:0:0:
256,340,57143,5,6,0:0:0:0:
328,48,57334,1,2,0:0:0:0:
408,248,57525,1,2,0:0:0:0:
104,248,57716,1,2,0:0:0:0:
184,48,57907,1,2,0:0:0:0:
256,340,58290,5,4,1:0:0:0:
