osu file format v14

[General]
AudioFilename: Run_Run_Bodywash[YoutubeConverter.Me].mp3
AudioLeadIn: 0
PreviewTime: 18206
Countdown: 0
SampleSet: Normal
StackLeniency: 0.7
Mode: 0
LetterboxInBreaks: 0
EpilepsyWarning: 1
WidescreenStoryboard: 1

[Editor]
Bookmarks: 1655,4965,11586,33103,39724,46344,52965,70344,71172
DistanceSpacing: 1.5
BeatDivisor: 4
GridSize: 4
TimelineZoom: 1

[Metadata]
Title:Run Run Bodywash
TitleUnicode:Run Run Bodywash
Artist:MowtenDoo
ArtistUnicode:MowtenDoo
Creator:OskaRRRitoS
Version:Hard
Source:Shantae + MowtenDoo
Tags:Old Spice Terry Crews ytpmv remix mowtendoo run bodywash
BeatmapID:971019
BeatmapSetID:423201

[Difficulty]
HPDrainRate:5
CircleSize:3.6
OverallDifficulty:6
ApproachRate:8
SliderMultiplier:2.40000000596047
SliderTickRate:1

[Events]
//Background and Video events
Video,0,"Run Run Bodywash.mp4"
0,0,"maxresdefault.jpg",0,0
//Break Periods
//Storyboard Layer 0 (Background)
//Storyboard Layer 1 (Fail)
//Storyboard Layer 2 (Pass)
//Storyboard Layer 3 (Foreground)
//Storyboard Sound Samples

[TimingPoints]
0,413.793103448276,4,1,0,100,1,0
0,-151.515151515152,4,2,0,85,0,0
18206,-100,4,1,0,100,0,1
33102,-151.515151515152,4,2,0,90,0,0
33103,-100,4,2,0,90,0,0
39724,-151.515151515152,4,2,0,90,0,0
52965,-100,4,1,0,100,0,1
67862,-151.515151515152,4,1,0,100,0,0

[HitObjects]
107,265,1655,6,0,P|160:294|203:281,1,79.1999999549963
270,256,2068,2,0,P|299:203|286:160,1,79.1999999549963
407,99,2482,6,0,P|354:70|311:83,1,79.1999999549963
244,108,2895,2,0,P|215:161|228:204,1,79.1999999549963
412,195,3310,5,0,0:0:0:0:
311,173,3517,1,0,0:0:0:0:
208,272,3724,1,0,0:0:0:0:
309,294,3931,1,0,0:0:0:0:
187,186,4137,6,0,P|137:214|123:259,2,79.1999999549963
112,322,4965,6,0,P|61:304|36:258,1,79.1999999549963
32,167,5379,1,0,0:0:0:0:
145,200,5586,1,0,0:0:0:0:
128,82,5793,6,0,P|163:66|201:76,1,79.1999999549963
300,145,6206,2,0,P|264:160|226:150,1,79.1999999549963
302,64,6620,1,0,0:0:0:0:
387,117,6827,6,0,L|397:160,2,39.5999999774981
465,63,7241,1,0,0:0:0:0:
481,156,7448,1,0,0:0:0:0:
411,220,7655,2,0,L|401:177,4,39.5999999774981
363,316,8275,6,0,P|314:335|282:324,1,79.1999999549963
202,247,8689,1,0,0:0:0:0:
312,204,8896,1,0,0:0:0:0:
234,114,9103,6,0,P|169:130|156:146,1,79.1999999549963
130,230,9517,2,0,P|195:214|208:198,1,79.1999999549963
74,144,9931,2,0,P|43:222|282:196,1,475.199999729978
376,53,11586,6,0,P|417:74|441:117,1,79.1999999549963
408,216,12000,1,0,0:0:0:0:
312,146,12206,1,0,0:0:0:0:
292,263,12413,6,0,P|330:303|378:306,1,79.1999999549963
468,296,12827,2,0,P|430:256|382:253,1,79.1999999549963
437,159,13241,5,0,0:0:0:0:
344,180,13448,1,0,0:0:0:0:
349,85,13655,1,0,0:0:0:0:
368,79,13758,1,0,0:0:0:0:
388,79,13861,1,0,0:0:0:0:
336,186,14068,5,0,0:0:0:0:
222,218,14275,1,0,0:0:0:0:
189,104,14482,1,0,0:0:0:0:
303,71,14689,1,0,0:0:0:0:
417,104,14896,6,0,P|472:108|509:78,1,79.1999999549963
420,192,15310,2,0,P|475:196|512:166,1,79.1999999549963
423,280,15724,1,0,0:0:0:0:
273,329,16137,1,0,0:0:0:0:
305,174,16551,6,0,P|260:141|212:146,1,79.1999999549963
155,189,16965,2,0,P|199:221|247:216,1,79.1999999549963
307,271,17379,2,0,L|294:357,2,79.1999999549963
201,113,18206,5,0,0:0:0:0:
122,178,18413,1,0,0:0:0:0:
142,199,18516,1,0,0:0:0:0:
169,210,18620,2,0,P|206:213|244:198,4,60.0000001490117
106,78,19241,1,0,0:0:0:0:
238,15,19448,1,0,0:0:0:0:
301,147,19655,1,0,0:0:0:0:
