osu file format v14

[General]
AudioFilename: audio.mp3
AudioLeadIn: 0
PreviewTime: 71223
Countdown: 0
SampleSet: None
StackLeniency: 0.7
Mode: 1
LetterboxInBreaks: 0
WidescreenStoryboard: 0

[Editor]
DistanceSpacing: 1.3
BeatDivisor: 4
GridSize: 8
TimelineZoom: 2.2

[Metadata]
Title:Po Pi Power
TitleUnicode:Po Pi Power
Artist:MowtenDoo
ArtistUnicode:MowtenDoo
Creator:Midnaait
Version:Inner Oni
Source:
Tags:hatsune miku ryu* lamaze-p old spice odor blocker bodywash terry crews
BeatmapID:927138
BeatmapSetID:429708

[Difficulty]
HPDrainRate:5
CircleSize:5
OverallDifficulty:7
ApproachRate:9
SliderMultiplier:1.4
SliderTickRate:1

[Events]
//Background and Video events
0,0,"aaaaaaaaaaaaaaaaaa.png",0,50
//Break Periods
//Storyboard Layer 0 (Background)
//Storyboard Layer 1 (Fail)
//Storyboard Layer 2 (Pass)
//Storyboard Layer 3 (Foreground)
//Storyboard Sound Samples

[TimingPoints]
43,356.347438752784,4,1,0,100,1,0

[HitObjects]
192,136,43,5,4,0:0:0:0:
192,136,221,1,8,0:0:0:0:
192,136,310,1,0,0:0:0:0:
192,136,488,1,8,0:0:0:0:
192,136,577,1,0,0:0:0:0:
192,136,755,1,0,0:0:0:0:
192,136,933,1,8,0:0:0:0:
192,136,1112,1,0,0:0:0:0:
192,136,1468,1,0,0:0:0:0:
192,136,1646,1,8,0:0:0:0:
192,136,1735,1,0,0:0:0:0:
192,136,1913,1,8,0:0:0:0:
192,136,2002,1,0,0:0:0:0:
192,136,2181,1,0,0:0:0:0:
192,136,2359,1,8,0:0:0:0:
192,136,2537,1,8,0:0:0:0:
192,136,2626,1,8,0:0:0:0:
192,136,2715,1,8,0:0:0:0:
192,136,2804,1,8,0:0:0:0:
192,136,2893,1,0,0:0:0:0:
192,136,3071,1,8,0:0:0:0:
192,136,3161,1,0,0:0:0:0:
192,136,3339,1,8,0:0:0:0:
192,136,3428,1,0,0:0:0:0:
192,136,3606,1,0,0:0:0:0:
192,136,3784,1,8,0:0:0:0:
192,136,3962,1,0,0:0:0:0:
192,136,4319,1,0,0:0:0:0:
192,136,4497,1,8,0:0:0:0:
192,136,4586,1,0,0:0:0:0:
192,136,4764,1,8,0:0:0:0:
192,136,4853,1,0,0:0:0:0:
192,136,5031,1,0,0:0:0:0:
192,136,5210,1,8,0:0:0:0:
192,136,5388,1,0,0:0:0:0:
192,136,5744,1,4,0:0:0:0:
192,136,5922,1,8,0:0:0:0:
192,136,6011,1,0,0:0:0:0:
192,136,6189,1,8,0:0:0:0:
192,136,6279,1,0,0:0:0:0:
192,136,6457,1,0,0:0:0:0:
192,136,6635,1,8,0:0:0:0:
192,136,6813,1,0,0:0:0:0:
192,136,7169,1,0,0:0:0:0:
192,136,7348,1,8,0:0:0:0:
192,136,7437,1,0,0:0:0:0:
192,136,7615,1,8,0:0:0:0:
192,136,7704,1,0,0:0:0:0:
192,136,7882,1,0,0:0:0:0:
192,136,7971,1,8,0:0:0:0:
192,136,8060,1,0,0:0:0:0:
192,136,8149,1,8,0:0:0:0:
192,136,8238,1,0,0:0:0:0:
192,136,8595,1,4,0:0:0:0:
192,136,8773,1,8,0:0:0:0:
192,136,8862,1,0,0:0:0:0:
192,136,9040,1,8,0:0:0:0:
192,136,9129,1,0,0:0:0:0:
192,136,9308,1,4,0:0:0:0:
192,136,9486,1,8,0:0:0:0:
192,136,9664,1,0,0:0:0:0:
192,136,10020,1,4,0:0:0:0:
192,136,10377,1,12,0:0:0:0:
192,136,10733,1,4,0:0:0:0:
192,136,11089,1,12,0:0:0:0:
192,136,11446,1,4,0:0:0:0:
192,136,11624,1,0,0:0:0:0:
192,136,11802,1,8,0:0:0:0:
192,136,11980,1,0,0:0:0:0:
192,136,12158,1,8,0:0:0:0:
192,136,12247,1,0,0:0:0:0:
192,136,12426,1,0,0:0:0:0:
192,136,12693,1,8,0:0:0:0:
192,136,12871,1,0,0:0:0:0:
192,136,13049,1,0,0:0:0:0:
192,136,13227,1,8,0:0:0:0:
192,136,13406,1,0,0:0:0:0:
192,136,13584,1,0,0:0:0:0:
192,136,13673,1,0,0:0:0:0:
192,136,13851,1,8,0:0:0:0:
192,136,14118,1,8,0:0:0:0:
192,136,14296,1,0,0:0:0:0:
192,136,14475,1,0,0:0:0:0:
192,136,14653,1,8,0:0:0:0:
192,136,14831,1,0,0:0:0:0:
192,136,15009,1,8,0:0:0:0:
192,136,15098,1,0,0:0:0:0:
192,136,15276,1,0,0:0:0:0:
192,136,15544,1,8,0:0:0:0:
192,136,15722,1,0,0:0:0:0:
192,136,15900,1,0,0:0:0:0:
192,136,16078,1,8,0:0:0:0:
192,136,16256,1,0,0:0:0:0:
192,136,16434,1,0,0:0:0:0:
192,136,16524,1,0,0:0:0:0:
192,136,16702,1,8,0:0:0:0:
192,136,16969,1,8,0:0:0:0:
192,136,17147,1,4,0:0:0:0:
192,136,17325,1,0,0:0:0:0:
192,136,17504,1,8,0:0:0:0:
192,136,17682,1,0,0:0:0:0:
192,136,17860,1,8,0:0:0:0:
192,136,17949,1,0,0:0:0:0:
192,136,18127,1,0,0:0:0:0:
192,136,18394,1,8,0:0:0:0:
192,136,18573,1,0,0:0:0:0:
192,136,18751,1,0,0:0:0:0:
192,136,18929,1,8,0:0:0:0:
192,136,19107,1,0,0:0:0:0:
192,136,19285,1,0,0:0:0:0:
192,136,19374,1,0,0:0:0:0:
192,136,19553,1,8,0:0:0:0:
192,136,19820,1,8,0:0:0:0:
192,136,19998,1,0,0:0:0:0:
192,136,20176,1,0,0:0:0:0:
192,136,20354,1,8,0:0:0:0:
192,136,20532,1,0,0:0:0:0:
192,136,20711,1,8,0:0:0:0:
192,136,20800,1,0,0:0:0:0:
192,136,20978,1,0,0:0:0:0:
192,136,21245,1,8,0:0:0:0:
192,136,21423,1,4,0:0:0:0:
200,128,21602,1,0,0:0:0:0:
192,136,21780,1,8,0:0:0:0:
200,128,21869,1,0,0:0:0:0:
192,136,21958,1,8,0:0:0:0:
200,128,22047,1,8,0:0:0:0:
192,136,22136,1,0,0:0:0:0:
192,128,22225,1,8,0:0:0:0:
192,136,22314,1,0,0:0:0:0:
192,136,22492,1,12,0:0:0:0:
192,136,22849,1,4,0:0:0:0:
192,136,23027,1,0,0:0:0:0:
192,136,23205,1,8,0:0:0:0:
192,136,23383,1,0,0:0:0:0:
192,136,23472,1,0,0:0:0:0:
192,136,23561,1,8,0:0:0:0:
192,136,23651,1,0,0:0:0:0:
192,136,23829,1,0,0:0:0:0:
192,136,24096,1,8,0:0:0:0:
192,136,24274,1,0,0:0:0:0:
192,136,24452,1,0,0:0:0:0:
192,136,24630,1,8,0:0:0:0:
192,136,24809,1,0,0:0:0:0:
192,136,24898,1,0,0:0:0:0:
192,136,24987,1,8,0:0:0:0:
192,136,25076,1,0,0:0:0:0:
192,136,25254,1,8,0:0:0:0:
192,136,25521,1,8,0:0:0:0:
192,136,25700,1,0,0:0:0:0:
192,136,25878,1,0,0:0:0:0:
192,136,26056,1,8,0:0:0:0:
192,136,26234,1,0,0:0:0:0:
200,144,26323,1,0,0:0:0:0:
192,136,26412,1,8,0:0:0:0:
192,136,26501,1,0,0:0:0:0:
192,136,26679,1,0,0:0:0:0:
192,136,26947,1,8,0:0:0:0:
192,136,27125,1,0,0:0:0:0:
192,136,27303,1,0,0:0:0:0:
192,136,27481,1,8,0:0:0:0:
192,136,27659,1,0,0:0:0:0:
200,144,27749,1,0,0:0:0:0:
192,136,27838,1,8,0:0:0:0:
192,136,27927,1,0,0:0:0:0:
192,136,28105,1,8,0:0:0:0:
192,136,28372,1,8,0:0:0:0:
192,136,28550,1,4,0:0:0:0:
192,136,28728,1,0,0:0:0:0:
192,136,28907,1,8,0:0:0:0:
192,136,29085,1,0,0:0:0:0:
208,136,29174,1,0,0:0:0:0:
192,136,29263,1,8,0:0:0:0:
192,136,29352,1,0,0:0:0:0:
192,136,29530,1,0,0:0:0:0:
192,136,29798,1,8,0:0:0:0:
192,136,29976,1,4,0:0:0:0:
192,136,30154,1,0,0:0:0:0:
192,136,30332,1,8,0:0:0:0:
192,136,30510,1,0,0:0:0:0:
208,136,30599,1,0,0:0:0:0:
192,136,30688,1,8,0:0:0:0:
192,136,30777,1,0,0:0:0:0:
192,136,30956,1,8,0:0:0:0:
192,136,31223,1,8,0:0:0:0:
192,136,31401,1,4,0:0:0:0:
192,136,31579,1,0,0:0:0:0:
192,136,31757,1,8,0:0:0:0:
192,136,31936,1,0,0:0:0:0:
192,136,32025,1,0,0:0:0:0:
192,136,32114,1,8,0:0:0:0:
192,136,32203,1,0,0:0:0:0:
192,144,32292,1,8,0:0:0:0:
192,136,32381,1,0,0:0:0:0:
192,136,32648,1,8,0:0:0:0:
192,136,32826,1,4,0:0:0:0:
200,128,33005,1,0,0:0:0:0:
192,136,33183,1,8,0:0:0:0:
192,136,33361,1,0,0:0:0:0:
200,128,33450,1,0,0:0:0:0:
192,136,33539,1,8,0:0:0:0:
200,128,33628,1,0,0:0:0:0:
192,136,33717,1,0,0:0:0:0:
208,136,33806,1,8,0:0:0:0:
192,136,33896,1,0,0:0:0:0:
192,136,33985,1,0,0:0:0:0:
200,136,34074,1,8,0:0:0:0:
192,136,34252,1,12,0:0:0:0:
184,128,34430,1,0,0:0:0:0:
184,128,34519,1,8,0:0:0:0:
184,128,34697,1,0,0:0:0:0:
184,128,34786,1,8,0:0:0:0:
184,128,34875,1,0,0:0:0:0:
184,128,34965,1,8,0:0:0:0:
184,128,35054,1,8,0:0:0:0:
184,128,35143,1,8,0:0:0:0:
184,128,35232,1,0,0:0:0:0:
184,128,35499,1,8,0:0:0:0:
184,128,35677,1,8,0:0:0:0:
192,128,35855,1,0,0:0:0:0:
192,128,36034,1,8,0:0:0:0:
192,128,36212,1,8,0:0:0:0:
192,128,36390,1,0,0:0:0:0:
184,136,36746,1,12,0:0:0:0:
192,128,37103,1,8,0:0:0:0:
192,128,37281,1,0,0:0:0:0:
184,128,37459,1,8,0:0:0:0:
184,128,37637,1,8,0:0:0:0:
184,128,37815,1,0,0:0:0:0:
184,128,37904,1,0,0:0:0:0:
184,128,38083,1,8,0:0:0:0:
192,128,38172,1,0,0:0:0:0:
184,128,38350,1,0,0:0:0:0:
184,128,38528,1,8,0:0:0:0:
184,128,38706,1,0,0:0:0:0:
184,128,38884,1,8,0:0:0:0:
184,128,39063,1,8,0:0:0:0:
184,128,39241,1,0,0:0:0:0:
184,128,39597,1,8,0:0:0:0:
184,128,39686,1,0,0:0:0:0:
184,128,39775,1,8,0:0:0:0:
184,128,39864,1,8,0:0:0:0:
184,128,39953,1,0,0:0:0:0:
176,128,40132,1,8,0:0:0:0:
176,128,40310,1,0,0:0:0:0:
176,128,40488,1,0,0:0:0:0:
176,128,40666,1,8,0:0:0:0:
184,128,40844,1,8,0:0:0:0:
184,128,40933,1,8,0:0:0:0:
176,128,41022,1,0,0:0:0:0:
168,128,41201,1,8,0:0:0:0:
176,128,41379,1,8,0:0:0:0:
176,128,41557,1,0,0:0:0:0:
176,128,41735,1,8,0:0:0:0:
176,128,41913,1,8,0:0:0:0:
176,128,42091,1,0,0:0:0:0:
192,128,42448,1,12,0:0:0:0:
176,120,42804,1,8,0:0:0:0:
176,120,42982,1,8,0:0:0:0:
176,120,43161,1,0,0:0:0:0:
176,120,43339,1,8,0:0:0:0:
176,120,43517,1,8,0:0:0:0:
176,128,43606,1,8,0:0:0:0:
176,120,43695,1,0,0:0:0:0:
176,120,43873,1,8,0:0:0:0:
176,120,44230,1,8,0:0:0:0:
176,120,44408,1,8,0:0:0:0:
176,120,44586,1,0,0:0:0:0:
176,120,44764,1,8,0:0:0:0:
176,120,44942,1,8,0:0:0:0:
176,128,45031,1,8,0:0:0:0:
176,120,45120,1,0,0:0:0:0:
176,120,45299,1,8,0:0:0:0:
176,120,45655,1,8,0:0:0:0:
176,120,45833,1,8,0:0:0:0:
176,120,46011,1,0,0:0:0:0:
176,120,46189,1,8,0:0:0:0:
176,120,46368,1,8,0:0:0:0:
176,128,46457,1,8,0:0:0:0:
176,120,46546,1,0,0:0:0:0:
176,120,46724,1,8,0:0:0:0:
176,128,46902,1,0,0:0:0:0:
176,128,47080,1,8,0:0:0:0:
176,120,47259,1,0,0:0:0:0:
184,128,47348,1,0,0:0:0:0:
176,128,47437,1,8,0:0:0:0:
176,120,47615,1,0,0:0:0:0:
176,120,47704,1,0,0:0:0:0:
176,128,47793,1,8,0:0:0:0:
176,128,47971,1,0,0:0:0:0:
176,128,48060,1,8,0:0:0:0:
176,128,48149,1,0,0:0:0:0:
168,128,48238,1,0,0:0:0:0:
176,128,48328,1,0,0:0:0:0:
176,128,48417,1,0,0:0:0:0:
192,136,48506,1,8,0:0:0:0:
192,136,48684,1,0,0:0:0:0:
192,136,48862,1,8,0:0:0:0:
192,136,49040,1,0,0:0:0:0:
192,136,49129,1,0,0:0:0:0:
192,136,49218,1,8,0:0:0:0:
192,136,49308,1,0,0:0:0:0:
192,136,49486,1,0,0:0:0:0:
192,136,49753,1,8,0:0:0:0:
192,136,49931,1,0,0:0:0:0:
192,136,50109,1,0,0:0:0:0:
192,136,50287,1,8,0:0:0:0:
192,136,50466,1,0,0:0:0:0:
192,136,50644,1,12,0:0:0:0:
192,136,51000,1,12,0:0:0:0:
192,136,51357,1,0,0:0:0:0:
192,136,51535,1,0,0:0:0:0:
192,136,51713,1,8,0:0:0:0:
192,136,51891,1,0,0:0:0:0:
200,144,51980,1,0,0:0:0:0:
192,136,52069,1,8,0:0:0:0:
192,136,52158,1,0,0:0:0:0:
192,136,52336,1,0,0:0:0:0:
192,136,52604,1,8,0:0:0:0:
192,136,52782,1,0,0:0:0:0:
192,136,52960,1,0,0:0:0:0:
192,136,53138,1,8,0:0:0:0:
192,136,53316,1,8,0:0:0:0:
192,136,53495,1,4,0:0:0:0:
192,136,53673,1,12,0:0:0:0:
192,136,53851,1,4,0:0:0:0:
192,136,54029,1,12,0:0:0:0:
200,136,54207,1,0,0:0:0:0:
192,136,54385,1,0,0:0:0:0:
192,136,54564,1,8,0:0:0:0:
192,136,54742,1,0,0:0:0:0:
192,136,54831,1,0,0:0:0:0:
192,136,54920,1,8,0:0:0:0:
192,136,55009,1,0,0:0:0:0:
192,136,55187,1,0,0:0:0:0:
192,136,55455,1,8,0:0:0:0:
192,136,55633,1,0,0:0:0:0:
192,136,55811,1,0,0:0:0:0:
192,136,55989,1,8,0:0:0:0:
192,136,56167,1,0,0:0:0:0:
192,136,56345,1,12,0:0:0:0:
192,136,56702,1,12,0:0:0:0:
192,136,57058,1,0,0:0:0:0:
192,136,57236,1,0,0:0:0:0:
192,136,57414,1,8,0:0:0:0:
192,136,57593,1,0,0:0:0:0:
200,144,57682,1,0,0:0:0:0:
192,136,57771,1,8,0:0:0:0:
192,136,57860,1,0,0:0:0:0:
192,136,58038,1,0,0:0:0:0:
192,136,58305,1,8,0:0:0:0:
192,136,58483,1,0,0:0:0:0:
192,136,58662,1,0,0:0:0:0:
192,136,58840,1,8,0:0:0:0:
192,136,59018,1,8,0:0:0:0:
192,136,59196,1,4,0:0:0:0:
192,136,59374,1,12,0:0:0:0:
192,136,59553,1,4,0:0:0:0:
192,136,59731,1,12,0:0:0:0:
192,136,59909,1,0,0:0:0:0:
184,128,60087,1,0,0:0:0:0:
184,128,60176,1,0,0:0:0:0:
184,128,60265,1,8,0:0:0:0:
184,128,60443,1,0,0:0:0:0:
184,128,60622,1,0,0:0:0:0:
184,128,60800,1,8,0:0:0:0:
184,128,61156,1,8,0:0:0:0:
184,128,61334,1,0,0:0:0:0:
192,128,61512,1,8,0:0:0:0:
192,128,61691,1,0,0:0:0:0:
192,128,61869,1,0,0:0:0:0:
192,128,62047,1,8,0:0:0:0:
184,136,62403,1,12,0:0:0:0:
192,128,62760,1,8,0:0:0:0:
192,128,62938,1,0,0:0:0:0:
184,128,63116,1,8,0:0:0:0:
192,128,63205,1,8,0:0:0:0:
184,128,63294,1,8,0:0:0:0:
184,128,63472,1,0,0:0:0:0:
184,128,63651,1,8,0:0:0:0:
184,128,64007,1,0,0:0:0:0:
184,128,64185,1,8,0:0:0:0:
184,128,64363,1,0,0:0:0:0:
184,128,64541,1,8,0:0:0:0:
184,128,64720,1,0,0:0:0:0:
184,128,64898,1,8,0:0:0:0:
184,128,65254,1,12,0:0:0:0:
184,128,65610,1,0,0:0:0:0:
176,128,65789,1,0,0:0:0:0:
176,128,65967,1,8,0:0:0:0:
176,128,66145,1,0,0:0:0:0:
176,128,66323,1,8,0:0:0:0:
184,128,66501,1,8,0:0:0:0:
176,128,66679,1,0,0:0:0:0:
168,128,66858,1,8,0:0:0:0:
176,128,67036,1,0,0:0:0:0:
176,128,67214,1,0,0:0:0:0:
176,128,67392,1,8,0:0:0:0:
176,128,67570,1,0,0:0:0:0:
176,128,67749,1,8,0:0:0:0:
176,128,67927,1,8,0:0:0:0:
176,128,68105,1,0,0:0:0:0:
184,128,68283,1,8,0:0:0:0:
176,128,68461,1,4,0:0:0:0:
176,128,68818,1,4,0:0:0:0:
176,128,68996,1,4,0:0:0:0:
176,128,69174,1,12,0:0:0:0:
176,128,69530,1,4,0:0:0:0:
176,128,69887,1,12,0:0:0:0:
256,192,70065,12,0,71134,0:0:0:0:
192,136,71312,5,4,0:0:0:0:
192,136,71490,1,8,0:0:0:0:
192,136,71579,1,0,0:0:0:0:
192,136,71757,1,8,0:0:0:0:
192,136,71847,1,0,0:0:0:0:
192,136,72025,1,0,0:0:0:0:
192,136,72203,1,8,0:0:0:0:
192,136,72292,1,8,0:0:0:0:
192,136,72381,1,0,0:0:0:0:
192,136,72737,1,0,0:0:0:0:
192,136,72916,1,8,0:0:0:0:
192,136,73005,1,0,0:0:0:0:
192,136,73183,1,8,0:0:0:0:
192,136,73272,1,0,0:0:0:0:
192,136,73450,1,0,0:0:0:0:
192,136,73628,1,8,0:0:0:0:
192,136,73717,1,8,0:0:0:0:
192,136,73806,1,0,0:0:0:0:
192,136,74163,1,8,0:0:0:0:
192,136,74341,1,0,0:0:0:0:
192,136,74430,1,0,0:0:0:0:
192,136,74519,1,8,0:0:0:0:
192,144,74608,1,8,0:0:0:0:
192,136,74697,1,0,0:0:0:0:
192,136,74875,1,8,0:0:0:0:
192,136,75054,1,8,0:0:0:0:
192,136,75232,1,0,0:0:0:0:
192,136,75410,1,0,0:0:0:0:
192,136,75588,1,8,0:0:0:0:
192,136,75766,1,8,0:0:0:0:
192,136,75855,1,8,0:0:0:0:
192,136,76034,1,8,0:0:0:0:
192,136,76123,1,8,0:0:0:0:
192,136,76301,1,8,0:0:0:0:
192,136,76479,1,8,0:0:0:0:
192,136,76657,1,8,0:0:0:0:
192,136,76746,1,8,0:0:0:0:
192,128,76835,1,8,0:0:0:0:
192,136,77014,1,0,0:0:0:0:
192,136,77192,1,8,0:0:0:0:
192,136,77281,1,0,0:0:0:0:
192,136,77459,1,8,0:0:0:0:
192,136,77548,1,0,0:0:0:0:
192,136,77726,1,0,0:0:0:0:
192,136,77904,1,8,0:0:0:0:
192,128,77994,1,8,0:0:0:0:
192,136,78083,1,0,0:0:0:0:
192,136,78439,1,0,0:0:0:0:
192,136,78617,1,8,0:0:0:0:
192,136,78706,1,0,0:0:0:0:
192,136,78884,1,8,0:0:0:0:
192,136,78973,1,0,0:0:0:0:
192,136,79152,1,0,0:0:0:0:
192,136,79330,1,8,0:0:0:0:
192,136,79419,1,8,0:0:0:0:
192,136,79508,1,0,0:0:0:0:
192,136,79864,1,0,0:0:0:0:
192,136,80043,1,0,0:0:0:0:
192,136,80132,1,0,0:0:0:0:
192,136,80221,1,8,0:0:0:0:
192,136,80399,1,0,0:0:0:0:
192,136,80577,1,8,0:0:0:0:
192,136,80755,1,8,0:0:0:0:
192,136,80844,1,8,0:0:0:0:
192,136,80933,1,0,0:0:0:0:
192,136,81112,1,0,0:0:0:0:
192,136,81290,1,8,0:0:0:0:
192,136,81468,1,8,0:0:0:0:
192,136,81557,1,8,0:0:0:0:
192,136,81735,1,8,0:0:0:0:
192,136,81824,1,8,0:0:0:0:
192,136,82002,1,8,0:0:0:0:
192,136,82181,1,8,0:0:0:0:
192,136,82359,1,8,0:0:0:0:
192,136,82448,1,8,0:0:0:0:
192,128,82537,1,8,0:0:0:0:
192,136,82715,1,0,0:0:0:0:
192,136,82893,1,8,0:0:0:0:
192,136,82982,1,0,0:0:0:0:
200,136,83071,1,0,0:0:0:0:
192,136,83161,1,8,0:0:0:0:
192,136,83250,1,0,0:0:0:0:
192,136,83428,1,0,0:0:0:0:
192,136,83606,1,8,0:0:0:0:
192,136,83695,1,8,0:0:0:0:
192,136,83784,1,0,0:0:0:0:
192,136,84140,1,0,0:0:0:0:
192,136,84319,1,8,0:0:0:0:
192,136,84408,1,0,0:0:0:0:
192,136,84497,1,0,0:0:0:0:
192,136,84586,1,8,0:0:0:0:
192,136,84675,1,0,0:0:0:0:
192,136,84853,1,0,0:0:0:0:
192,136,85031,1,8,0:0:0:0:
192,136,85120,1,8,0:0:0:0:
192,136,85210,1,0,0:0:0:0:
192,136,85566,1,0,0:0:0:0:
192,136,85922,1,8,0:0:0:0:
192,136,86100,1,0,0:0:0:0:
192,136,86279,1,8,0:0:0:0:
192,136,86457,1,8,0:0:0:0:
192,136,86635,1,0,0:0:0:0:
192,136,86813,1,0,0:0:0:0:
200,128,86902,1,0,0:0:0:0:
192,136,86991,1,8,0:0:0:0:
192,136,87169,1,8,0:0:0:0:
192,136,87259,1,8,0:0:0:0:
192,136,87437,1,8,0:0:0:0:
192,136,87526,1,8,0:0:0:0:
192,136,87704,1,8,0:0:0:0:
192,136,87882,1,8,0:0:0:0:
192,136,88060,1,8,0:0:0:0:
192,136,88149,1,8,0:0:0:0:
192,128,88238,1,8,0:0:0:0:
192,136,88417,1,0,0:0:0:0:
192,136,88506,1,0,0:0:0:0:
192,136,88595,1,8,0:0:0:0:
192,136,88684,1,0,0:0:0:0:
184,136,88773,1,0,0:0:0:0:
192,136,88862,1,8,0:0:0:0:
192,136,88951,1,0,0:0:0:0:
192,136,89129,1,0,0:0:0:0:
192,136,89308,1,8,0:0:0:0:
192,136,89397,1,8,0:0:0:0:
192,136,89486,1,0,0:0:0:0:
192,136,89842,1,0,0:0:0:0:
192,136,89931,1,0,0:0:0:0:
192,136,90020,1,8,0:0:0:0:
192,136,90109,1,0,0:0:0:0:
192,136,90198,1,0,0:0:0:0:
192,136,90287,1,8,0:0:0:0:
192,136,90377,1,0,0:0:0:0:
192,136,90555,1,0,0:0:0:0:
192,136,90733,1,8,0:0:0:0:
192,136,90822,1,8,0:0:0:0:
192,136,90911,1,0,0:0:0:0:
192,136,91267,1,4,0:0:0:0:
192,136,91446,1,0,0:0:0:0:
192,136,91535,1,0,0:0:0:0:
192,136,91624,1,8,0:0:0:0:
192,136,91802,1,0,0:0:0:0:
192,136,91980,1,8,0:0:0:0:
192,136,92158,1,8,0:0:0:0:
200,136,92247,1,8,0:0:0:0:
192,136,92336,1,0,0:0:0:0:
192,136,92515,1,0,0:0:0:0:
192,136,92693,1,8,0:0:0:0:
192,136,92871,1,8,0:0:0:0:
192,136,92960,1,8,0:0:0:0:
192,136,93138,1,0,0:0:0:0:
192,136,93227,1,0,0:0:0:0:
192,136,93406,1,8,0:0:0:0:
192,136,93584,1,8,0:0:0:0:
192,136,93673,1,8,0:0:0:0:
192,128,93940,1,8,0:0:0:0:
256,192,94118,12,0,95365,0:0:0:0:
192,136,95544,5,4,0:0:0:0:
192,136,95722,1,0,0:0:0:0:
192,136,95900,1,8,0:0:0:0:
192,136,96078,1,0,0:0:0:0:
192,136,96256,1,8,0:0:0:0:
192,136,96345,1,0,0:0:0:0:
192,136,96524,1,0,0:0:0:0:
192,136,96791,1,8,0:0:0:0:
192,136,96969,1,0,0:0:0:0:
192,136,97147,1,0,0:0:0:0:
192,136,97325,1,8,0:0:0:0:
192,136,97504,1,0,0:0:0:0:
192,136,97682,1,0,0:0:0:0:
192,136,97771,1,0,0:0:0:0:
192,136,97949,1,8,0:0:0:0:
192,136,98216,1,8,0:0:0:0:
192,136,98394,1,0,0:0:0:0:
192,136,98573,1,0,0:0:0:0:
192,136,98751,1,8,0:0:0:0:
192,136,98929,1,0,0:0:0:0:
192,136,99107,1,8,0:0:0:0:
192,136,99196,1,0,0:0:0:0:
192,136,99374,1,0,0:0:0:0:
192,136,99642,1,8,0:0:0:0:
192,136,99820,1,0,0:0:0:0:
192,136,99998,1,0,0:0:0:0:
192,136,100176,1,8,0:0:0:0:
192,136,100354,1,0,0:0:0:0:
192,136,100532,1,0,0:0:0:0:
192,136,100622,1,0,0:0:0:0:
192,136,100800,1,8,0:0:0:0:
192,136,101067,1,8,0:0:0:0:
192,136,101245,1,0,0:0:0:0:
192,136,101423,1,0,0:0:0:0:
192,136,101602,1,8,0:0:0:0:
192,136,101780,1,0,0:0:0:0:
192,136,101958,1,8,0:0:0:0:
192,136,102047,1,0,0:0:0:0:
192,136,102225,1,0,0:0:0:0:
192,136,102492,1,8,0:0:0:0:
192,136,102671,1,0,0:0:0:0:
192,136,102849,1,0,0:0:0:0:
192,136,103027,1,8,0:0:0:0:
192,136,103205,1,0,0:0:0:0:
192,136,103383,1,0,0:0:0:0:
192,136,103472,1,0,0:0:0:0:
192,136,103651,1,8,0:0:0:0:
192,136,103918,1,8,0:0:0:0:
192,136,104096,1,0,0:0:0:0:
192,136,104274,1,0,0:0:0:0:
192,136,104452,1,8,0:0:0:0:
192,136,104630,1,0,0:0:0:0:
192,136,104809,1,8,0:0:0:0:
192,136,104898,1,0,0:0:0:0:
192,136,105076,1,0,0:0:0:0:
192,136,105165,1,8,0:0:0:0:
192,136,105343,1,8,0:0:0:0:
192,136,105521,1,0,0:0:0:0:
200,128,105700,1,0,0:0:0:0:
192,136,105878,1,8,0:0:0:0:
200,128,105967,1,8,0:0:0:0:
200,128,106056,1,0,0:0:0:0:
192,136,106234,1,8,0:0:0:0:
192,136,106412,1,0,0:0:0:0:
192,136,106590,1,12,0:0:0:0:
192,136,106947,1,4,0:0:0:0:
192,136,107125,1,8,0:0:0:0:
192,136,107214,1,0,0:0:0:0:
192,136,107392,1,8,0:0:0:0:
192,136,107481,1,0,0:0:0:0:
192,136,107659,1,0,0:0:0:0:
192,136,107838,1,8,0:0:0:0:
192,144,107927,1,8,0:0:0:0:
184,152,108016,1,0,0:0:0:0:
192,136,108372,1,0,0:0:0:0:
192,136,108550,1,8,0:0:0:0:
192,136,108639,1,0,0:0:0:0:
192,136,108818,1,8,0:0:0:0:
192,136,108907,1,0,0:0:0:0:
192,136,109085,1,0,0:0:0:0:
192,136,109263,1,8,0:0:0:0:
192,136,109441,1,8,0:0:0:0:
192,136,109530,1,8,0:0:0:0:
192,136,109619,1,8,0:0:0:0:
192,136,109708,1,8,0:0:0:0:
192,136,109798,1,0,0:0:0:0:
192,136,109976,1,8,0:0:0:0:
192,136,110065,1,0,0:0:0:0:
192,136,110243,1,8,0:0:0:0:
192,136,110332,1,0,0:0:0:0:
192,136,110510,1,0,0:0:0:0:
192,136,110688,1,8,0:0:0:0:
192,136,110777,1,8,0:0:0:0:
192,136,110867,1,0,0:0:0:0:
192,136,111223,1,0,0:0:0:0:
192,136,111401,1,8,0:0:0:0:
192,136,111490,1,0,0:0:0:0:
192,136,111668,1,8,0:0:0:0:
192,136,111757,1,0,0:0:0:0:
192,136,111936,1,0,0:0:0:0:
192,136,112114,1,8,0:0:0:0:
192,136,112203,1,8,0:0:0:0:
192,136,112292,1,0,0:0:0:0:
192,136,112648,1,4,0:0:0:0:
192,136,112826,1,8,0:0:0:0:
192,136,112916,1,0,0:0:0:0:
192,136,113094,1,8,0:0:0:0:
192,136,113183,1,0,0:0:0:0:
192,136,113361,1,0,0:0:0:0:
192,136,113539,1,8,0:0:0:0:
192,136,113628,1,8,0:0:0:0:
192,136,113717,1,0,0:0:0:0:
192,136,114074,1,4,0:0:0:0:
192,136,114252,1,8,0:0:0:0:
192,136,114341,1,0,0:0:0:0:
192,136,114519,1,8,0:0:0:0:
192,136,114608,1,0,0:0:0:0:
192,136,114786,1,0,0:0:0:0:
192,136,114875,1,8,0:0:0:0:
192,136,114965,1,0,0:0:0:0:
192,136,115054,1,8,0:0:0:0:
192,136,115143,1,0,0:0:0:0:
192,136,115499,1,4,0:0:0:0:
192,136,115677,1,8,0:0:0:0:
192,136,115766,1,0,0:0:0:0:
192,136,115945,1,8,0:0:0:0:
192,136,116034,1,0,0:0:0:0:
192,136,116212,1,4,0:0:0:0:
192,136,116390,1,8,0:0:0:0:
192,136,116568,1,0,0:0:0:0:
192,136,116924,1,4,0:0:0:0:
192,136,117281,1,12,0:0:0:0:
192,136,117637,1,4,0:0:0:0:
184,152,117904,1,12,0:0:0:0:
192,136,118172,1,12,0:0:0:0:
192,136,118350,1,4,0:0:0:0:
