osu file format v14

[General]
AudioFilename: audio.mp3
AudioLeadIn: 0
PreviewTime: -1
Countdown: 0
SampleSet: Soft
StackLeniency: 0.7
Mode: 0
LetterboxInBreaks: 0
EpilepsyWarning: 1
WidescreenStoryboard: 1

[Editor]
DistanceSpacing: 1
BeatDivisor: 6
GridSize: 4
TimelineZoom: 2.1

[Metadata]
Title:Pants
TitleUnicode:Pants
Artist:MowtenDoo
ArtistUnicode:MowtenDoo
Creator:Doomsday is Bad
Version:Doomsday's Trousers
Source:
Tags:trousers Syncro NyarkoO Dawnsday mmi- Est- Pelzio LefafeI M8gazine Doomsday Mara
BeatmapID:1252828
BeatmapSetID:586458

[Difficulty]
HPDrainRate:3
CircleSize:3
OverallDifficulty:8
ApproachRate:9
SliderMultiplier:3.59999990463257
SliderTickRate:6

[Events]
//Background and Video events
Video,0,"pants.mp4"
0,0,"chrome_2017-03-16_02-11-58.png",0,0
//Break Periods
//Storyboard Layer 0 (Background)
//Storyboard Layer 1 (Fail)
//Storyboard Layer 2 (Pass)
//Storyboard Layer 3 (Foreground)
//Storyboard Sound Samples

[TimingPoints]
71,279.06976744186,4,2,0,5,1,0
71,-100,4,2,0,5,0,0
164,-100,4,2,0,5,0,0
257,-90,4,2,0,5,0,0
350,-80,4,2,0,5,0,0
443,-70,4,2,0,5,0,0
536,-60,4,2,0,5,0,0
629,-50,4,2,0,5,0,0
722,-40,4,2,0,5,0,0
815,-30,4,2,0,5,0,0
908,-20,4,2,0,5,0,0
1188,279.06976744186,4,1,0,80,1,0
1374,-50,4,2,0,5,0,0
2862,-50,4,2,0,5,0,0
9281,-40,4,2,0,5,0,0
9746,-33,4,2,0,5,0,0
10118,-50,4,2,0,5,0,0

[HitObjects]
256,192,71,6,0,P|236:184|196:148,1,59.9999984105428
256,192,164,2,0,P|239:177|207:113,1,59.9999984105428
256,192,257,2,0,P|247:172|244:111,1,66.6666649006032
256,192,350,2,0,P|260:170|293:116,1,74.9999980131785
256,192,443,2,0,P|271:177|329:152,1,85.7142834436326
256,192,536,2,0,P|277:188|363:214,1,99.9999973509047
256,192,629,2,0,P|273:204|320:294,1,119.999996821086
256,192,722,2,0,P|259:213|211:339,1,149.999996026357
256,192,815,2,0,P|243:209|70:271,1,199.999994701809
256,192,908,2,0,P|234:191|-22:84,1,299.999992052714
256,192,1001,2,0,P|244:173|280:-82,1,299.999992052714
256,192,1094,2,0,P|264:172|550:74,1,299.999992052714
262,195,1187,1,0,0:0:0:0:
469,318,1374,5,0,0:0:0:0:
469,318,1467,2,0,B|506:81|506:81|469:319|469:319|469:319,1,479.999987284343
469,319,1746,2,0,B|230:340|230:340|469:318|469:318|469:318,1,479.999987284343
43,66,2211,5,0,0:0:0:0:
43,66,2304,2,0,B|6:303|6:303|43:65|43:65|43:65,1,479.999987284343
43,65,2583,2,0,B|281:43|281:43|42:65|42:65|42:65,1,479.999987284343
256,192,2862,6,0,B|142:153|142:153|256:192|256:192|348:117|348:117|256:192|256:192|274:311|274:311|256:192,1,719.999980926514
256,192,3327,1,0,0:0:0:0:
448,40,3606,5,0,0:0:0:0:
456,49,3699,2,0,B|339:73|339:73|224:36|224:36|339:73|339:73|456:49,1,479.999987284343
455,49,3978,2,0,B|428:165|428:165|463:281|463:281|428:165|428:165|455:49,1,479.999987284343
56,335,4443,5,0,0:0:0:0:
56,335,4536,2,0,B|168:306|168:306|283:343|283:343|168:306|168:306|51:330,1,479.999987284343
57,335,4815,2,0,B|83:218|83:218|48:102|48:102|83:218|83:218|57:335,1,479.999987284343
256,192,5094,6,0,B|268:72|268:72|256:192|256:192|149:244|149:244|256:192|256:192|356:259|356:259|256:192,1,719.999980926514
256,192,5559,1,0,0:0:0:0:
66,158,5839,5,0,0:0:0:0:
66,158,5932,2,0,B|169:94|169:94|80:15|80:15|169:94|169:94|66:158,1,479.999987284343
66,157,6211,2,0,B|169:221|169:221|80:300|80:300|169:221|169:221|66:157,1,479.999987284343
446,226,6676,5,0,0:0:0:0:
446,226,6769,2,0,B|347:294|347:294|436:373|436:373|347:294|347:294|450:230,1,479.999987284343
446,227,7048,2,0,B|343:163|343:163|432:84|432:84|343:163|343:163|446:227,1,479.999987284343
256,191,7327,6,0,B|139:164|139:164|256:191|256:191|295:304|295:304|256:191|256:191|335:100|335:100|256:191,1,719.999980926514
256,191,7792,1,0,0:0:0:0:
120,70,8071,5,0,0:0:0:0:
120,70,8164,2,0,B|267:93|356:56|356:56|286:81|217:88|115:68,1,479.999987284343
438,192,8443,2,0,B|291:215|202:178|202:178|272:203|341:210|443:190,1,479.999987284343
118,310,8722,2,0,B|265:333|354:296|354:296|284:321|215:328|113:308,1,479.999987284343
63,113,9001,5,0,0:0:0:0:
339,115,9281,2,0,P|176:270|274:80,1,599.999984105428
242,79,9560,1,0,0:0:0:0:
444,168,9746,6,0,P|80:259|409:80,1,1090.90906200987
256,192,10118,6,0,P|200:296|428:288,1,479.999987284343
256,192,10397,2,0,P|454:189|351:20,1,479.999987284343
256,191,10676,2,0,P|253:-6|84:96,1,479.999987284343
255,191,10955,2,0,P|57:194|160:363,1,479.999987284343
408,356,11234,6,0,P|504:272|280:32,1,479.999987284343
155,17,11513,2,0,P|-9:165|104:356,1,479.999987284343
256,256,11792,2,0,L|256:0,2,239.999993642171
