osu file format v14

[General]
AudioFilename: audio.mp3
AudioLeadIn: 0
PreviewTime: -1
Countdown: 0
SampleSet: Soft
StackLeniency: 0.7
Mode: 0
LetterboxInBreaks: 0
EpilepsyWarning: 1
WidescreenStoryboard: 1

[Editor]
DistanceSpacing: 1
BeatDivisor: 3
GridSize: 4
TimelineZoom: 2.6

[Metadata]
Title:Pants
TitleUnicode:Pants
Artist:MowtenDoo
ArtistUnicode:MowtenDoo
Creator:Doomsday is Bad
Version:Dawnsday's Benklader
Source:
Tags:trousers Syncro NyarkoO Dawnsday mmi- Est- Pelzio LefafeI M8gazine Doomsday Mara
BeatmapID:1252666
BeatmapSetID:586458

[Difficulty]
HPDrainRate:6.9
CircleSize:4.8
OverallDifficulty:8
ApproachRate:9.2
SliderMultiplier:3
SliderTickRate:1

[Events]
//Background and Video events
Video,0,"pants.mp4"
0,0,"chrome_2017-03-16_02-11-58.png",0,0
//Break Periods
//Storyboard Layer 0 (Background)
//Storyboard Layer 1 (Fail)
//Storyboard Layer 2 (Pass)
//Storyboard Layer 3 (Foreground)
//Storyboard Sound Samples

[TimingPoints]
71,279.06976744186,4,2,0,5,1,0
1188,279.06976744186,4,1,0,80,1,0
8071,-66.6666666666667,4,1,0,80,0,0
9187,-50,4,1,0,80,0,0
10118,-100,4,1,0,80,0,1

[HitObjects]
172,216,71,6,0,P|-8:36|-28:32,1,200
72,212,257,6,0,P|252:32|272:28,1,200
256,40,629,2,0,B|432:141|259:217|263:219|263:219|245:-21,1,400
432,192,1187,5,0,0:0:0:0:
356,192,1374,1,0,0:0:0:0:
312,192,1467,1,0,0:0:0:0:
80,192,1653,5,0,0:0:0:0:
120,192,1746,1,0,0:0:0:0:
200,192,1933,1,0,0:0:0:0:
180,108,2211,6,0,L|280:76,1,100
336,152,2490,2,0,L|242:41,1,100
196,244,2862,2,0,B|272:100|272:100|196:240|196:240|280:84,1,500
232,320,3606,5,0,0:0:0:0:
192,292,3699,1,0,0:0:0:0:
384,168,3885,1,0,0:0:0:0:
356,128,3978,1,0,0:0:0:0:
288,220,4164,1,0,0:0:0:0:
384,216,4443,5,0,0:0:0:0:
356,256,4536,1,0,0:0:0:0:
232,64,4722,1,0,0:0:0:0:
192,92,4815,1,0,0:0:0:0:
284,160,5001,1,0,0:0:0:0:
288,168,5094,6,0,B|288:260|428:192|432:32|432:32|520:256,1,500
256,288,5839,1,0,0:0:0:0:
256,288,5932,1,0,0:0:0:0:
256,96,6118,1,0,0:0:0:0:
256,96,6211,1,0,0:0:0:0:
256,288,6397,5,0,0:0:0:0:
160,192,6676,1,0,0:0:0:0:
160,192,6769,1,0,0:0:0:0:
352,192,6955,1,0,0:0:0:0:
352,192,7048,1,0,0:0:0:0:
256,288,7234,1,0,0:0:0:0:
100,300,7327,2,0,B|152:64|152:64|252:64|252:64|300:236,1,500
244,200,8094,5,0,0:0:0:0:
212,200,8163,5,0,0:0:0:0:
180,200,8233,5,0,0:0:0:0:
148,200,8303,5,0,0:0:0:0:
120,193,8373,5,0,0:0:0:0:
105,166,8442,5,0,0:0:0:0:
90,138,8512,5,0,0:0:0:0:
75,110,8582,5,0,0:0:0:0:
93,92,8652,5,0,0:0:0:0:
121,76,8721,5,0,0:0:0:0:
149,61,8791,5,0,0:0:0:0:
177,46,8861,5,0,0:0:0:0:
205,40,8931,5,0,0:0:0:0:
234,52,9000,5,0,0:0:0:0:
263,65,9070,5,0,0:0:0:0:
292,78,9140,5,0,0:0:0:0:
308,92,9187,6,0,L|184:284,1,200
321,90,9210,5,0,0:0:0:0:
350,103,9280,5,0,0:0:0:0:
379,115,9349,5,0,0:0:0:0:
379,147,9419,5,0,0:0:0:0:
378,179,9489,5,0,0:0:0:0:
378,211,9559,5,0,0:0:0:0:
377,242,9628,5,0,0:0:0:0:
377,274,9698,5,0,0:0:0:0:
376,292,9746,6,0,L|160:292,1,200
376,306,9768,5,0,0:0:0:0:
376,338,9838,5,0,0:0:0:0:
366,360,9907,5,0,0:0:0:0:
334,360,9977,5,0,0:0:0:0:
302,360,10047,5,0,0:0:0:0:
271,360,10117,5,0,0:0:0:0:
239,360,10187,5,0,0:0:0:0:
207,360,10256,5,0,0:0:0:0:
175,360,10326,5,0,0:0:0:0:
144,360,10396,5,0,0:0:0:0:
112,360,10466,5,0,0:0:0:0:
80,360,10535,5,0,0:0:0:0:
48,360,10605,5,0,0:0:0:0:
17,360,10675,5,0,0:0:0:0:
0,360,10745,5,0,0:0:0:0:
0,360,10814,5,0,0:0:0:0:
