osu file format v14

[General]
AudioFilename: audio.mp3
AudioLeadIn: 0
PreviewTime: 20133
Countdown: 0
SampleSet: Normal
StackLeniency: 0.7
Mode: 1
LetterboxInBreaks: 0
WidescreenStoryboard: 1

[Editor]
Bookmarks: 6800,20133,26800,33466,46800,53466
DistanceSpacing: 0.8
BeatDivisor: 4
GridSize: 32
TimelineZoom: 2.5

[Metadata]
Title:Eight Linear Sides
TitleUnicode:Eight Linear Sides
Artist:MowtenDoo
ArtistUnicode:MowtenDoo
Creator:cactusthegreat
Version:Futsugon
Source:
Tags:Jack Black Elmo daniwellP linear slope octagon dreambunny [Eve]
BeatmapID:1118699
BeatmapSetID:524286

[Difficulty]
HPDrainRate:6
CircleSize:2
OverallDifficulty:3
ApproachRate:3
SliderMultiplier:1.4
SliderTickRate:1

[Events]
//Background and Video events
0,0,"Untitled-1.jpg",0,0
//Break Periods
//Storyboard Layer 0 (Background)
//Storyboard Layer 1 (Fail)
//Storyboard Layer 2 (Pass)
//Storyboard Layer 3 (Foreground)
//Storyboard Sound Samples

[TimingPoints]
6800,416.666666666667,4,1,0,100,1,0
20133,-100,4,1,0,100,0,1
26800,-100,4,1,0,100,0,0
46800,-100,4,1,0,100,0,1
53466,-100,4,1,0,100,0,0

[HitObjects]
256,192,6800,5,12,0:0:0:0:
256,192,7633,1,0,0:0:0:0:
256,192,8466,1,8,0:0:0:0:
256,192,8883,1,0,0:0:0:0:
256,192,9300,1,8,0:0:0:0:
256,192,9508,1,0,0:0:0:0:
256,192,9716,1,8,0:0:0:0:
256,192,10133,1,0,0:0:0:0:
256,192,10966,1,8,0:0:0:0:
256,192,11800,1,0,0:0:0:0:
256,192,12216,1,8,0:0:0:0:
256,192,12425,1,0,0:0:0:0:
256,192,12633,1,8,0:0:0:0:
256,192,13466,1,8,0:0:0:0:
256,192,14300,1,0,0:0:0:0:
256,192,14508,1,8,0:0:0:0:
256,192,14716,1,0,0:0:0:0:
256,192,15133,1,8,0:0:0:0:
256,192,15966,1,0,0:0:0:0:
256,192,16175,1,0,0:0:0:0:
256,192,16383,1,8,0:0:0:0:
256,192,16800,1,8,0:0:0:0:
256,192,17633,1,0,0:0:0:0:
256,192,18466,1,8,0:0:0:0:
256,192,18570,1,8,0:0:0:0:
256,192,18883,1,0,0:0:0:0:
256,192,19300,1,8,0:0:0:0:
256,192,19508,1,0,0:0:0:0:
256,192,19716,1,0,0:0:0:0:
256,192,20133,1,8,0:0:0:0:
256,192,20341,1,0,0:0:0:0:
256,192,20445,1,0,0:0:0:0:
256,192,20654,1,8,0:0:0:0:
256,192,20966,1,0,0:0:0:0:
256,192,21383,1,8,0:0:0:0:
256,192,21800,1,8,0:0:0:0:
256,192,22008,1,0,0:0:0:0:
256,192,22112,1,0,0:0:0:0:
256,192,22321,1,8,0:0:0:0:
256,192,22633,1,8,0:0:0:0:
256,192,23050,1,0,0:0:0:0:
256,192,23466,1,8,0:0:0:0:
256,192,23674,1,0,0:0:0:0:
256,192,23778,1,0,0:0:0:0:
256,192,23987,1,8,0:0:0:0:
256,192,24300,1,0,0:0:0:0:
256,192,24716,1,8,0:0:0:0:
256,192,25133,1,8,0:0:0:0:
256,192,25341,1,0,0:0:0:0:
256,192,25550,1,0,0:0:0:0:
256,192,25966,1,8,0:0:0:0:
256,192,26175,1,0,0:0:0:0:
256,192,26383,1,0,0:0:0:0:
256,192,26800,1,12,0:0:0:0:
256,192,27008,1,8,0:0:0:0:
256,192,27216,1,0,0:0:0:0:
256,192,27633,1,8,0:0:0:0:
256,192,28050,1,0,0:0:0:0:
256,192,28466,1,8,0:0:0:0:
256,192,28883,1,8,0:0:0:0:
256,192,29091,1,0,0:0:0:0:
256,192,29300,1,8,0:0:0:0:
256,192,29716,1,0,0:0:0:0:
256,192,30133,1,8,0:0:0:0:
256,192,30550,1,0,0:0:0:0:
256,192,30966,1,8,0:0:0:0:
256,192,31175,1,8,0:0:0:0:
256,192,31800,1,0,0:0:0:0:
256,192,32216,1,0,0:0:0:0:
256,192,32633,1,8,0:0:0:0:
256,192,32841,1,8,0:0:0:0:
256,192,33050,1,0,0:0:0:0:
256,192,33466,5,12,0:0:0:0:
256,192,34299,1,0,0:0:0:0:
256,192,35132,1,8,0:0:0:0:
256,192,35549,1,0,0:0:0:0:
256,192,35966,1,8,0:0:0:0:
256,192,36174,1,8,0:0:0:0:
256,192,36382,1,0,0:0:0:0:
256,192,36799,1,0,0:0:0:0:
256,192,37632,1,8,0:0:0:0:
256,192,38466,1,0,0:0:0:0:
256,192,38882,1,0,0:0:0:0:
256,192,39091,1,8,0:0:0:0:
256,192,39299,1,8,0:0:0:0:
256,192,40132,1,8,0:0:0:0:
256,192,40966,1,0,0:0:0:0:
256,192,41174,1,8,0:0:0:0:
256,192,41382,1,0,0:0:0:0:
256,192,41799,1,8,0:0:0:0:
256,192,42632,1,8,0:0:0:0:
256,192,42841,1,8,0:0:0:0:
256,192,43049,1,0,0:0:0:0:
256,192,43466,1,8,0:0:0:0:
256,192,44299,1,0,0:0:0:0:
256,192,45132,1,8,0:0:0:0:
256,192,45236,1,8,0:0:0:0:
256,192,45549,1,0,0:0:0:0:
256,192,45966,1,8,0:0:0:0:
256,192,46174,1,0,0:0:0:0:
256,192,46383,1,8,0:0:0:0:
256,192,46799,1,8,0:0:0:0:
256,192,47007,1,0,0:0:0:0:
256,192,47111,1,0,0:0:0:0:
256,192,47320,1,8,0:0:0:0:
256,192,47632,1,0,0:0:0:0:
256,192,48049,1,8,0:0:0:0:
256,192,48466,1,8,0:0:0:0:
256,192,48674,1,0,0:0:0:0:
256,192,48778,1,0,0:0:0:0:
256,192,48987,1,8,0:0:0:0:
256,192,49299,1,8,0:0:0:0:
256,192,49716,1,0,0:0:0:0:
256,192,50132,1,8,0:0:0:0:
256,192,50340,1,0,0:0:0:0:
256,192,50444,1,0,0:0:0:0:
256,192,50653,1,8,0:0:0:0:
256,192,50966,1,0,0:0:0:0:
256,192,51382,1,8,0:0:0:0:
256,192,51799,1,8,0:0:0:0:
256,192,52007,1,0,0:0:0:0:
256,192,52216,1,0,0:0:0:0:
256,192,52632,1,8,0:0:0:0:
256,192,52841,1,0,0:0:0:0:
256,192,53049,1,0,0:0:0:0:
256,192,53466,1,12,0:0:0:0:
256,192,53674,1,8,0:0:0:0:
256,192,53882,1,0,0:0:0:0:
256,192,54299,1,8,0:0:0:0:
256,192,54716,1,0,0:0:0:0:
256,192,55132,1,8,0:0:0:0:
256,192,55549,1,8,0:0:0:0:
256,192,55757,1,0,0:0:0:0:
256,192,55966,1,8,0:0:0:0:
256,192,56382,1,0,0:0:0:0:
256,192,56799,1,8,0:0:0:0:
256,192,57216,1,0,0:0:0:0:
256,192,57632,1,8,0:0:0:0:
256,192,57841,1,8,0:0:0:0:
256,192,58466,1,0,0:0:0:0:
256,192,58882,1,0,0:0:0:0:
256,192,59299,1,8,0:0:0:0:
256,192,59507,1,8,0:0:0:0:
256,192,59716,1,0,0:0:0:0:
