osu file format v14

[General]
AudioFilename: audio.mp3
AudioLeadIn: 0
PreviewTime: 4577
Countdown: 0
SampleSet: None
StackLeniency: 0.3
Mode: 0
LetterboxInBreaks: 0
WidescreenStoryboard: 1

[Editor]
DistanceSpacing: 1.2
BeatDivisor: 4
GridSize: 8
TimelineZoom: 2.3

[Metadata]
Title:Do the mario
TitleUnicode:Do the mario
Artist:MowtenDoo
ArtistUnicode:MowtenDoo
Creator:doh000000000007
Version:Nande's Extra
Source:Super Mario Bros. Super Show!
Tags:meme, memes, Heatwave, Nande
BeatmapID:1831027
BeatmapSetID:840379

[Difficulty]
HPDrainRate:5
CircleSize:3.5
OverallDifficulty:7
ApproachRate:9
SliderMultiplier:1.80000000596046
SliderTickRate:1

[Events]
//Background and Video events
0,0,"maxresdefault.jpg",0,0
//Break Periods
//Storyboard Layer 0 (Background)
//Storyboard Layer 1 (Fail)
//Storyboard Layer 2 (Pass)
//Storyboard Layer 3 (Foreground)
//Storyboard Sound Samples

[TimingPoints]
106.470635675079,375,4,1,0,80,1,0
5356,-133.333333333333,4,1,0,30,0,0
5543,-133.333333333333,4,1,0,45,0,0
6106,-57.1428571428571,4,1,0,80,0,0
12106,-54.054054054054,4,1,0,80,0,0
14356,-100,4,1,0,80,0,0
15106,-54.054054054054,4,1,0,80,0,0
17356,-100,4,1,0,60,0,0
18106,-57.1428571428571,4,1,0,80,0,0
24106,-52.6315789473684,4,1,0,70,0,0
26356,-50,4,1,0,80,0,0
27106,-52.6315789473684,4,1,0,80,0,0

[HitObjects]
104,152,106,5,0,0:0:0:0:
104,152,200,1,0,0:0:0:0:
256,48,387,1,0,0:0:0:0:
384,192,575,1,0,0:0:0:0:
408,152,669,1,0,0:0:0:0:
408,296,856,5,0,0:0:0:0:
408,296,950,1,0,0:0:0:0:
256,192,1137,1,0,0:0:0:0:
128,336,1325,1,0,0:0:0:0:
104,296,1419,1,0,0:0:0:0:
256,352,1606,5,0,0:0:0:0:
256,352,1700,1,0,0:0:0:0:
360,192,1887,1,0,0:0:0:0:
446,362,2075,1,0,0:0:0:0:
407,335,2169,1,0,0:0:0:0:
256,240,2356,5,0,0:0:0:0:
256,240,2450,1,0,0:0:0:0:
152,80,2637,1,0,0:0:0:0:
66,250,2825,1,0,0:0:0:0:
105,223,2919,1,0,0:0:0:0:
256,112,3106,6,0,L|192:160,1,45.0000001490116
344,48,3387,1,0,0:0:0:0:
105,223,3575,1,0,0:0:0:0:
144,196,3669,1,0,0:0:0:0:
232,260,3856,6,0,L|296:308,1,45.0000001490116
144,196,4137,1,0,0:0:0:0:
383,371,4325,1,0,0:0:0:0:
344,344,4419,1,0,0:0:0:0:
400,192,4606,6,0,P|408:248|400:272,1,45.0000001490115
256,136,4887,1,0,0:0:0:0:
102,235,5075,2,0,P|104:213|112:192,1,45.0000001490115
256,344,5356,1,8,0:0:0:0:
288,336,5543,5,0,0:0:0:0:
304,320,5637,1,0,0:0:0:0:
328,336,5731,1,2,0:0:0:0:
352,320,5825,2,0,L|392:328,1,33.750001399219
464,192,6106,6,0,B|408:176|408:176|384:232|448:304,1,157.500002023577
312,248,6387,1,0,0:0:0:0:
224,200,6481,2,0,P|272:160|352:168,1,78.7500010117887
120,168,6668,6,0,B|111:213|135:253|135:253|111:293|151:341,1,157.500002023577
216,344,6950,1,0,0:0:0:0:
296,328,7043,1,0,0:0:0:0:
386,243,7137,2,0,P|346:235|298:259,1,78.7500010117887
296,328,7325,1,0,0:0:0:0:
190,267,7418,2,0,P|197:228|224:200,1,78.7500010117887
344,136,7606,5,8,0:0:0:0:
293,162,7700,2,0,L|176:226,1,78.7500010117887,8|0,0:0|0:0,0:0:0:0:
144,200,7887,1,0,0:0:0:0:
152,112,7981,2,0,P|216:144|224:192,1,78.7500010117887
322,256,8168,2,0,P|258:224|250:176,1,78.7500010117887
255,368,8356,5,2,0:0:0:0:
256,221,8543,1,2,0:0:0:0:
184,294,8731,1,2,0:0:0:0:
328,294,8918,1,2,0:0:0:0:
96,247,9106,6,0,P|151:193|159:117,1,157.500002023577
256,144,9387,1,0,0:0:0:0:
296,224,9481,2,0,P|257:238|208:214,1,78.7500010117887
353,117,9668,2,0,P|362:193|417:247,2,157.500002023577
159,117,10137,2,0,P|207:141|255:125,1,78.7500010117887
256,64,10325,1,0,0:0:0:0:
353,117,10418,2,0,P|305:141|257:125,1,78.7500010117887
96,248,10606,6,0,P|136:264|264:208,1,157.500002023577
256,144,10887,1,0,0:0:0:0:
269,234,10981,2,0,P|340:265|416:248,1,157.500002023577
456,176,11262,1,0,0:0:0:0:
370,183,11356,6,0,B|416:248|416:248|376:336,1,157.500002023577
296,328,11637,1,0,0:0:0:0:
213,285,11731,2,0,P|246:266|269:234,1,78.7500010117887,2|0,0:0|0:0,0:0:0:0:
304,168,11918,2,0,P|313:130|306:91,1,78.7500010117887,2|0,0:0|0:0,0:0:0:0:
160,80,12106,6,0,L|256:40,1,83.2499999580977
160,240,12293,2,0,L|120:144,1,83.2499999580977
312,248,12481,2,0,L|216:288,1,83.2499999580977
306,91,12668,2,0,L|346:187,1,83.2499999580977
139,200,12856,2,0,L|202:117,1,83.2499999580977
317,290,13043,2,0,L|213:276,1,83.2499999580977
372,97,13231,6,0,B|364:145|364:145|316:185,1,83.2499999580977,2|0,0:0|0:0,0:0:0:0:
440,192,13418,1,0,0:0:0:0:
408,280,13512,1,2,0:0:0:0:
317,290,13606,6,0,L|206:276,1,83.2499999580977
136,168,13793,2,0,L|247:182,1,83.2499999580977
399,56,13981,2,0,L|288:70,1,83.2499999580977
218,178,14168,2,0,L|329:164,1,83.2499999580977
56,48,14356,5,2,0:0:0:0:
136,168,14543,1,2,0:0:0:0:
220,47,14731,1,2,0:0:0:0:
300,167,14918,2,0,L|328:120,1,45.0000001490115
432,248,15106,6,0,L|392:321,1,83.2499999580977
300,167,15293,2,0,L|339:240,1,83.2499999580977
168,248,15481,2,0,L|207:321,1,83.2499999580977
184,120,15668,2,0,L|223:193,1,83.2499999580977
52,201,15856,2,0,L|91:274,1,83.2499999580977
96,128,16043,5,2,0:0:0:0:
134,48,16137,2,0,P|216:40|254:64,1,83.2499999580977,2|0,0:0|0:0,0:0:0:0:
184,120,16325,1,2,0:0:0:0:
288,72,16418,2,0,B|272:112|272:112|288:152,1,83.2499999580977
456,56,16606,6,0,L|353:114,1,83.2499999580977
286,150,16793,2,0,L|391:96,1,83.2499999580977
352,344,16981,2,0,L|247:290,1,83.2499999580977
182,250,17168,2,0,L|285:308,1,83.2499999580977
407,185,17356,6,0,L|439:241,1,45.0000001490115,2|0,0:0|0:0,0:0:0:0:
391,321,17543,2,0,L|335:353,1,45.0000001490115,2|0,0:0|0:0,0:0:0:0:
337,151,17731,2,0,L|399:167,1,45.0000001490115,2|0,0:0|0:0,0:0:0:0:
431,257,17918,2,0,L|414:319,1,45.0000001490115,2|0,0:0|0:0,0:0:0:0:
280,216,18106,6,0,B|248:176|248:128|280:88|280:88|224:64|208:104,1,157.500002023577
152,224,18387,2,0,P|96:288|72:296,1,78.7500010117887
64,192,18575,1,0,0:0:0:0:
190,132,18668,2,0,P|157:125|62:196,1,157.500002023577
104,288,18950,5,0,0:0:0:0:
144,304,19043,1,0,0:0:0:0:
184,320,19137,1,0,0:0:0:0:
280,280,19231,2,0,P|272:240|296:192,1,78.7500010117887
365,98,19418,2,0,P|373:138|349:186,1,78.7500010117887
384,296,19606,5,10,0:0:0:0:
424,272,19700,2,0,L|320:240,1,78.7500010117887,8|0,0:0|0:0,0:0:0:0:
120,152,19887,1,2,0:0:0:0:
96,192,19981,2,0,L|208:160,1,78.7500010117887,8|0,0:0|0:0,0:0:0:0:
361,173,20168,2,0,P|361:221|337:261,1,78.7500010117887,2|0,0:0|0:0,0:0:0:0:
376,48,20356,6,0,B|344:72|344:72|296:88,1,78.7500010117887,10|0,0:0|0:0,0:0:0:0:
136,128,20543,2,0,B|168:152|168:152|216:168,1,78.7500010117887,10|0,0:0|0:0,0:0:0:0:
368,208,20731,1,2,0:0:0:0:
152,288,20918,1,2,0:0:0:0:
416,272,21106,6,0,P|352:280|312:368,1,157.500002023577
392,352,21387,1,0,0:0:0:0:
416,272,21481,2,0,P|376:272|336:296,1,78.7500010117887
201,356,21668,6,0,P|170:287|96:272,1,157.500002023577
120,352,21950,1,0,0:0:0:0:
184,256,22043,2,0,B|184:208|168:184|168:184|208:168|232:104,1,157.500002023577,2|0,0:0|0:0,0:0:0:0:
352,200,22325,1,2,0:0:0:0:
416,144,22418,2,0,L|448:24,2,78.7500010117887,2|0|0,0:0|0:0|0:0,0:0:0:0:
256,48,22700,5,8,0:0:0:0:
357,61,22793,2,0,L|453:69,1,78.7500010117887,8|0,0:0|0:0,0:0:0:0:
152,32,22981,6,0,P|176:128|240:144,1,157.500002023577
256,48,23262,1,0,0:0:0:0:
312,128,23356,6,0,P|296:208|256:240,1,78.7500010117887
185,308,23543,2,0,P|221:292|248:264,1,78.7500010117887
104,224,23731,1,0,0:0:0:0:
180,211,23825,2,0,L|236:123,2,78.7500010117887
40,96,24106,6,0,B|88:64|88:64|176:64,1,85.4999980000256
298,112,24293,2,2,B|250:144|250:144|162:144,1,85.4999980000256
104,224,24481,1,2,0:0:0:0:
29,256,24575,1,2,0:0:0:0:
151,384,24668,6,0,L|199:272,1,85.4999980000256,2|0,0:0|0:0,0:0:0:0:
368,224,24856,2,0,L|247:238,1,85.4999980000256,0|2,0:0|0:0,0:0:0:0:
480,288,25043,1,2,0:0:0:0:
448,213,25137,1,2,0:0:0:0:
416,136,25231,6,0,L|295:150,1,85.4999980000256,0|2,0:0|0:0,0:0:0:0:
211,193,25418,2,0,L|296:184,1,85.4999980000256,0|2,0:0|0:0,0:0:0:0:
91,241,25606,2,0,L|176:232,1,85.4999980000256,0|2,0:0|0:0,0:0:0:0:
160,136,25793,1,0,0:0:0:0:
264,136,25887,2,2,B|296:184|296:184|305:319,1,170.999996000051
142,346,26168,2,0,P|198:298|270:306,1,85.4999980000256,2|0,0:0|0:0,0:0:0:0:
160,136,26356,6,0,B|144:104|144:104|128:88|128:88|104:40,1,90.000000298023,2|0,0:0|0:0,0:0:0:0:
304,296,26637,1,2,0:0:0:0:
208,296,26731,1,2,0:0:0:0:
398,59,26918,2,0,B|384:88|384:88|368:104|368:104|352:136,1,90.000000298023,6|0,0:0|0:0,0:0:0:0:
303,295,27106,6,0,P|321:334|354:361,1,85.4999980000256
402,200,27293,2,0,P|384:161|351:134,1,85.4999980000256,0|2,0:0|0:0,0:0:0:0:
237,343,27481,1,2,0:0:0:0:
303,295,27575,1,2,0:0:0:0:
224,184,27668,2,0,L|203:266,1,85.4999980000256,2|0,0:0|0:0,0:0:0:0:
120,288,27856,1,0,0:0:0:0:
104,200,27950,6,0,L|93:101,1,85.4999980000256,0|2,0:0|0:0,0:0:0:0:
172,74,28136,1,2,0:0:0:0:
256,61,28230,1,2,0:0:0:0:
339,77,28324,1,2,0:0:0:0:
411,118,28418,2,0,L|402:203,1,85.4999980000256,0|2,0:0|0:0,0:0:0:0:
256,248,28606,5,0,0:0:0:0:
214,167,28700,2,0,P|260:157|319:180,1,85.4999980000256
256,248,28887,1,0,0:0:0:0:
192,312,28981,2,0,L|88:376,1,85.4999980000256
141,122,29168,2,0,L|213:166,1,85.4999980000256
124,227,29356,5,2,0:0:0:0:
387,156,29543,1,2,0:0:0:0:
220,60,29731,1,2,0:0:0:0:
291,323,29918,1,4,0:0:0:0:
