osu file format v14

[General]
AudioFilename: audio.mp3
AudioLeadIn: 0
PreviewTime: 46615
Countdown: 0
SampleSet: Soft
StackLeniency: 0.7
Mode: 3
LetterboxInBreaks: 0
SpecialStyle: 0
WidescreenStoryboard: 1

[Editor]
DistanceSpacing: 1
BeatDivisor: 4
GridSize: 32
TimelineZoom: 2

[Metadata]
Title:Blend W
TitleUnicode:Blend W
Artist:MowtenDoo
ArtistUnicode:MowtenDoo
Creator:Shiina Yuuki
Version:poonS poonS
Source:ブレンド・W
Tags:Snoop Dogg parody smoke weed everyday edition ramli ln Blend Burendo S Ace Opening TV Size Appétit 和氣あず未 Azumi Waki 鬼頭明里 Akari Kitou 春野杏 Anzu Haruno y0c1e Hifumi, Inc. こだまさおり 一ノ瀬久 二家本亮介 菊地亮太 伊藤“三代”タカシ Kodama Saori Ichinose Hisa Niiemoto Ryousuke Kikuchi Ryouta Itou "Mitsuyo" Takashi
BeatmapID:1635678
BeatmapSetID:778815

[Difficulty]
HPDrainRate:10
CircleSize:4
OverallDifficulty:10
ApproachRate:5
SliderMultiplier:1.8
SliderTickRate:2

[Events]
//Background and Video events
0,0,"left.jpg",0,0
//Break Periods
//Storyboard Layer 0 (Background)
//Storyboard Layer 1 (Fail)
//Storyboard Layer 2 (Pass)
//Storyboard Layer 3 (Foreground)
//Storyboard Sound Samples

[TimingPoints]
37,394.736842105263,4,2,1,34,1,0

[HitObjects]
64,192,37,5,0,0:0:0:0:
192,192,135,1,0,0:0:0:0:
320,192,234,1,0,0:0:0:0:
448,192,234,1,0,0:0:0:0:
448,192,629,5,0,0:0:0:0:
64,192,629,1,0,0:0:0:0:
320,192,629,1,0,0:0:0:0:
192,192,727,1,0,0:0:0:0:
320,192,826,1,0,0:0:0:0:
448,192,826,1,0,0:0:0:0:
64,192,925,1,0,0:0:0:0:
192,192,1023,1,0,0:0:0:0:
448,192,1023,1,0,0:0:0:0:
320,192,1122,1,0,0:0:0:0:
192,192,1221,1,0,0:0:0:0:
64,192,1221,1,0,0:0:0:0:
448,192,1319,1,0,0:0:0:0:
320,192,1418,1,0,0:0:0:0:
192,192,1418,1,0,0:0:0:0:
64,192,1418,1,0,0:0:0:0:
448,192,1517,1,0,0:0:0:0:
320,192,1615,1,0,0:0:0:0:
192,192,1615,1,0,0:0:0:0:
64,192,1714,1,0,0:0:0:0:
192,192,1813,1,0,0:0:0:0:
320,192,1813,1,0,0:0:0:0:
448,192,1813,1,0,0:0:0:0:
64,192,1911,1,0,0:0:0:0:
192,192,2010,1,0,0:0:0:0:
448,192,2010,1,0,0:0:0:0:
320,192,2109,1,0,0:0:0:0:
64,192,2208,1,0,0:0:0:0:
192,192,2208,1,0,0:0:0:0:
320,192,2306,1,0,0:0:0:0:
192,192,2405,1,0,0:0:0:0:
64,192,2405,1,0,0:0:0:0:
448,192,2405,1,0,0:0:0:0:
320,192,2504,1,0,0:0:0:0:
448,192,2602,1,0,0:0:0:0:
64,192,2602,1,0,0:0:0:0:
192,192,2701,1,0,0:0:0:0:
320,192,2800,1,0,0:0:0:0:
448,192,2800,1,0,0:0:0:0:
64,192,2898,1,0,0:0:0:0:
192,192,2997,1,0,0:0:0:0:
448,192,2997,1,0,0:0:0:0:
320,192,3096,1,0,0:0:0:0:
64,192,3194,1,0,0:0:0:0:
448,192,3194,1,0,0:0:0:0:
192,192,3293,1,0,0:0:0:0:
64,192,3392,1,0,0:0:0:0:
320,192,3392,1,0,0:0:0:0:
448,192,3392,1,0,0:0:0:0:
192,192,3441,1,0,0:0:0:0:
320,192,3490,1,0,0:0:0:0:
448,192,3540,1,0,0:0:0:0:
64,192,3589,1,0,0:0:0:0:
192,192,3638,1,0,0:0:0:0:
320,192,3688,1,0,0:0:0:0:
448,192,3737,1,0,0:0:0:0:
192,192,3786,1,0,0:0:0:0:
64,192,3786,1,0,0:0:0:0:
448,192,3885,1,0,0:0:0:0:
320,192,3984,1,0,0:0:0:0:
192,192,3984,1,0,0:0:0:0:
64,192,4083,1,0,0:0:0:0:
448,192,4181,1,0,0:0:0:0:
192,192,4181,1,0,0:0:0:0:
320,192,4280,1,0,0:0:0:0:
192,192,4379,1,0,0:0:0:0:
64,192,4379,1,0,0:0:0:0:
448,192,4379,1,0,0:0:0:0:
320,192,4477,1,0,0:0:0:0:
192,192,4576,1,0,0:0:0:0:
64,192,4576,1,0,0:0:0:0:
320,192,4675,1,0,0:0:0:0:
448,192,4675,1,0,0:0:0:0:
192,192,4773,1,0,0:0:0:0:
64,192,4773,1,0,0:0:0:0:
320,192,4872,1,0,0:0:0:0:
448,192,4872,1,0,0:0:0:0:
192,192,4971,1,0,0:0:0:0:
64,192,4971,1,0,0:0:0:0:
448,192,5069,1,0,0:0:0:0:
320,192,5069,1,0,0:0:0:0:
64,192,5168,1,0,0:0:0:0:
192,192,5168,1,0,0:0:0:0:
320,192,5267,1,0,0:0:0:0:
448,192,5267,1,0,0:0:0:0:
64,192,5365,1,0,0:0:0:0:
192,192,5365,1,0,0:0:0:0:
320,192,5365,1,0,0:0:0:0:
448,192,5365,1,0,0:0:0:0:
192,192,5661,1,0,0:0:0:0:
64,192,5661,1,0,0:0:0:0:
320,192,5760,1,0,0:0:0:0:
448,192,5760,1,0,0:0:0:0:
192,192,5958,1,0,0:0:0:0:
64,192,6155,1,0,0:0:0:0:
320,192,6155,1,0,0:0:0:0:
320,192,6352,1,0,0:0:0:0:
448,192,6352,1,0,0:0:0:0:
448,192,6550,1,0,0:0:0:0:
64,192,6550,1,0,0:0:0:0:
192,192,6550,1,0,0:0:0:0:
64,192,6747,1,0,0:0:0:0:
448,192,6747,1,0,0:0:0:0:
192,192,6944,1,0,0:0:0:0:
320,192,6944,1,0,0:0:0:0:
448,192,6944,1,0,0:0:0:0:
64,192,6944,128,0,7734:0:0:0:0:
320,192,7142,1,0,0:0:0:0:
448,192,7142,128,0,7240:0:0:0:0:
192,192,7142,1,0,0:0:0:0:
448,192,7339,128,0,7438:0:0:0:0:
320,192,7339,128,0,7635:0:0:0:0:
448,192,7536,128,0,7635:0:0:0:0:
192,192,7536,128,0,7734:0:0:0:0:
448,192,7734,128,0,8030:0:0:0:0:
320,192,7734,1,0,0:0:0:0:
64,192,7931,1,0,0:0:0:0:
320,192,7931,1,0,0:0:0:0:
192,192,8030,128,0,8523:0:0:0:0:
320,192,8129,128,0,8227:0:0:0:0:
448,192,8129,128,0,8227:0:0:0:0:
448,192,8326,128,0,8523:0:0:0:0:
320,192,8326,1,0,0:0:0:0:
64,192,8326,1,0,0:0:0:0:
64,192,8523,128,0,8819:0:0:0:0:
320,192,8523,128,0,8622:0:0:0:0:
448,192,8721,128,0,8819:0:0:0:0:
320,192,8721,128,0,8819:0:0:0:0:
192,192,8721,1,0,0:0:0:0:
192,192,8918,1,0,0:0:0:0:
64,192,8918,1,0,0:0:0:0:
320,192,8918,128,0,9214:0:0:0:0:
448,192,8918,1,0,0:0:0:0:
448,192,9115,128,0,9214:0:0:0:0:
64,192,9115,128,0,9214:0:0:0:0:
448,192,9313,1,0,0:0:0:0:
320,192,9313,1,0,0:0:0:0:
192,192,9313,128,0,9708:0:0:0:0:
64,192,9313,1,0,0:0:0:0:
320,192,9510,128,0,9708:0:0:0:0:
448,192,9510,1,0,0:0:0:0:
64,192,9510,1,0,0:0:0:0:
448,192,9708,128,0,10004:0:0:0:0:
64,192,9708,1,0,0:0:0:0:
192,192,9905,128,0,10004:0:0:0:0:
64,192,9905,128,0,10004:0:0:0:0:
320,192,9905,1,0,0:0:0:0:
64,192,10102,128,0,10694:0:0:0:0:
448,192,10102,1,0,0:0:0:0:
320,192,10102,1,0,0:0:0:0:
192,192,10102,1,0,0:0:0:0:
320,192,10300,128,0,10497:0:0:0:0:
192,192,10300,128,0,10398:0:0:0:0:
448,192,10300,1,0,0:0:0:0:
448,192,10497,128,0,10596:0:0:0:0:
192,192,10497,1,0,0:0:0:0:
448,192,10694,1,0,0:0:0:0:
320,192,10694,1,0,0:0:0:0:
192,192,10793,1,0,0:0:0:0:
64,192,10793,1,0,0:0:0:0:
192,192,10892,128,0,10990:0:0:0:0:
64,192,10892,128,0,10990:0:0:0:0:
448,192,10892,1,0,0:0:0:0:
320,192,10892,128,0,11188:0:0:0:0:
192,192,11089,128,0,11188:0:0:0:0:
64,192,11089,128,0,11188:0:0:0:0:
448,192,11188,128,0,11583:0:0:0:0:
192,192,11286,1,0,0:0:0:0:
64,192,11286,1,0,0:0:0:0:
320,192,11484,1,0,0:0:0:0:
192,192,11484,128,0,11583:0:0:0:0:
64,192,11484,1,0,0:0:0:0:
320,192,11681,128,0,11780:0:0:0:0:
448,192,11681,128,0,11780:0:0:0:0:
192,192,11681,1,0,0:0:0:0:
64,192,11681,128,0,11977:0:0:0:0:
448,192,11879,1,0,0:0:0:0:
192,192,11879,1,0,0:0:0:0:
64,192,12076,128,0,12175:0:0:0:0:
448,192,12076,128,0,12372:0:0:0:0:
320,192,12076,1,0,0:0:0:0:
192,192,12076,128,0,12175:0:0:0:0:
320,192,12273,1,0,0:0:0:0:
64,192,12273,1,0,0:0:0:0:
448,192,12471,128,0,12569:0:0:0:0:
320,192,12471,128,0,12569:0:0:0:0:
192,192,12471,128,0,12767:0:0:0:0:
64,192,12471,1,0,0:0:0:0:
448,192,12668,1,0,0:0:0:0:
64,192,12668,1,0,0:0:0:0:
320,192,12767,1,0,0:0:0:0:
192,192,12865,1,0,0:0:0:0:
64,192,12865,1,0,0:0:0:0:
320,192,12964,1,0,0:0:0:0:
448,192,12964,1,0,0:0:0:0:
192,192,13063,1,0,0:0:0:0:
64,192,13063,1,0,0:0:0:0:
448,192,13161,1,0,0:0:0:0:
320,192,13161,1,0,0:0:0:0:
64,192,13260,128,0,14050:0:0:0:0:
320,192,13260,1,0,0:0:0:0:
448,192,13260,1,0,0:0:0:0:
192,192,13260,1,0,0:0:0:0:
320,192,13359,1,0,0:0:0:0:
448,192,13458,1,0,0:0:0:0:
192,192,13556,1,0,0:0:0:0:
448,192,13655,1,0,0:0:0:0:
320,192,13754,1,0,0:0:0:0:
192,192,13852,1,0,0:0:0:0:
448,192,13951,1,0,0:0:0:0:
320,192,14050,128,0,14839:0:0:0:0:
192,192,14050,1,0,0:0:0:0:
64,192,14148,1,0,0:0:0:0:
448,192,14247,1,0,0:0:0:0:
64,192,14346,1,0,0:0:0:0:
192,192,14444,1,0,0:0:0:0:
448,192,14543,1,0,0:0:0:0:
64,192,14642,1,0,0:0:0:0:
448,192,14740,1,0,0:0:0:0:
192,192,14839,128,0,15629:0:0:0:0:
64,192,14839,1,0,0:0:0:0:
448,192,14938,1,0,0:0:0:0:
320,192,15036,1,0,0:0:0:0:
64,192,15135,1,0,0:0:0:0:
448,192,15234,1,0,0:0:0:0:
320,192,15333,1,0,0:0:0:0:
64,192,15431,1,0,0:0:0:0:
320,192,15530,1,0,0:0:0:0:
448,192,15629,128,0,16221:0:0:0:0:
64,192,15629,1,0,0:0:0:0:
192,192,15727,1,0,0:0:0:0:
320,192,15826,1,0,0:0:0:0:
64,192,15925,1,0,0:0:0:0:
192,192,16023,1,0,0:0:0:0:
320,192,16122,1,0,0:0:0:0:
192,192,16221,128,0,16418:0:0:0:0:
64,192,16221,1,0,0:0:0:0:
448,192,16418,128,0,16714:0:0:0:0:
64,192,16418,1,0,0:0:0:0:
320,192,16418,1,0,0:0:0:0:
320,192,16615,1,0,0:0:0:0:
192,192,16615,1,0,0:0:0:0:
320,192,16813,128,0,16911:0:0:0:0:
64,192,16813,128,0,16911:0:0:0:0:
192,192,16813,128,0,16911:0:0:0:0:
448,192,16813,128,0,16911:0:0:0:0:
320,192,17010,128,0,17208:0:0:0:0:
448,192,17010,1,0,0:0:0:0:
64,192,17208,128,0,17504:0:0:0:0:
448,192,17208,1,0,0:0:0:0:
192,192,17208,1,0,0:0:0:0:
448,192,17405,1,0,0:0:0:0:
320,192,17405,1,0,0:0:0:0:
64,192,17602,128,0,17800:0:0:0:0:
448,192,17602,128,0,17800:0:0:0:0:
320,192,17602,128,0,17800:0:0:0:0:
192,192,17602,128,0,17800:0:0:0:0:
64,192,17997,1,0,0:0:0:0:
448,192,17997,1,0,0:0:0:0:
320,192,17997,1,0,0:0:0:0:
448,192,18194,1,0,0:0:0:0:
320,192,18194,1,0,0:0:0:0:
192,192,18194,1,0,0:0:0:0:
64,192,18194,1,0,0:0:0:0:
64,192,18490,1,0,0:0:0:0:
192,192,18490,1,0,0:0:0:0:
320,192,18490,1,0,0:0:0:0:
448,192,18490,1,0,0:0:0:0:
448,192,18786,128,0,19181:0:0:0:0:
320,192,18786,128,0,19181:0:0:0:0:
192,192,18786,128,0,19181:0:0:0:0:
64,192,18786,128,0,19181:0:0:0:0:
448,192,19576,1,0,0:0:0:0:
320,192,19576,1,0,0:0:0:0:
192,192,19576,1,0,0:0:0:0:
64,192,19576,1,0,0:0:0:0:
64,192,21155,1,0,0:0:0:0:
192,192,21155,1,0,0:0:0:0:
320,192,21155,1,0,0:0:0:0:
448,192,21155,1,0,0:0:0:0:
448,192,22734,1,0,0:0:0:0:
320,192,22734,1,0,0:0:0:0:
192,192,22734,1,0,0:0:0:0:
64,192,22734,1,0,0:0:0:0:
448,192,24313,128,0,24411:0:0:0:0:
320,192,24313,128,0,24411:0:0:0:0:
192,192,24313,128,0,24411:0:0:0:0:
64,192,24313,128,0,24411:0:0:0:0:
448,192,24905,128,0,25004:0:0:0:0:
64,192,24905,128,0,25004:0:0:0:0:
64,192,25102,1,0,0:0:0:0:
192,192,25102,1,0,0:0:0:0:
320,192,25102,1,0,0:0:0:0:
448,192,25102,1,0,0:0:0:0:
64,192,25398,1,0,0:0:0:0:
448,192,25398,1,0,0:0:0:0:
448,192,25497,1,0,0:0:0:0:
320,192,25497,1,0,0:0:0:0:
64,192,25497,1,0,0:0:0:0:
192,192,25694,1,0,0:0:0:0:
64,192,25694,1,0,0:0:0:0:
448,192,25793,1,0,0:0:0:0:
320,192,25793,1,0,0:0:0:0:
448,192,25892,128,0,25990:0:0:0:0:
192,192,25892,128,0,25990:0:0:0:0:
320,192,25892,128,0,25990:0:0:0:0:
64,192,25892,128,0,25990:0:0:0:0:
192,192,26089,1,0,0:0:0:0:
64,192,26089,1,0,0:0:0:0:
320,192,26188,1,0,0:0:0:0:
448,192,26188,1,0,0:0:0:0:
192,192,26286,1,0,0:0:0:0:
64,192,26286,1,0,0:0:0:0:
320,192,26385,1,0,0:0:0:0:
448,192,26385,1,0,0:0:0:0:
192,192,26484,1,0,0:0:0:0:
64,192,26484,1,0,0:0:0:0:
448,192,26681,1,0,0:0:0:0:
64,192,26681,1,0,0:0:0:0:
320,192,26780,1,0,0:0:0:0:
192,192,26780,1,0,0:0:0:0:
64,192,26879,1,0,0:0:0:0:
448,192,26879,1,0,0:0:0:0:
320,192,26977,1,0,0:0:0:0:
192,192,26977,1,0,0:0:0:0:
448,192,27076,1,0,0:0:0:0:
64,192,27076,1,0,0:0:0:0:
448,192,27273,1,0,0:0:0:0:
320,192,27273,1,0,0:0:0:0:
192,192,27372,1,0,0:0:0:0:
64,192,27372,1,0,0:0:0:0:
448,192,27471,128,0,27569:0:0:0:0:
320,192,27471,128,0,27569:0:0:0:0:
192,192,27471,128,0,27569:0:0:0:0:
64,192,27471,128,0,27569:0:0:0:0:
64,192,27668,1,0,0:0:0:0:
192,192,27717,1,0,0:0:0:0:
320,192,27767,1,0,0:0:0:0:
448,192,27816,1,0,0:0:0:0:
192,192,27865,1,0,0:0:0:0:
64,192,27865,1,0,0:0:0:0:
320,192,27964,1,0,0:0:0:0:
448,192,27964,1,0,0:0:0:0:
192,192,28063,1,0,0:0:0:0:
64,192,28063,1,0,0:0:0:0:
320,192,28161,1,0,0:0:0:0:
448,192,28161,1,0,0:0:0:0:
64,192,28260,1,0,0:0:0:0:
192,192,28260,1,0,0:0:0:0:
448,192,28458,1,0,0:0:0:0:
320,192,28458,1,0,0:0:0:0:
192,192,28556,1,0,0:0:0:0:
64,192,28556,1,0,0:0:0:0:
448,192,28655,1,0,0:0:0:0:
320,192,28655,1,0,0:0:0:0:
192,192,28754,1,0,0:0:0:0:
64,192,28754,1,0,0:0:0:0:
448,192,28852,1,0,0:0:0:0:
320,192,28885,1,0,0:0:0:0:
192,192,28918,1,0,0:0:0:0:
64,192,28951,1,0,0:0:0:0:
64,192,29050,128,0,29148:0:0:0:0:
192,192,29050,128,0,29148:0:0:0:0:
320,192,29050,128,0,29148:0:0:0:0:
448,192,29050,128,0,29148:0:0:0:0:
64,192,29247,1,0,0:0:0:0:
448,192,29247,1,0,0:0:0:0:
320,192,29346,1,0,0:0:0:0:
192,192,29346,1,0,0:0:0:0:
64,192,29444,1,0,0:0:0:0:
448,192,29444,1,0,0:0:0:0:
320,192,29543,1,0,0:0:0:0:
192,192,29543,1,0,0:0:0:0:
448,192,29642,1,0,0:0:0:0:
64,192,29642,1,0,0:0:0:0:
320,192,29740,1,0,0:0:0:0:
192,192,29740,1,0,0:0:0:0:
448,192,29839,128,0,29938:0:0:0:0:
320,192,29839,128,0,29938:0:0:0:0:
192,192,29839,128,0,29938:0:0:0:0:
64,192,29839,128,0,29938:0:0:0:0:
448,192,30234,1,0,0:0:0:0:
320,192,30234,1,0,0:0:0:0:
192,192,30333,1,0,0:0:0:0:
64,192,30333,1,0,0:0:0:0:
320,192,30431,1,0,0:0:0:0:
448,192,30431,1,0,0:0:0:0:
192,192,30530,1,0,0:0:0:0:
64,192,30530,1,0,0:0:0:0:
448,192,30629,128,0,30727:0:0:0:0:
320,192,30629,128,0,30727:0:0:0:0:
192,192,30629,128,0,30727:0:0:0:0:
64,192,30629,128,0,30727:0:0:0:0:
448,192,31221,1,0,0:0:0:0:
64,192,31221,1,0,0:0:0:0:
64,192,31418,128,0,31517:0:0:0:0:
192,192,31418,128,0,31517:0:0:0:0:
448,192,31418,128,0,31517:0:0:0:0:
320,192,31418,128,0,31517:0:0:0:0:
448,192,31714,1,0,0:0:0:0:
320,192,31714,1,0,0:0:0:0:
448,192,31813,1,0,0:0:0:0:
320,192,31813,1,0,0:0:0:0:
192,192,32010,1,0,0:0:0:0:
64,192,32010,1,0,0:0:0:0:
320,192,32109,1,0,0:0:0:0:
448,192,32109,1,0,0:0:0:0:
64,192,32208,1,0,0:0:0:0:
192,192,32208,1,0,0:0:0:0:
448,192,32208,1,0,0:0:0:0:
320,192,32306,1,0,0:0:0:0:
192,192,32405,1,0,0:0:0:0:
64,192,32504,1,0,0:0:0:0:
320,192,32504,1,0,0:0:0:0:
448,192,32504,1,0,0:0:0:0:
192,192,32602,1,0,0:0:0:0:
320,192,32701,1,0,0:0:0:0:
448,192,32800,1,0,0:0:0:0:
64,192,32800,1,0,0:0:0:0:
192,192,32898,1,0,0:0:0:0:
320,192,32997,1,0,0:0:0:0:
448,192,32997,1,0,0:0:0:0:
64,192,32997,1,0,0:0:0:0:
192,192,33096,1,0,0:0:0:0:
320,192,33194,1,0,0:0:0:0:
192,192,33293,1,0,0:0:0:0:
64,192,33293,1,0,0:0:0:0:
448,192,33293,1,0,0:0:0:0:
320,192,33392,1,0,0:0:0:0:
192,192,33490,1,0,0:0:0:0:
64,192,33589,1,0,0:0:0:0:
448,192,33589,1,0,0:0:0:0:
320,192,33688,1,0,0:0:0:0:
448,192,33786,1,0,0:0:0:0:
64,192,33786,1,0,0:0:0:0:
192,192,33885,1,0,0:0:0:0:
320,192,33984,1,0,0:0:0:0:
448,192,33984,1,0,0:0:0:0:
192,192,34083,1,0,0:0:0:0:
64,192,34181,1,0,0:0:0:0:
448,192,34181,1,0,0:0:0:0:
320,192,34280,1,0,0:0:0:0:
192,192,34379,1,0,0:0:0:0:
64,192,34379,1,0,0:0:0:0:
320,192,34477,1,0,0:0:0:0:
448,192,34576,1,0,0:0:0:0:
64,192,34576,1,0,0:0:0:0:
192,192,34675,1,0,0:0:0:0:
448,192,34773,1,0,0:0:0:0:
320,192,34773,1,0,0:0:0:0:
192,192,34872,1,0,0:0:0:0:
64,192,34971,1,0,0:0:0:0:
448,192,34971,1,0,0:0:0:0:
320,192,35069,1,0,0:0:0:0:
192,192,35168,1,0,0:0:0:0:
64,192,35168,1,0,0:0:0:0:
320,192,35267,1,0,0:0:0:0:
448,192,35365,1,0,0:0:0:0:
192,192,35365,1,0,0:0:0:0:
64,192,35365,1,0,0:0:0:0:
320,192,35464,1,0,0:0:0:0:
192,192,35563,1,0,0:0:0:0:
64,192,35661,1,0,0:0:0:0:
320,192,35661,1,0,0:0:0:0:
448,192,35661,1,0,0:0:0:0:
192,192,35760,1,0,0:0:0:0:
320,192,35859,1,0,0:0:0:0:
448,192,35958,1,0,0:0:0:0:
64,192,35958,1,0,0:0:0:0:
192,192,36056,1,0,0:0:0:0:
64,192,36155,1,0,0:0:0:0:
320,192,36155,1,0,0:0:0:0:
448,192,36155,1,0,0:0:0:0:
192,192,36254,1,0,0:0:0:0:
320,192,36352,1,0,0:0:0:0:
448,192,36451,1,0,0:0:0:0:
192,192,36451,1,0,0:0:0:0:
64,192,36451,1,0,0:0:0:0:
320,192,36550,1,0,0:0:0:0:
192,192,36648,1,0,0:0:0:0:
64,192,36747,1,0,0:0:0:0:
448,192,36747,1,0,0:0:0:0:
192,192,36846,1,0,0:0:0:0:
320,192,36944,128,0,37142:0:0:0:0:
448,192,36944,128,0,37043:0:0:0:0:
192,192,37043,128,0,37240:0:0:0:0:
448,192,37142,128,0,37438:0:0:0:0:
64,192,37142,128,0,37240:0:0:0:0:
320,192,37240,128,0,37438:0:0:0:0:
64,192,37339,128,0,37635:0:0:0:0:
192,192,37339,128,0,37635:0:0:0:0:
320,192,37536,128,0,37635:0:0:0:0:
448,192,37536,128,0,37635:0:0:0:0:
448,192,37734,1,0,0:0:0:0:
320,192,37734,1,0,0:0:0:0:
192,192,37734,1,0,0:0:0:0:
64,192,37734,1,0,0:0:0:0:
448,192,38129,128,0,38227:0:0:0:0:
192,192,38129,128,0,38227:0:0:0:0:
64,192,38129,128,0,38227:0:0:0:0:
320,192,38129,128,0,38227:0:0:0:0:
448,192,38523,1,0,0:0:0:0:
320,192,38523,1,0,0:0:0:0:
192,192,38523,1,0,0:0:0:0:
64,192,38523,1,0,0:0:0:0:
448,192,38721,1,0,0:0:0:0:
320,192,38721,1,0,0:0:0:0:
64,192,38721,1,0,0:0:0:0:
192,192,38819,1,0,0:0:0:0:
320,192,38918,1,0,0:0:0:0:
448,192,38918,1,0,0:0:0:0:
64,192,39017,1,0,0:0:0:0:
192,192,39115,1,0,0:0:0:0:
320,192,39115,1,0,0:0:0:0:
448,192,39115,1,0,0:0:0:0:
64,192,39214,1,0,0:0:0:0:
448,192,39313,1,0,0:0:0:0:
192,192,39313,1,0,0:0:0:0:
320,192,39411,1,0,0:0:0:0:
192,192,39510,1,0,0:0:0:0:
64,192,39510,1,0,0:0:0:0:
448,192,39510,1,0,0:0:0:0:
320,192,39609,1,0,0:0:0:0:
192,192,39708,1,0,0:0:0:0:
64,192,39708,1,0,0:0:0:0:
448,192,39806,1,0,0:0:0:0:
320,192,39905,1,0,0:0:0:0:
192,192,39905,1,0,0:0:0:0:
64,192,39905,1,0,0:0:0:0:
448,192,40004,1,0,0:0:0:0:
320,192,40102,1,0,0:0:0:0:
64,192,40102,1,0,0:0:0:0:
192,192,40201,1,0,0:0:0:0:
320,192,40300,1,0,0:0:0:0:
448,192,40300,1,0,0:0:0:0:
64,192,40300,1,0,0:0:0:0:
192,192,40398,1,0,0:0:0:0:
320,192,40497,1,0,0:0:0:0:
448,192,40497,1,0,0:0:0:0:
64,192,40596,1,0,0:0:0:0:
192,192,40694,1,0,0:0:0:0:
320,192,40694,1,0,0:0:0:0:
448,192,40694,1,0,0:0:0:0:
64,192,40793,1,0,0:0:0:0:
192,192,40892,1,0,0:0:0:0:
448,192,40892,1,0,0:0:0:0:
320,192,40990,1,0,0:0:0:0:
192,192,41089,1,0,0:0:0:0:
64,192,41089,1,0,0:0:0:0:
320,192,41188,1,0,0:0:0:0:
448,192,41188,1,0,0:0:0:0:
192,192,41286,1,0,0:0:0:0:
64,192,41286,1,0,0:0:0:0:
320,192,41385,1,0,0:0:0:0:
448,192,41385,1,0,0:0:0:0:
192,192,41484,1,0,0:0:0:0:
64,192,41484,1,0,0:0:0:0:
320,192,41583,1,0,0:0:0:0:
448,192,41583,1,0,0:0:0:0:
192,192,41681,1,0,0:0:0:0:
64,192,41681,1,0,0:0:0:0:
448,192,41681,128,0,41977:0:0:0:0:
320,192,41681,128,0,41977:0:0:0:0:
448,192,42076,1,0,0:0:0:0:
320,192,42076,1,0,0:0:0:0:
192,192,42076,128,0,42372:0:0:0:0:
64,192,42076,128,0,42372:0:0:0:0:
448,192,42471,1,0,0:0:0:0:
320,192,42471,1,0,0:0:0:0:
192,192,42471,1,0,0:0:0:0:
64,192,42471,1,0,0:0:0:0:
64,192,42668,1,0,0:0:0:0:
192,192,42668,1,0,0:0:0:0:
320,192,42767,1,0,0:0:0:0:
448,192,42767,1,0,0:0:0:0:
192,192,42865,1,0,0:0:0:0:
64,192,42865,1,0,0:0:0:0:
448,192,43063,1,0,0:0:0:0:
320,192,43063,1,0,0:0:0:0:
192,192,43063,128,0,43458:0:0:0:0:
64,192,43063,128,0,43458:0:0:0:0:
320,192,43458,1,0,0:0:0:0:
448,192,43458,1,0,0:0:0:0:
448,192,43655,128,0,43852:0:0:0:0:
320,192,43655,128,0,43852:0:0:0:0:
64,192,43655,128,0,43852:0:0:0:0:
192,192,43655,128,0,43852:0:0:0:0:
448,192,44050,1,0,0:0:0:0:
320,192,44050,1,0,0:0:0:0:
192,192,44050,1,0,0:0:0:0:
64,192,44050,1,0,0:0:0:0:
192,192,44148,1,0,0:0:0:0:
64,192,44148,1,0,0:0:0:0:
320,192,44247,1,0,0:0:0:0:
448,192,44247,1,0,0:0:0:0:
192,192,44346,1,0,0:0:0:0:
64,192,44346,1,0,0:0:0:0:
320,192,44444,1,0,0:0:0:0:
448,192,44444,1,0,0:0:0:0:
192,192,44543,1,0,0:0:0:0:
64,192,44543,1,0,0:0:0:0:
320,192,44642,1,0,0:0:0:0:
448,192,44642,1,0,0:0:0:0:
64,192,44740,1,0,0:0:0:0:
192,192,44740,1,0,0:0:0:0:
448,192,44790,1,0,0:0:0:0:
320,192,44839,1,0,0:0:0:0:
192,192,44888,1,0,0:0:0:0:
64,192,44938,1,0,0:0:0:0:
448,192,44987,1,0,0:0:0:0:
320,192,45036,1,0,0:0:0:0:
64,192,45086,1,0,0:0:0:0:
192,192,45135,1,0,0:0:0:0:
448,192,45185,1,0,0:0:0:0:
320,192,45234,1,0,0:0:0:0:
192,192,45283,1,0,0:0:0:0:
64,192,45333,1,0,0:0:0:0:
320,192,45382,1,0,0:0:0:0:
448,192,45431,1,0,0:0:0:0:
192,192,45481,1,0,0:0:0:0:
64,192,45530,1,0,0:0:0:0:
320,192,45579,1,0,0:0:0:0:
448,192,45629,1,0,0:0:0:0:
192,192,45678,1,0,0:0:0:0:
64,192,45727,1,0,0:0:0:0:
448,192,45777,1,0,0:0:0:0:
320,192,45826,1,0,0:0:0:0:
64,192,45875,1,0,0:0:0:0:
192,192,45925,1,0,0:0:0:0:
448,192,45974,1,0,0:0:0:0:
320,192,46023,1,0,0:0:0:0:
64,192,46073,1,0,0:0:0:0:
192,192,46122,1,0,0:0:0:0:
320,192,46171,1,0,0:0:0:0:
448,192,46221,1,0,0:0:0:0:
192,192,46319,1,0,0:0:0:0:
64,192,46319,1,0,0:0:0:0:
448,192,46418,1,0,0:0:0:0:
320,192,46418,1,0,0:0:0:0:
192,192,46418,1,0,0:0:0:0:
64,192,46418,1,0,0:0:0:0:
64,192,46615,1,0,0:0:0:0:
192,192,46665,1,0,0:0:0:0:
320,192,46714,1,0,0:0:0:0:
448,192,46763,1,0,0:0:0:0:
64,192,46813,1,0,0:0:0:0:
192,192,46862,1,0,0:0:0:0:
320,192,46911,1,0,0:0:0:0:
448,192,46961,1,0,0:0:0:0:
64,192,47010,1,0,0:0:0:0:
192,192,47060,1,0,0:0:0:0:
448,192,47109,1,0,0:0:0:0:
320,192,47158,1,0,0:0:0:0:
192,192,47208,1,0,0:0:0:0:
64,192,47257,1,0,0:0:0:0:
448,192,47306,1,0,0:0:0:0:
320,192,47356,1,0,0:0:0:0:
64,192,47405,1,0,0:0:0:0:
192,192,47454,1,0,0:0:0:0:
320,192,47504,1,0,0:0:0:0:
448,192,47553,1,0,0:0:0:0:
192,192,47602,1,0,0:0:0:0:
64,192,47652,1,0,0:0:0:0:
448,192,47701,128,0,47898:0:0:0:0:
320,192,47750,128,0,47898:0:0:0:0:
192,192,47800,128,0,47898:0:0:0:0:
64,192,47800,128,0,47898:0:0:0:0:
64,192,47997,1,0,0:0:0:0:
192,192,47997,1,0,0:0:0:0:
320,192,47997,1,0,0:0:0:0:
448,192,47997,1,0,0:0:0:0:
448,192,48194,1,0,0:0:0:0:
192,192,48194,1,0,0:0:0:0:
64,192,48194,1,0,0:0:0:0:
320,192,48293,1,0,0:0:0:0:
192,192,48392,1,0,0:0:0:0:
64,192,48392,1,0,0:0:0:0:
448,192,48490,1,0,0:0:0:0:
320,192,48589,1,0,0:0:0:0:
64,192,48589,1,0,0:0:0:0:
192,192,48688,1,0,0:0:0:0:
320,192,48786,1,0,0:0:0:0:
448,192,48786,1,0,0:0:0:0:
64,192,48786,1,0,0:0:0:0:
192,192,48885,1,0,0:0:0:0:
320,192,48984,1,0,0:0:0:0:
448,192,48984,1,0,0:0:0:0:
64,192,49083,1,0,0:0:0:0:
192,192,49181,1,0,0:0:0:0:
320,192,49181,1,0,0:0:0:0:
448,192,49181,1,0,0:0:0:0:
64,192,49280,1,0,0:0:0:0:
192,192,49379,1,0,0:0:0:0:
448,192,49379,1,0,0:0:0:0:
320,192,49477,1,0,0:0:0:0:
448,192,49576,1,0,0:0:0:0:
192,192,49576,1,0,0:0:0:0:
64,192,49576,1,0,0:0:0:0:
64,192,49773,1,0,0:0:0:0:
192,192,49773,1,0,0:0:0:0:
448,192,49773,1,0,0:0:0:0:
320,192,49971,1,0,0:0:0:0:
448,192,49971,1,0,0:0:0:0:
64,192,49971,1,0,0:0:0:0:
192,192,50069,1,0,0:0:0:0:
64,192,50168,1,0,0:0:0:0:
448,192,50168,1,0,0:0:0:0:
320,192,50267,1,0,0:0:0:0:
192,192,50365,1,0,0:0:0:0:
64,192,50365,1,0,0:0:0:0:
448,192,50365,1,0,0:0:0:0:
320,192,50464,1,0,0:0:0:0:
448,192,50563,1,0,0:0:0:0:
192,192,50563,1,0,0:0:0:0:
64,192,50563,1,0,0:0:0:0:
320,192,50661,1,0,0:0:0:0:
192,192,50760,1,0,0:0:0:0:
64,192,50760,1,0,0:0:0:0:
448,192,50760,1,0,0:0:0:0:
320,192,50958,1,0,0:0:0:0:
448,192,50958,1,0,0:0:0:0:
64,192,50958,1,0,0:0:0:0:
64,192,51155,1,0,0:0:0:0:
192,192,51155,1,0,0:0:0:0:
320,192,51155,1,0,0:0:0:0:
448,192,51155,1,0,0:0:0:0:
448,192,51352,1,0,0:0:0:0:
192,192,51352,1,0,0:0:0:0:
64,192,51352,1,0,0:0:0:0:
320,192,51550,1,0,0:0:0:0:
448,192,51550,1,0,0:0:0:0:
192,192,51648,1,0,0:0:0:0:
320,192,51747,1,0,0:0:0:0:
448,192,51747,1,0,0:0:0:0:
64,192,51747,1,0,0:0:0:0:
64,192,51944,1,0,0:0:0:0:
320,192,51944,1,0,0:0:0:0:
192,192,52043,1,0,0:0:0:0:
320,192,52142,1,0,0:0:0:0:
448,192,52142,1,0,0:0:0:0:
64,192,52142,1,0,0:0:0:0:
320,192,52339,1,0,0:0:0:0:
448,192,52339,1,0,0:0:0:0:
192,192,52438,1,0,0:0:0:0:
320,192,52536,1,0,0:0:0:0:
448,192,52536,1,0,0:0:0:0:
64,192,52536,1,0,0:0:0:0:
64,192,52734,1,0,0:0:0:0:
192,192,52734,1,0,0:0:0:0:
320,192,52734,1,0,0:0:0:0:
448,192,52734,1,0,0:0:0:0:
448,192,52931,1,0,0:0:0:0:
320,192,52931,1,0,0:0:0:0:
192,192,52931,1,0,0:0:0:0:
64,192,52931,1,0,0:0:0:0:
64,192,53129,1,0,0:0:0:0:
192,192,53129,1,0,0:0:0:0:
320,192,53129,1,0,0:0:0:0:
448,192,53129,1,0,0:0:0:0:
64,192,53326,1,0,0:0:0:0:
192,192,53326,1,0,0:0:0:0:
448,192,53326,1,0,0:0:0:0:
320,192,53326,1,0,0:0:0:0:
448,192,53523,1,0,0:0:0:0:
320,192,53523,1,0,0:0:0:0:
192,192,53523,1,0,0:0:0:0:
64,192,53523,1,0,0:0:0:0:
64,192,53721,1,0,0:0:0:0:
192,192,53721,1,0,0:0:0:0:
320,192,53819,1,0,0:0:0:0:
448,192,53819,1,0,0:0:0:0:
192,192,53918,1,0,0:0:0:0:
64,192,53918,1,0,0:0:0:0:
320,192,54017,1,0,0:0:0:0:
448,192,54017,1,0,0:0:0:0:
192,192,54115,1,0,0:0:0:0:
64,192,54115,1,0,0:0:0:0:
448,192,54214,1,0,0:0:0:0:
320,192,54214,1,0,0:0:0:0:
64,192,54313,1,0,0:0:0:0:
192,192,54313,1,0,0:0:0:0:
320,192,54313,1,0,0:0:0:0:
448,192,54313,1,0,0:0:0:0:
448,192,54510,1,0,0:0:0:0:
320,192,54510,1,0,0:0:0:0:
192,192,54510,1,0,0:0:0:0:
64,192,54708,1,0,0:0:0:0:
320,192,54708,1,0,0:0:0:0:
448,192,54708,1,0,0:0:0:0:
192,192,54905,1,0,0:0:0:0:
320,192,54905,1,0,0:0:0:0:
448,192,54905,1,0,0:0:0:0:
448,192,55102,1,0,0:0:0:0:
320,192,55102,1,0,0:0:0:0:
64,192,55102,1,0,0:0:0:0:
192,192,55300,1,0,0:0:0:0:
320,192,55300,1,0,0:0:0:0:
448,192,55300,1,0,0:0:0:0:
448,192,55497,1,0,0:0:0:0:
320,192,55497,1,0,0:0:0:0:
64,192,55497,1,0,0:0:0:0:
320,192,55694,1,0,0:0:0:0:
448,192,55694,1,0,0:0:0:0:
192,192,55694,1,0,0:0:0:0:
448,192,55892,1,0,0:0:0:0:
320,192,55892,1,0,0:0:0:0:
192,192,55892,1,0,0:0:0:0:
64,192,55892,1,0,0:0:0:0:
64,192,56089,1,0,0:0:0:0:
192,192,56089,1,0,0:0:0:0:
320,192,56089,1,0,0:0:0:0:
448,192,56286,1,0,0:0:0:0:
192,192,56286,1,0,0:0:0:0:
64,192,56286,1,0,0:0:0:0:
64,192,56484,1,0,0:0:0:0:
192,192,56484,1,0,0:0:0:0:
320,192,56484,1,0,0:0:0:0:
448,192,56681,1,0,0:0:0:0:
192,192,56681,1,0,0:0:0:0:
64,192,56681,1,0,0:0:0:0:
64,192,56879,1,0,0:0:0:0:
192,192,56879,1,0,0:0:0:0:
320,192,56879,1,0,0:0:0:0:
448,192,57076,1,0,0:0:0:0:
192,192,57076,1,0,0:0:0:0:
64,192,57076,1,0,0:0:0:0:
64,192,57273,1,0,0:0:0:0:
192,192,57273,1,0,0:0:0:0:
320,192,57273,1,0,0:0:0:0:
448,192,57471,1,0,0:0:0:0:
320,192,57471,1,0,0:0:0:0:
192,192,57471,1,0,0:0:0:0:
64,192,57471,1,0,0:0:0:0:
448,192,57668,1,0,0:0:0:0:
320,192,57668,1,0,0:0:0:0:
192,192,57668,1,0,0:0:0:0:
64,192,57668,1,0,0:0:0:0:
448,192,57865,128,0,57964:0:0:0:0:
320,192,57865,128,0,57964:0:0:0:0:
192,192,57865,128,0,57964:0:0:0:0:
64,192,57865,128,0,57964:0:0:0:0:
448,192,58260,1,0,0:0:0:0:
320,192,58260,1,0,0:0:0:0:
192,192,58260,1,0,0:0:0:0:
64,192,58260,1,0,0:0:0:0:
64,192,58458,1,0,0:0:0:0:
192,192,58458,1,0,0:0:0:0:
320,192,58458,1,0,0:0:0:0:
448,192,58458,1,0,0:0:0:0:
448,192,58655,128,0,58754:0:0:0:0:
320,192,58655,128,0,58754:0:0:0:0:
192,192,58655,128,0,58754:0:0:0:0:
64,192,58655,128,0,58754:0:0:0:0:
448,192,59050,1,0,0:0:0:0:
320,192,59050,1,0,0:0:0:0:
64,192,59050,1,0,0:0:0:0:
64,192,59247,1,0,0:0:0:0:
192,192,59247,1,0,0:0:0:0:
320,192,59346,1,0,0:0:0:0:
448,192,59346,1,0,0:0:0:0:
320,192,59444,1,0,0:0:0:0:
448,192,59444,1,0,0:0:0:0:
192,192,59444,1,0,0:0:0:0:
64,192,59444,1,0,0:0:0:0:
448,192,59642,1,0,0:0:0:0:
320,192,59642,1,0,0:0:0:0:
192,192,59642,1,0,0:0:0:0:
64,192,59642,1,0,0:0:0:0:
64,192,59839,1,0,0:0:0:0:
192,192,59839,1,0,0:0:0:0:
320,192,59839,1,0,0:0:0:0:
448,192,59839,1,0,0:0:0:0:
64,192,60036,1,0,0:0:0:0:
192,192,60036,1,0,0:0:0:0:
448,192,60036,1,0,0:0:0:0:
320,192,60135,1,0,0:0:0:0:
192,192,60234,1,0,0:0:0:0:
64,192,60234,1,0,0:0:0:0:
320,192,60333,1,0,0:0:0:0:
448,192,60333,1,0,0:0:0:0:
192,192,60431,1,0,0:0:0:0:
64,192,60431,1,0,0:0:0:0:
320,192,60530,1,0,0:0:0:0:
448,192,60530,1,0,0:0:0:0:
64,192,60629,1,0,0:0:0:0:
192,192,60629,1,0,0:0:0:0:
320,192,60629,1,0,0:0:0:0:
448,192,60629,1,0,0:0:0:0:
448,192,60826,1,0,0:0:0:0:
192,192,60826,1,0,0:0:0:0:
64,192,60826,1,0,0:0:0:0:
320,192,60925,1,0,0:0:0:0:
192,192,61023,1,0,0:0:0:0:
64,192,61023,1,0,0:0:0:0:
448,192,61122,1,0,0:0:0:0:
320,192,61221,1,0,0:0:0:0:
64,192,61221,1,0,0:0:0:0:
192,192,61319,1,0,0:0:0:0:
320,192,61418,1,0,0:0:0:0:
448,192,61418,1,0,0:0:0:0:
64,192,61418,1,0,0:0:0:0:
192,192,61517,1,0,0:0:0:0:
320,192,61615,1,0,0:0:0:0:
448,192,61615,1,0,0:0:0:0:
64,192,61714,1,0,0:0:0:0:
192,192,61813,1,0,0:0:0:0:
320,192,61813,1,0,0:0:0:0:
448,192,61813,1,0,0:0:0:0:
64,192,61911,1,0,0:0:0:0:
448,192,62010,1,0,0:0:0:0:
192,192,62010,1,0,0:0:0:0:
320,192,62109,1,0,0:0:0:0:
448,192,62208,1,0,0:0:0:0:
192,192,62208,1,0,0:0:0:0:
64,192,62208,1,0,0:0:0:0:
64,192,62405,1,0,0:0:0:0:
192,192,62405,1,0,0:0:0:0:
448,192,62405,1,0,0:0:0:0:
320,192,62602,1,0,0:0:0:0:
448,192,62602,1,0,0:0:0:0:
64,192,62602,1,0,0:0:0:0:
192,192,62701,1,0,0:0:0:0:
64,192,62800,1,0,0:0:0:0:
448,192,62800,1,0,0:0:0:0:
320,192,62898,1,0,0:0:0:0:
448,192,62997,1,0,0:0:0:0:
192,192,62997,1,0,0:0:0:0:
64,192,62997,1,0,0:0:0:0:
320,192,63096,1,0,0:0:0:0:
448,192,63194,1,0,0:0:0:0:
192,192,63194,1,0,0:0:0:0:
64,192,63194,1,0,0:0:0:0:
320,192,63293,1,0,0:0:0:0:
448,192,63392,1,0,0:0:0:0:
192,192,63392,1,0,0:0:0:0:
64,192,63392,1,0,0:0:0:0:
64,192,63589,1,0,0:0:0:0:
320,192,63589,1,0,0:0:0:0:
448,192,63589,1,0,0:0:0:0:
64,192,63786,1,0,0:0:0:0:
192,192,63786,1,0,0:0:0:0:
320,192,63786,1,0,0:0:0:0:
448,192,63786,1,0,0:0:0:0:
448,192,63984,1,0,0:0:0:0:
192,192,63984,1,0,0:0:0:0:
64,192,63984,1,0,0:0:0:0:
320,192,64181,1,0,0:0:0:0:
448,192,64181,1,0,0:0:0:0:
192,192,64280,1,0,0:0:0:0:
64,192,64379,1,0,0:0:0:0:
320,192,64379,1,0,0:0:0:0:
448,192,64379,1,0,0:0:0:0:
320,192,64576,1,0,0:0:0:0:
64,192,64576,1,0,0:0:0:0:
192,192,64675,1,0,0:0:0:0:
64,192,64773,1,0,0:0:0:0:
320,192,64773,1,0,0:0:0:0:
448,192,64773,1,0,0:0:0:0:
320,192,64971,1,0,0:0:0:0:
448,192,64971,1,0,0:0:0:0:
64,192,65069,1,0,0:0:0:0:
192,192,65069,1,0,0:0:0:0:
448,192,65168,1,0,0:0:0:0:
320,192,65168,1,0,0:0:0:0:
192,192,65267,1,0,0:0:0:0:
64,192,65267,1,0,0:0:0:0:
448,192,65365,128,0,65563:0:0:0:0:
64,192,65365,128,0,65563:0:0:0:0:
192,192,65365,128,0,65563:0:0:0:0:
320,192,65365,128,0,65563:0:0:0:0:
192,192,65760,128,0,65958:0:0:0:0:
64,192,65760,128,0,65958:0:0:0:0:
320,192,65760,128,0,65958:0:0:0:0:
448,192,65760,128,0,65958:0:0:0:0:
448,192,66155,1,0,0:0:0:0:
320,192,66155,1,0,0:0:0:0:
192,192,66155,1,0,0:0:0:0:
64,192,66155,1,0,0:0:0:0:
64,192,66352,1,0,0:0:0:0:
192,192,66352,1,0,0:0:0:0:
448,192,66451,1,0,0:0:0:0:
320,192,66451,1,0,0:0:0:0:
192,192,66550,1,0,0:0:0:0:
64,192,66550,1,0,0:0:0:0:
320,192,66648,1,0,0:0:0:0:
448,192,66648,1,0,0:0:0:0:
192,192,66747,1,0,0:0:0:0:
64,192,66747,1,0,0:0:0:0:
448,192,66846,1,0,0:0:0:0:
320,192,66846,1,0,0:0:0:0:
64,192,66944,1,0,0:0:0:0:
192,192,66944,1,0,0:0:0:0:
320,192,66944,1,0,0:0:0:0:
448,192,66944,1,0,0:0:0:0:
448,192,67142,1,0,0:0:0:0:
320,192,67142,1,0,0:0:0:0:
192,192,67142,1,0,0:0:0:0:
64,192,67339,1,0,0:0:0:0:
320,192,67339,1,0,0:0:0:0:
448,192,67339,1,0,0:0:0:0:
192,192,67536,1,0,0:0:0:0:
448,192,67536,1,0,0:0:0:0:
320,192,67536,1,0,0:0:0:0:
320,192,67734,1,0,0:0:0:0:
448,192,67734,1,0,0:0:0:0:
64,192,67734,1,0,0:0:0:0:
192,192,67931,1,0,0:0:0:0:
320,192,67931,1,0,0:0:0:0:
448,192,67931,1,0,0:0:0:0:
64,192,68129,1,0,0:0:0:0:
320,192,68129,1,0,0:0:0:0:
448,192,68129,1,0,0:0:0:0:
192,192,68326,1,0,0:0:0:0:
320,192,68326,1,0,0:0:0:0:
448,192,68326,1,0,0:0:0:0:
448,192,68523,1,0,0:0:0:0:
320,192,68523,1,0,0:0:0:0:
192,192,68523,1,0,0:0:0:0:
64,192,68523,1,0,0:0:0:0:
64,192,68721,1,0,0:0:0:0:
192,192,68721,1,0,0:0:0:0:
320,192,68721,1,0,0:0:0:0:
448,192,68918,1,0,0:0:0:0:
192,192,68918,1,0,0:0:0:0:
64,192,68918,1,0,0:0:0:0:
320,192,69115,1,0,0:0:0:0:
192,192,69115,1,0,0:0:0:0:
64,192,69115,1,0,0:0:0:0:
64,192,69313,1,0,0:0:0:0:
192,192,69313,1,0,0:0:0:0:
448,192,69313,1,0,0:0:0:0:
320,192,69510,1,0,0:0:0:0:
192,192,69510,1,0,0:0:0:0:
64,192,69510,1,0,0:0:0:0:
64,192,69708,1,0,0:0:0:0:
192,192,69708,1,0,0:0:0:0:
448,192,69708,1,0,0:0:0:0:
64,192,69905,1,0,0:0:0:0:
192,192,69905,1,0,0:0:0:0:
320,192,69905,1,0,0:0:0:0:
448,192,70102,128,0,70300:0:0:0:0:
320,192,70102,128,0,70300:0:0:0:0:
64,192,70102,128,0,70300:0:0:0:0:
192,192,70497,128,0,70694:0:0:0:0:
64,192,70497,128,0,70694:0:0:0:0:
448,192,70497,128,0,70694:0:0:0:0:
448,192,70892,128,0,70990:0:0:0:0:
320,192,70892,128,0,70990:0:0:0:0:
192,192,70892,128,0,70990:0:0:0:0:
64,192,70892,128,0,70990:0:0:0:0:
192,192,71089,1,0,0:0:0:0:
64,192,71089,1,0,0:0:0:0:
448,192,71188,1,0,0:0:0:0:
320,192,71188,1,0,0:0:0:0:
192,192,71286,1,0,0:0:0:0:
64,192,71286,1,0,0:0:0:0:
320,192,71484,1,0,0:0:0:0:
192,192,71484,1,0,0:0:0:0:
64,192,71484,1,0,0:0:0:0:
448,192,71484,128,0,72076:0:0:0:0:
192,192,71681,1,0,0:0:0:0:
64,192,71780,1,0,0:0:0:0:
320,192,71879,1,0,0:0:0:0:
192,192,71879,1,0,0:0:0:0:
320,192,72076,1,0,0:0:0:0:
192,192,72076,1,0,0:0:0:0:
64,192,72076,128,0,72471:0:0:0:0:
448,192,72175,1,0,0:0:0:0:
192,192,72273,128,0,72471:0:0:0:0:
448,192,72471,1,0,0:0:0:0:
320,192,72471,1,0,0:0:0:0:
192,192,72569,1,0,0:0:0:0:
64,192,72569,1,0,0:0:0:0:
448,192,72668,1,0,0:0:0:0:
320,192,72668,1,0,0:0:0:0:
192,192,72767,1,0,0:0:0:0:
64,192,72767,1,0,0:0:0:0:
320,192,72865,1,0,0:0:0:0:
448,192,72865,1,0,0:0:0:0:
192,192,72964,1,0,0:0:0:0:
64,192,72964,1,0,0:0:0:0:
320,192,73063,1,0,0:0:0:0:
448,192,73063,1,0,0:0:0:0:
192,192,73161,1,0,0:0:0:0:
64,192,73161,1,0,0:0:0:0:
64,192,73260,1,0,0:0:0:0:
192,192,73260,1,0,0:0:0:0:
320,192,73260,1,0,0:0:0:0:
448,192,73260,1,0,0:0:0:0:
448,192,73458,1,0,0:0:0:0:
64,192,73458,1,0,0:0:0:0:
320,192,73556,1,0,0:0:0:0:
192,192,73655,1,0,0:0:0:0:
64,192,73655,1,0,0:0:0:0:
448,192,73754,1,0,0:0:0:0:
320,192,73852,1,0,0:0:0:0:
192,192,73852,1,0,0:0:0:0:
64,192,73951,1,0,0:0:0:0:
320,192,74050,1,0,0:0:0:0:
448,192,74050,1,0,0:0:0:0:
64,192,74148,1,0,0:0:0:0:
192,192,74247,1,0,0:0:0:0:
320,192,74247,1,0,0:0:0:0:
448,192,74346,1,0,0:0:0:0:
320,192,74444,1,0,0:0:0:0:
64,192,74444,1,0,0:0:0:0:
192,192,74543,1,0,0:0:0:0:
320,192,74642,1,0,0:0:0:0:
448,192,74642,1,0,0:0:0:0:
64,192,74740,1,0,0:0:0:0:
192,192,74839,1,0,0:0:0:0:
448,192,74839,1,0,0:0:0:0:
320,192,74938,1,0,0:0:0:0:
192,192,75036,1,0,0:0:0:0:
64,192,75036,1,0,0:0:0:0:
448,192,75135,1,0,0:0:0:0:
320,192,75234,1,0,0:0:0:0:
64,192,75234,1,0,0:0:0:0:
192,192,75333,1,0,0:0:0:0:
320,192,75431,1,0,0:0:0:0:
448,192,75431,1,0,0:0:0:0:
64,192,75530,1,0,0:0:0:0:
192,192,75629,1,0,0:0:0:0:
320,192,75629,1,0,0:0:0:0:
448,192,75727,1,0,0:0:0:0:
64,192,75826,1,0,0:0:0:0:
192,192,75826,1,0,0:0:0:0:
448,192,75925,1,0,0:0:0:0:
320,192,75925,1,0,0:0:0:0:
320,192,76023,1,0,0:0:0:0:
448,192,76023,1,0,0:0:0:0:
192,192,76122,1,0,0:0:0:0:
64,192,76122,1,0,0:0:0:0:
320,192,76221,1,0,0:0:0:0:
448,192,76221,1,0,0:0:0:0:
192,192,76319,1,0,0:0:0:0:
64,192,76319,1,0,0:0:0:0:
448,192,76418,128,0,76517:0:0:0:0:
320,192,76418,128,0,76517:0:0:0:0:
192,192,76418,128,0,76517:0:0:0:0:
64,192,76418,128,0,76517:0:0:0:0:
64,192,76714,128,0,76813:0:0:0:0:
192,192,76714,128,0,76813:0:0:0:0:
320,192,76714,128,0,76813:0:0:0:0:
448,192,76714,128,0,76813:0:0:0:0:
448,192,77010,128,0,77109:0:0:0:0:
320,192,77010,128,0,77109:0:0:0:0:
192,192,77010,128,0,77109:0:0:0:0:
64,192,77010,128,0,77109:0:0:0:0:
448,192,77405,128,0,77701:0:0:0:0:
320,192,77405,128,0,77701:0:0:0:0:
192,192,77602,128,0,77898:0:0:0:0:
64,192,77602,128,0,77898:0:0:0:0:
448,192,77800,128,0,77898:0:0:0:0:
320,192,77800,128,0,77898:0:0:0:0:
448,192,77997,128,0,78096:0:0:0:0:
320,192,77997,128,0,78096:0:0:0:0:
192,192,77997,128,0,78096:0:0:0:0:
64,192,77997,128,0,78096:0:0:0:0:
64,192,78293,128,0,78392:0:0:0:0:
192,192,78293,128,0,78392:0:0:0:0:
320,192,78293,128,0,78392:0:0:0:0:
448,192,78293,128,0,78392:0:0:0:0:
448,192,78589,128,0,78688:0:0:0:0:
320,192,78589,128,0,78688:0:0:0:0:
192,192,78589,128,0,78688:0:0:0:0:
64,192,78589,128,0,78688:0:0:0:0:
192,192,78984,128,0,79280:0:0:0:0:
64,192,78984,128,0,79280:0:0:0:0:
320,192,79181,128,0,79477:0:0:0:0:
448,192,79181,128,0,79477:0:0:0:0:
192,192,79379,128,0,79477:0:0:0:0:
64,192,79379,128,0,79477:0:0:0:0:
448,192,79576,1,0,0:0:0:0:
320,192,79576,1,0,0:0:0:0:
192,192,79576,1,0,0:0:0:0:
64,192,79576,1,0,0:0:0:0:
64,192,79773,1,0,0:0:0:0:
448,192,79773,1,0,0:0:0:0:
320,192,79872,1,0,0:0:0:0:
192,192,79971,1,0,0:0:0:0:
64,192,79971,1,0,0:0:0:0:
448,192,80069,1,0,0:0:0:0:
320,192,80168,1,0,0:0:0:0:
192,192,80168,1,0,0:0:0:0:
64,192,80267,1,0,0:0:0:0:
320,192,80365,1,0,0:0:0:0:
448,192,80365,1,0,0:0:0:0:
64,192,80464,1,0,0:0:0:0:
192,192,80563,1,0,0:0:0:0:
320,192,80563,1,0,0:0:0:0:
448,192,80661,1,0,0:0:0:0:
320,192,80760,1,0,0:0:0:0:
64,192,80760,1,0,0:0:0:0:
192,192,80859,1,0,0:0:0:0:
320,192,80958,1,0,0:0:0:0:
448,192,80958,1,0,0:0:0:0:
64,192,81056,1,0,0:0:0:0:
448,192,81155,1,0,0:0:0:0:
192,192,81155,1,0,0:0:0:0:
320,192,81254,1,0,0:0:0:0:
192,192,81352,1,0,0:0:0:0:
64,192,81352,1,0,0:0:0:0:
448,192,81451,1,0,0:0:0:0:
320,192,81550,1,0,0:0:0:0:
64,192,81550,1,0,0:0:0:0:
192,192,81648,1,0,0:0:0:0:
320,192,81747,1,0,0:0:0:0:
448,192,81747,1,0,0:0:0:0:
64,192,81846,1,0,0:0:0:0:
192,192,81944,1,0,0:0:0:0:
320,192,81944,1,0,0:0:0:0:
448,192,82043,1,0,0:0:0:0:
192,192,82142,1,0,0:0:0:0:
64,192,82142,1,0,0:0:0:0:
448,192,82240,1,0,0:0:0:0:
320,192,82240,1,0,0:0:0:0:
192,192,82339,1,0,0:0:0:0:
64,192,82339,1,0,0:0:0:0:
320,192,82438,1,0,0:0:0:0:
448,192,82438,1,0,0:0:0:0:
192,192,82536,1,0,0:0:0:0:
64,192,82536,1,0,0:0:0:0:
448,192,82635,1,0,0:0:0:0:
320,192,82635,1,0,0:0:0:0:
64,192,82734,1,0,0:0:0:0:
192,192,82734,1,0,0:0:0:0:
320,192,82734,1,0,0:0:0:0:
448,192,82734,1,0,0:0:0:0:
448,192,83129,128,0,83227:0:0:0:0:
320,192,83129,128,0,83227:0:0:0:0:
64,192,83129,128,0,83227:0:0:0:0:
448,192,83326,1,0,0:0:0:0:
320,192,83326,1,0,0:0:0:0:
192,192,83425,1,0,0:0:0:0:
64,192,83425,1,0,0:0:0:0:
64,192,83523,1,0,0:0:0:0:
320,192,83523,1,0,0:0:0:0:
448,192,83523,1,0,0:0:0:0:
192,192,83523,1,0,0:0:0:0:
448,192,83918,128,0,84017:0:0:0:0:
192,192,83918,128,0,84017:0:0:0:0:
64,192,83918,128,0,84017:0:0:0:0:
192,192,84115,1,0,0:0:0:0:
64,192,84115,1,0,0:0:0:0:
320,192,84214,1,0,0:0:0:0:
448,192,84214,1,0,0:0:0:0:
64,192,84313,1,0,0:0:0:0:
192,192,84313,1,0,0:0:0:0:
320,192,84313,1,0,0:0:0:0:
448,192,84313,1,0,0:0:0:0:
192,192,84510,1,0,0:0:0:0:
64,192,84510,1,0,0:0:0:0:
320,192,84609,1,0,0:0:0:0:
448,192,84609,1,0,0:0:0:0:
192,192,84708,1,0,0:0:0:0:
64,192,84708,1,0,0:0:0:0:
320,192,84806,1,0,0:0:0:0:
448,192,84806,1,0,0:0:0:0:
64,192,84905,1,0,0:0:0:0:
192,192,84905,1,0,0:0:0:0:
320,192,85004,1,0,0:0:0:0:
448,192,85004,1,0,0:0:0:0:
192,192,85102,1,0,0:0:0:0:
64,192,85102,1,0,0:0:0:0:
320,192,85102,1,0,0:0:0:0:
448,192,85102,1,0,0:0:0:0:
448,192,85201,1,0,0:0:0:0:
320,192,85201,1,0,0:0:0:0:
192,192,85300,1,0,0:0:0:0:
64,192,85300,1,0,0:0:0:0:
320,192,85398,1,0,0:0:0:0:
448,192,85398,1,0,0:0:0:0:
192,192,85497,1,0,0:0:0:0:
64,192,85497,1,0,0:0:0:0:
320,192,85596,1,0,0:0:0:0:
448,192,85596,1,0,0:0:0:0:
192,192,85694,1,0,0:0:0:0:
64,192,85694,1,0,0:0:0:0:
320,192,85793,1,0,0:0:0:0:
448,192,85793,1,0,0:0:0:0:
448,192,85892,1,0,0:0:0:0:
320,192,85892,1,0,0:0:0:0:
192,192,85892,1,0,0:0:0:0:
64,192,85892,1,0,0:0:0:0:
448,192,86286,128,0,86385:0:0:0:0:
64,192,86286,128,0,86385:0:0:0:0:
192,192,86286,128,0,86385:0:0:0:0:
448,192,86681,1,0,0:0:0:0:
320,192,86681,1,0,0:0:0:0:
192,192,86681,1,0,0:0:0:0:
64,192,86681,1,0,0:0:0:0:
320,192,87076,128,0,87175:0:0:0:0:
64,192,87076,128,0,87175:0:0:0:0:
448,192,87076,128,0,87175:0:0:0:0:
448,192,87471,1,0,0:0:0:0:
64,192,87471,1,0,0:0:0:0:
448,192,87668,128,0,87767:0:0:0:0:
320,192,87668,128,0,87767:0:0:0:0:
192,192,87668,128,0,87767:0:0:0:0:
64,192,87668,128,0,87767:0:0:0:0:
64,192,87964,128,0,88063:0:0:0:0:
320,192,87964,128,0,88063:0:0:0:0:
192,192,87964,128,0,88063:0:0:0:0:
448,192,87964,128,0,88063:0:0:0:0:
448,192,88260,128,0,88458:0:0:0:0:
320,192,88260,128,0,88556:0:0:0:0:
192,192,88260,128,0,88655:0:0:0:0:
64,192,88260,128,0,88754:0:0:0:0:
448,192,88556,128,0,89050:0:0:0:0:
320,192,88655,128,0,89050:0:0:0:0:
192,192,88754,128,0,89050:0:0:0:0:
64,192,88852,128,0,89050:0:0:0:0:
