osu file format v14

[General]
AudioFilename: audio.mp3
AudioLeadIn: 0
PreviewTime: 46615
Countdown: 0
SampleSet: None
StackLeniency: 0.7
Mode: 3
LetterboxInBreaks: 0
SpecialStyle: 0
WidescreenStoryboard: 0

[Editor]
DistanceSpacing: 1
BeatDivisor: 4
GridSize: 32
TimelineZoom: 2

[Metadata]
Title:Blend W
TitleUnicode:Blend W
Artist:MowtenDoo
ArtistUnicode:MowtenDoo
Creator:Shiina Yuuki
Version:Snoop Snoop
Source:ブレンド・W
Tags:Snoop Dogg parody smoke weed everyday edition ramli ln Blend Burendo S Ace Opening TV Size Appétit 和氣あず未 Azumi Waki 鬼頭明里 Akari Kitou 春野杏 Anzu Haruno y0c1e Hifumi, Inc. こだまさおり 一ノ瀬久 二家本亮介 菊地亮太 伊藤“三代”タカシ Kodama Saori Ichinose Hisa Niiemoto Ryousuke Kikuchi Ryouta Itou "Mitsuyo" Takashi
BeatmapID:1635680
BeatmapSetID:778815

[Difficulty]
HPDrainRate:8
CircleSize:4
OverallDifficulty:0
ApproachRate:5
SliderMultiplier:1.8
SliderTickRate:2

[Events]
//Background and Video events
0,0,"leftbgbgbg.jpg",0,0
//Break Periods
//Storyboard Layer 0 (Background)
//Storyboard Layer 1 (Fail)
//Storyboard Layer 2 (Pass)
//Storyboard Layer 3 (Foreground)
//Storyboard Sound Samples

[TimingPoints]
37,394.736842105263,4,2,1,34,1,0
6846,-66.6666666666667,4,2,1,34,0,0
6944,-100,4,2,1,34,0,0
16714,-66.6666666666667,4,2,1,34,0,0
16813,-100,4,2,1,34,0,0
17504,-66.6666666666667,4,2,1,34,0,0
17602,-200,4,2,1,34,0,0
17800,-100,4,2,1,34,0,0
18195,-333.333333333333,4,3,1,30,0,0
18393,-76.9230769230769,4,3,1,30,0,0
18491,-333.333333333333,4,3,1,30,0,0
18689,-76.9230769230769,4,3,1,30,0,0
18787,-333.333333333333,4,3,1,30,0,0
19182,-1000,4,3,1,30,0,0
19379,-50,4,3,1,30,0,0
19577,-333.333333333333,4,3,1,30,0,0
20366,-50,4,3,1,30,0,0
20958,-333.333333333333,4,3,1,30,0,0
21945,-50,4,3,1,30,0,0
22537,-333.333333333333,4,3,1,30,0,0
23524,-50,4,3,1,30,0,0
24116,-333.333333333333,4,3,1,30,0,0
24314,-100,4,3,1,30,0,0
24906,-333.333333333333,4,3,1,30,0,0
25004,-76.9230769230769,4,3,1,30,0,0
25103,-333.333333333333,4,3,1,30,0,0
25202,-100,4,3,1,30,0,0
25893,-76.9230769230769,4,3,1,30,0,0
25991,-100,4,3,1,30,0,0
27472,-76.9230769230769,4,3,1,30,0,0
27570,-100,4,3,1,30,0,0
29051,-76.9230769230769,4,3,1,30,0,0
29149,-100,4,3,1,30,0,0
29840,-76.9230769230769,4,3,1,30,0,0
29939,-100,4,3,1,30,0,0
30629,-76.9230769230769,4,3,1,30,0,0
30728,-100,4,3,1,30,0,0
31419,-76.9230769230769,4,3,1,30,0,0
31518,-100,4,3,1,30,0,0
37636,-76.9230769230769,4,3,1,30,0,0
37932,-333.333333333333,4,3,1,30,0,0
38129,-76.9230769230769,4,3,1,30,0,0
38327,-333.333333333333,4,3,1,30,0,0
38524,-76.9230769230769,4,3,1,30,0,0
38722,-100,4,3,1,30,0,0
41682,-76.9230769230769,4,3,1,30,0,0
41879,-333.333333333333,4,3,1,30,0,0
41978,-100,4,3,1,30,0,0
42077,-76.9230769230769,4,3,1,30,0,0
42274,-333.333333333333,4,3,1,30,0,0
42373,-100,4,3,1,30,0,0
42472,-76.9230769230769,4,3,1,30,0,0
42669,-100,4,3,1,30,0,0
43064,-76.9230769230769,4,3,1,30,0,0
43261,-333.333333333333,4,3,1,30,0,0
43458,-100,4,3,1,30,0,0
43656,-76.9230769230769,4,3,1,30,0,0
43853,-333.333333333333,4,3,1,30,0,0
44051,-100,4,3,1,30,0,0
47998,-76.9230769230769,4,3,1,30,0,0
48097,-100,4,3,1,30,0,0
51156,-76.9230769230769,4,3,1,30,0,0
51254,-100,4,3,1,30,0,0
52735,-76.9230769230769,4,3,1,30,0,0
52833,-333.333333333333,4,3,1,30,0,0
52932,-100,4,3,1,30,0,0
53129,-76.9230769230769,4,3,1,30,0,0
53228,-333.333333333333,4,3,1,30,0,0
53327,-100,4,3,1,30,0,0
53524,-76.9230769230769,4,3,1,30,0,0
53623,-333.333333333333,4,3,1,30,0,0
53722,-100,4,3,1,30,0,0
57472,-333.333333333333,4,3,1,30,0,0
57570,-76.9230769230769,4,3,1,30,0,0
57669,-333.333333333333,4,3,1,30,0,0
57768,-76.9230769230769,4,3,1,30,0,0
57866,-333.333333333333,4,3,1,30,0,0
58064,-50,4,3,1,30,0,0
58261,-333.333333333333,4,3,1,30,0,0
58360,-76.9230769230769,4,3,1,30,0,0
58458,-333.333333333333,4,3,1,30,0,0
58557,-76.9230769230769,4,3,1,30,0,0
58656,-333.333333333333,4,3,1,30,0,0
58853,-50,4,3,1,30,0,0
59051,-333.333333333333,4,3,1,30,0,0
59149,-76.9230769230769,4,3,1,30,0,0
59248,-100,4,3,1,30,0,0
60629,-76.9230769230769,4,3,1,30,0,0
60728,-100,4,3,1,30,0,0
63787,-76.9230769230769,4,3,1,30,0,0
63886,-100,4,3,1,30,0,0
65366,-333.333333333333,4,3,1,30,0,0
65465,-76.9230769230769,4,3,1,30,0,0
65761,-333.333333333333,4,3,1,30,0,0
65860,-76.9230769230769,4,3,1,30,0,0
66156,-333.333333333333,4,3,1,30,0,0
66254,-76.9230769230769,4,3,1,30,0,0
66353,-100,4,3,1,30,0,0
70103,-333.333333333333,4,3,1,30,0,0
70301,-50,4,3,1,30,0,0
70498,-333.333333333333,4,3,1,30,0,0
70695,-50,4,3,1,30,0,0
70893,-333.333333333333,4,3,1,30,0,0
70991,-100,4,3,1,30,0,0
71386,-50,4,3,1,30,0,0
71485,-100,4,3,1,30,0,0
76419,-50,4,3,1,30,0,0
76616,-333.333333333333,4,3,1,30,0,0
76715,-76.9230769230769,4,3,1,30,0,0
76912,-333.333333333333,4,3,1,30,0,0
77011,-76.9230769230769,4,3,1,30,0,0
77208,-333.333333333333,4,3,1,30,0,0
77406,-76.9230769230769,4,3,1,30,0,0
77504,-200,4,3,1,30,0,0
77603,-76.9230769230769,4,3,1,30,0,0
77702,-142.857142857143,4,3,1,30,0,0
77801,-100,4,3,1,30,0,0
77998,-50,4,3,1,30,0,0
78195,-333.333333333333,4,3,1,30,0,0
78294,-76.9230769230769,4,3,1,30,0,0
78491,-333.333333333333,4,3,1,30,0,0
78590,-76.9230769230769,4,3,1,30,0,0
78787,-333.333333333333,4,3,1,30,0,0
78985,-76.9230769230769,4,3,1,30,0,0
79083,-333.333333333333,4,3,1,30,0,0
79182,-76.9230769230769,4,3,1,30,0,0
79281,-200,4,3,1,30,0,0
79478,-100,4,3,1,30,0,0
82735,-333.333333333333,4,3,1,30,0,0
83031,-76.9230769230769,4,3,1,30,0,0
83129,-100,4,3,1,30,0,0
83524,-333.333333333333,4,3,1,30,0,0
83820,-76.9230769230769,4,3,1,30,0,0
83919,-100,4,3,1,30,0,0
85893,-333.333333333333,4,3,1,30,0,0
86287,-76.9230769230769,4,3,1,30,0,0
86485,-100,4,3,1,30,0,0
86682,-333.333333333333,4,3,1,30,0,0
87077,-76.9230769230769,4,3,1,30,0,0
87274,-333.333333333333,4,3,1,30,0,0
87472,-50,4,3,1,30,0,0
87570,-333.333333333333,4,3,1,30,0,0
87669,-76.9230769230769,4,3,1,30,0,0
87866,-333.333333333333,4,3,1,30,0,0
87965,-76.9230769230769,4,3,1,30,0,0
88162,-333.333333333333,4,3,1,30,0,0
88261,-76.9230769230769,4,3,1,30,0,0
88458,-100,4,3,1,30,0,0

[HitObjects]
448,192,37,5,0,0:0:0:0:
320,192,135,1,0,0:0:0:0:
192,192,234,1,0,0:0:0:0:
64,192,234,1,0,0:0:0:0:
64,192,629,5,0,0:0:0:0:
448,192,629,1,0,0:0:0:0:
192,192,629,1,0,0:0:0:0:
320,192,727,1,0,0:0:0:0:
192,192,826,1,0,0:0:0:0:
64,192,826,1,0,0:0:0:0:
448,192,925,1,0,0:0:0:0:
320,192,1023,1,0,0:0:0:0:
64,192,1023,1,0,0:0:0:0:
192,192,1122,1,0,0:0:0:0:
320,192,1221,1,0,0:0:0:0:
448,192,1221,1,0,0:0:0:0:
64,192,1319,1,0,0:0:0:0:
192,192,1418,1,0,0:0:0:0:
320,192,1418,1,0,0:0:0:0:
448,192,1418,1,0,0:0:0:0:
64,192,1517,1,0,0:0:0:0:
192,192,1615,1,0,0:0:0:0:
320,192,1615,1,0,0:0:0:0:
448,192,1714,1,0,0:0:0:0:
320,192,1813,1,0,0:0:0:0:
192,192,1813,1,0,0:0:0:0:
64,192,1813,1,0,0:0:0:0:
448,192,1911,1,0,0:0:0:0:
320,192,2010,1,0,0:0:0:0:
64,192,2010,1,0,0:0:0:0:
192,192,2109,1,0,0:0:0:0:
448,192,2208,1,0,0:0:0:0:
320,192,2208,1,0,0:0:0:0:
192,192,2306,1,0,0:0:0:0:
320,192,2405,1,0,0:0:0:0:
448,192,2405,1,0,0:0:0:0:
64,192,2405,1,0,0:0:0:0:
192,192,2504,1,0,0:0:0:0:
64,192,2602,1,0,0:0:0:0:
448,192,2602,1,0,0:0:0:0:
320,192,2701,1,0,0:0:0:0:
192,192,2800,1,0,0:0:0:0:
64,192,2800,1,0,0:0:0:0:
448,192,2898,1,0,0:0:0:0:
320,192,2997,1,0,0:0:0:0:
64,192,2997,1,0,0:0:0:0:
192,192,3096,1,0,0:0:0:0:
448,192,3194,1,0,0:0:0:0:
64,192,3194,1,0,0:0:0:0:
320,192,3293,1,0,0:0:0:0:
448,192,3392,1,0,0:0:0:0:
192,192,3392,1,0,0:0:0:0:
64,192,3392,1,0,0:0:0:0:
320,192,3441,1,0,0:0:0:0:
192,192,3490,1,0,0:0:0:0:
64,192,3540,1,0,0:0:0:0:
448,192,3589,1,0,0:0:0:0:
320,192,3638,1,0,0:0:0:0:
192,192,3688,1,0,0:0:0:0:
64,192,3737,1,0,0:0:0:0:
320,192,3786,1,0,0:0:0:0:
448,192,3786,1,0,0:0:0:0:
64,192,3885,1,0,0:0:0:0:
192,192,3984,1,0,0:0:0:0:
320,192,3984,1,0,0:0:0:0:
448,192,4083,1,0,0:0:0:0:
64,192,4181,1,0,0:0:0:0:
320,192,4181,1,0,0:0:0:0:
192,192,4280,1,0,0:0:0:0:
320,192,4379,1,0,0:0:0:0:
448,192,4379,1,0,0:0:0:0:
64,192,4379,1,0,0:0:0:0:
192,192,4477,1,0,0:0:0:0:
320,192,4576,1,0,0:0:0:0:
448,192,4576,1,0,0:0:0:0:
192,192,4675,1,0,0:0:0:0:
64,192,4675,1,0,0:0:0:0:
320,192,4773,1,0,0:0:0:0:
448,192,4773,1,0,0:0:0:0:
192,192,4872,1,0,0:0:0:0:
64,192,4872,1,0,0:0:0:0:
320,192,4971,1,0,0:0:0:0:
448,192,4971,1,0,0:0:0:0:
64,192,5069,1,0,0:0:0:0:
192,192,5069,1,0,0:0:0:0:
448,192,5168,1,0,0:0:0:0:
320,192,5168,1,0,0:0:0:0:
192,192,5267,1,0,0:0:0:0:
64,192,5267,1,0,0:0:0:0:
64,192,5365,128,0,5661:0:0:0:0:
192,192,5365,128,0,5661:0:0:0:0:
320,192,5365,128,0,5563:0:0:0:0:
448,192,5365,128,0,5563:0:0:0:0:
448,192,5661,128,0,6056:0:0:0:0:
320,192,5661,128,0,5859:0:0:0:0:
64,192,5760,128,0,6352:0:0:0:0:
192,192,5760,128,0,6056:0:0:0:0:
320,192,5958,128,0,6352:0:0:0:0:
192,192,6155,128,0,6254:0:0:0:0:
448,192,6155,128,0,6451:0:0:0:0:
192,192,6352,128,0,6846:0:0:0:0:
320,192,6550,128,0,6846:0:0:0:0:
64,192,6550,1,0,0:0:0:0:
448,192,6550,1,0,0:0:0:0:
64,192,6747,128,0,6846:0:0:0:0:
448,192,6747,128,0,6846:0:0:0:0:
320,192,6944,1,0,0:0:0:0:
192,192,6944,1,0,0:0:0:0:
64,192,6944,1,0,0:0:0:0:
448,192,6944,128,0,7734:0:0:0:0:
192,192,7142,1,0,0:0:0:0:
64,192,7142,128,0,7240:0:0:0:0:
320,192,7142,1,0,0:0:0:0:
64,192,7339,128,0,7438:0:0:0:0:
192,192,7339,128,0,7635:0:0:0:0:
64,192,7536,128,0,7635:0:0:0:0:
320,192,7536,128,0,7734:0:0:0:0:
64,192,7734,128,0,8030:0:0:0:0:
192,192,7734,1,0,0:0:0:0:
448,192,7931,1,0,0:0:0:0:
192,192,7931,1,0,0:0:0:0:
320,192,8030,128,0,8523:0:0:0:0:
192,192,8129,128,0,8227:0:0:0:0:
64,192,8129,128,0,8227:0:0:0:0:
64,192,8326,128,0,8523:0:0:0:0:
192,192,8326,1,0,0:0:0:0:
448,192,8326,1,0,0:0:0:0:
448,192,8523,128,0,8819:0:0:0:0:
192,192,8523,128,0,8622:0:0:0:0:
64,192,8721,128,0,8819:0:0:0:0:
192,192,8721,128,0,8819:0:0:0:0:
320,192,8721,1,0,0:0:0:0:
320,192,8918,1,0,0:0:0:0:
448,192,8918,1,0,0:0:0:0:
192,192,8918,128,0,9214:0:0:0:0:
64,192,8918,1,0,0:0:0:0:
64,192,9115,128,0,9214:0:0:0:0:
448,192,9115,128,0,9214:0:0:0:0:
64,192,9313,1,0,0:0:0:0:
192,192,9313,1,0,0:0:0:0:
320,192,9313,128,0,9708:0:0:0:0:
448,192,9313,1,0,0:0:0:0:
192,192,9510,128,0,9708:0:0:0:0:
64,192,9510,1,0,0:0:0:0:
448,192,9510,1,0,0:0:0:0:
64,192,9708,128,0,10004:0:0:0:0:
448,192,9708,1,0,0:0:0:0:
320,192,9905,128,0,10004:0:0:0:0:
448,192,9905,128,0,10004:0:0:0:0:
192,192,9905,1,0,0:0:0:0:
448,192,10102,128,0,10694:0:0:0:0:
64,192,10102,1,0,0:0:0:0:
192,192,10102,1,0,0:0:0:0:
320,192,10102,1,0,0:0:0:0:
192,192,10300,128,0,10497:0:0:0:0:
320,192,10300,128,0,10398:0:0:0:0:
64,192,10300,1,0,0:0:0:0:
64,192,10497,128,0,10596:0:0:0:0:
320,192,10497,1,0,0:0:0:0:
64,192,10694,1,0,0:0:0:0:
192,192,10694,1,0,0:0:0:0:
320,192,10793,1,0,0:0:0:0:
448,192,10793,1,0,0:0:0:0:
320,192,10892,128,0,10990:0:0:0:0:
448,192,10892,128,0,10990:0:0:0:0:
64,192,10892,1,0,0:0:0:0:
192,192,10892,128,0,11188:0:0:0:0:
320,192,11089,128,0,11188:0:0:0:0:
448,192,11089,128,0,11188:0:0:0:0:
64,192,11188,128,0,11583:0:0:0:0:
320,192,11286,1,0,0:0:0:0:
448,192,11286,1,0,0:0:0:0:
192,192,11484,1,0,0:0:0:0:
320,192,11484,128,0,11583:0:0:0:0:
448,192,11484,1,0,0:0:0:0:
192,192,11681,128,0,11780:0:0:0:0:
64,192,11681,128,0,11780:0:0:0:0:
320,192,11681,1,0,0:0:0:0:
448,192,11681,128,0,11977:0:0:0:0:
64,192,11879,1,0,0:0:0:0:
320,192,11879,1,0,0:0:0:0:
448,192,12076,128,0,12175:0:0:0:0:
64,192,12076,128,0,12372:0:0:0:0:
192,192,12076,1,0,0:0:0:0:
320,192,12076,128,0,12175:0:0:0:0:
192,192,12273,1,0,0:0:0:0:
448,192,12273,1,0,0:0:0:0:
64,192,12471,128,0,12569:0:0:0:0:
192,192,12471,128,0,12569:0:0:0:0:
320,192,12471,128,0,12767:0:0:0:0:
448,192,12471,1,0,0:0:0:0:
64,192,12668,1,0,0:0:0:0:
448,192,12668,1,0,0:0:0:0:
192,192,12767,1,0,0:0:0:0:
320,192,12865,1,0,0:0:0:0:
448,192,12865,1,0,0:0:0:0:
192,192,12964,1,0,0:0:0:0:
64,192,12964,1,0,0:0:0:0:
320,192,13063,1,0,0:0:0:0:
448,192,13063,1,0,0:0:0:0:
64,192,13161,1,0,0:0:0:0:
192,192,13161,1,0,0:0:0:0:
320,192,13260,128,0,13359:0:0:0:0:
448,192,13260,128,0,14050:0:0:0:0:
192,192,13260,1,0,0:0:0:0:
64,192,13260,1,0,0:0:0:0:
192,192,13359,128,0,13458:0:0:0:0:
64,192,13458,128,0,13556:0:0:0:0:
320,192,13556,128,0,13655:0:0:0:0:
64,192,13655,128,0,13754:0:0:0:0:
192,192,13754,128,0,13852:0:0:0:0:
320,192,13852,128,0,13951:0:0:0:0:
64,192,13951,128,0,14050:0:0:0:0:
192,192,14050,128,0,14839:0:0:0:0:
320,192,14050,128,0,14148:0:0:0:0:
448,192,14148,128,0,14247:0:0:0:0:
64,192,14247,128,0,14346:0:0:0:0:
448,192,14346,128,0,14444:0:0:0:0:
320,192,14444,128,0,14543:0:0:0:0:
64,192,14543,128,0,14642:0:0:0:0:
448,192,14642,128,0,14740:0:0:0:0:
64,192,14740,128,0,14839:0:0:0:0:
448,192,14839,128,0,14938:0:0:0:0:
320,192,14839,128,0,15629:0:0:0:0:
64,192,14938,128,0,15036:0:0:0:0:
192,192,15036,128,0,15135:0:0:0:0:
448,192,15135,128,0,15234:0:0:0:0:
64,192,15234,128,0,15333:0:0:0:0:
192,192,15333,128,0,15431:0:0:0:0:
448,192,15431,128,0,15530:0:0:0:0:
192,192,15530,128,0,15629:0:0:0:0:
64,192,15629,128,0,16221:0:0:0:0:
448,192,15629,128,0,15727:0:0:0:0:
320,192,15727,128,0,15826:0:0:0:0:
192,192,15826,128,0,15925:0:0:0:0:
448,192,15925,128,0,16023:0:0:0:0:
320,192,16023,128,0,16122:0:0:0:0:
192,192,16122,128,0,16221:0:0:0:0:
448,192,16221,128,0,16319:0:0:0:0:
320,192,16221,128,0,16418:0:0:0:0:
192,192,16418,128,0,16517:0:0:0:0:
64,192,16418,128,0,16714:0:0:0:0:
448,192,16418,128,0,16517:0:0:0:0:
192,192,16615,1,0,0:0:0:0:
320,192,16615,1,0,0:0:0:0:
192,192,16813,128,0,16911:0:0:0:0:
448,192,16813,128,0,16911:0:0:0:0:
320,192,16813,128,0,16911:0:0:0:0:
64,192,16813,128,0,16911:0:0:0:0:
192,192,17010,128,0,17208:0:0:0:0:
64,192,17010,128,0,17109:0:0:0:0:
448,192,17208,128,0,17504:0:0:0:0:
64,192,17208,128,0,17306:0:0:0:0:
320,192,17208,128,0,17306:0:0:0:0:
64,192,17405,1,0,0:0:0:0:
192,192,17405,1,0,0:0:0:0:
448,192,17602,128,0,17800:0:0:0:0:
64,192,17602,128,0,17800:0:0:0:0:
192,192,17602,128,0,17800:0:0:0:0:
320,192,17602,128,0,17800:0:0:0:0:
448,192,17997,1,0,0:0:0:0:
64,192,17997,1,0,0:0:0:0:
192,192,17997,1,0,0:0:0:0:
64,192,18194,1,0,0:0:0:0:
192,192,18194,1,0,0:0:0:0:
320,192,18194,1,0,0:0:0:0:
448,192,18194,1,0,0:0:0:0:
448,192,18490,1,0,0:0:0:0:
320,192,18490,1,0,0:0:0:0:
192,192,18490,1,0,0:0:0:0:
64,192,18490,1,0,0:0:0:0:
64,192,18786,128,0,19181:0:0:0:0:
192,192,18786,128,0,19181:0:0:0:0:
320,192,18786,128,0,19181:0:0:0:0:
448,192,18786,128,0,19181:0:0:0:0:
64,192,19576,1,0,0:0:0:0:
192,192,19576,1,0,0:0:0:0:
320,192,19576,1,0,0:0:0:0:
448,192,19576,1,0,0:0:0:0:
448,192,21155,1,0,0:0:0:0:
320,192,21155,1,0,0:0:0:0:
192,192,21155,1,0,0:0:0:0:
64,192,21155,1,0,0:0:0:0:
64,192,22734,1,0,0:0:0:0:
192,192,22734,1,0,0:0:0:0:
320,192,22734,1,0,0:0:0:0:
448,192,22734,1,0,0:0:0:0:
64,192,24313,128,0,24411:0:0:0:0:
192,192,24313,128,0,24411:0:0:0:0:
320,192,24313,128,0,24411:0:0:0:0:
448,192,24313,128,0,24411:0:0:0:0:
64,192,24905,128,0,25004:0:0:0:0:
448,192,24905,128,0,25004:0:0:0:0:
448,192,25102,1,0,0:0:0:0:
320,192,25102,1,0,0:0:0:0:
192,192,25102,1,0,0:0:0:0:
64,192,25102,1,0,0:0:0:0:
448,192,25398,1,0,0:0:0:0:
64,192,25398,1,0,0:0:0:0:
64,192,25497,1,0,0:0:0:0:
192,192,25497,1,0,0:0:0:0:
448,192,25497,1,0,0:0:0:0:
320,192,25694,1,0,0:0:0:0:
448,192,25694,1,0,0:0:0:0:
64,192,25793,1,0,0:0:0:0:
192,192,25793,1,0,0:0:0:0:
64,192,25892,128,0,25990:0:0:0:0:
320,192,25892,128,0,25990:0:0:0:0:
192,192,25892,128,0,25990:0:0:0:0:
448,192,25892,128,0,25990:0:0:0:0:
320,192,26089,1,0,0:0:0:0:
448,192,26089,1,0,0:0:0:0:
192,192,26188,1,0,0:0:0:0:
64,192,26188,1,0,0:0:0:0:
320,192,26286,1,0,0:0:0:0:
448,192,26286,1,0,0:0:0:0:
192,192,26385,1,0,0:0:0:0:
64,192,26385,1,0,0:0:0:0:
320,192,26484,1,0,0:0:0:0:
448,192,26484,1,0,0:0:0:0:
64,192,26681,1,0,0:0:0:0:
448,192,26681,1,0,0:0:0:0:
192,192,26780,1,0,0:0:0:0:
320,192,26780,1,0,0:0:0:0:
448,192,26879,1,0,0:0:0:0:
64,192,26879,1,0,0:0:0:0:
192,192,26977,1,0,0:0:0:0:
320,192,26977,1,0,0:0:0:0:
64,192,27076,1,0,0:0:0:0:
448,192,27076,1,0,0:0:0:0:
64,192,27273,1,0,0:0:0:0:
192,192,27273,1,0,0:0:0:0:
320,192,27372,1,0,0:0:0:0:
448,192,27372,1,0,0:0:0:0:
64,192,27471,128,0,27569:0:0:0:0:
192,192,27471,128,0,27569:0:0:0:0:
320,192,27471,128,0,27569:0:0:0:0:
448,192,27471,128,0,27569:0:0:0:0:
448,192,27668,1,0,0:0:0:0:
320,192,27717,1,0,0:0:0:0:
192,192,27767,1,0,0:0:0:0:
64,192,27816,1,0,0:0:0:0:
320,192,27865,1,0,0:0:0:0:
448,192,27865,1,0,0:0:0:0:
192,192,27964,1,0,0:0:0:0:
64,192,27964,1,0,0:0:0:0:
320,192,28063,1,0,0:0:0:0:
448,192,28063,1,0,0:0:0:0:
192,192,28161,1,0,0:0:0:0:
64,192,28161,1,0,0:0:0:0:
448,192,28260,1,0,0:0:0:0:
320,192,28260,1,0,0:0:0:0:
64,192,28458,1,0,0:0:0:0:
192,192,28458,1,0,0:0:0:0:
320,192,28556,1,0,0:0:0:0:
448,192,28556,1,0,0:0:0:0:
64,192,28655,1,0,0:0:0:0:
192,192,28655,1,0,0:0:0:0:
320,192,28754,1,0,0:0:0:0:
448,192,28754,1,0,0:0:0:0:
64,192,28852,1,0,0:0:0:0:
192,192,28885,1,0,0:0:0:0:
320,192,28918,1,0,0:0:0:0:
448,192,28951,1,0,0:0:0:0:
448,192,29050,128,0,29148:0:0:0:0:
320,192,29050,128,0,29148:0:0:0:0:
192,192,29050,128,0,29148:0:0:0:0:
64,192,29050,128,0,29148:0:0:0:0:
448,192,29247,1,0,0:0:0:0:
64,192,29247,1,0,0:0:0:0:
192,192,29346,1,0,0:0:0:0:
320,192,29346,1,0,0:0:0:0:
448,192,29444,1,0,0:0:0:0:
64,192,29444,1,0,0:0:0:0:
192,192,29543,1,0,0:0:0:0:
320,192,29543,1,0,0:0:0:0:
64,192,29642,1,0,0:0:0:0:
448,192,29642,1,0,0:0:0:0:
192,192,29740,1,0,0:0:0:0:
320,192,29740,1,0,0:0:0:0:
64,192,29839,128,0,29938:0:0:0:0:
192,192,29839,128,0,29938:0:0:0:0:
320,192,29839,128,0,29938:0:0:0:0:
448,192,29839,128,0,29938:0:0:0:0:
64,192,30234,1,0,0:0:0:0:
192,192,30234,1,0,0:0:0:0:
320,192,30333,1,0,0:0:0:0:
448,192,30333,1,0,0:0:0:0:
192,192,30431,1,0,0:0:0:0:
64,192,30431,1,0,0:0:0:0:
320,192,30530,1,0,0:0:0:0:
448,192,30530,1,0,0:0:0:0:
64,192,30629,128,0,30727:0:0:0:0:
192,192,30629,128,0,30727:0:0:0:0:
320,192,30629,128,0,30727:0:0:0:0:
448,192,30629,128,0,30727:0:0:0:0:
64,192,31221,1,0,0:0:0:0:
448,192,31221,1,0,0:0:0:0:
448,192,31418,128,0,31517:0:0:0:0:
320,192,31418,128,0,31517:0:0:0:0:
64,192,31418,128,0,31517:0:0:0:0:
192,192,31418,128,0,31517:0:0:0:0:
64,192,31714,1,0,0:0:0:0:
192,192,31714,1,0,0:0:0:0:
64,192,31813,1,0,0:0:0:0:
192,192,31813,1,0,0:0:0:0:
320,192,32010,1,0,0:0:0:0:
448,192,32010,1,0,0:0:0:0:
192,192,32109,1,0,0:0:0:0:
64,192,32109,1,0,0:0:0:0:
320,192,32208,128,0,32306:0:0:0:0:
448,192,32208,128,0,32306:0:0:0:0:
64,192,32208,128,0,32306:0:0:0:0:
192,192,32306,128,0,32405:0:0:0:0:
320,192,32405,128,0,32504:0:0:0:0:
448,192,32504,128,0,32602:0:0:0:0:
64,192,32504,128,0,32602:0:0:0:0:
192,192,32504,128,0,32602:0:0:0:0:
320,192,32602,128,0,32701:0:0:0:0:
192,192,32701,128,0,32800:0:0:0:0:
64,192,32800,128,0,32898:0:0:0:0:
448,192,32800,128,0,32898:0:0:0:0:
320,192,32898,128,0,32997:0:0:0:0:
192,192,32997,128,0,33096:0:0:0:0:
64,192,32997,128,0,33096:0:0:0:0:
448,192,32997,128,0,33096:0:0:0:0:
320,192,33096,128,0,33194:0:0:0:0:
192,192,33194,128,0,33293:0:0:0:0:
64,192,33293,128,0,33392:0:0:0:0:
320,192,33293,128,0,33392:0:0:0:0:
448,192,33293,128,0,33392:0:0:0:0:
192,192,33392,128,0,33490:0:0:0:0:
64,192,33490,128,0,33589:0:0:0:0:
320,192,33589,128,0,33688:0:0:0:0:
448,192,33589,128,0,33688:0:0:0:0:
192,192,33688,128,0,33786:0:0:0:0:
64,192,33786,128,0,33885:0:0:0:0:
448,192,33786,128,0,33885:0:0:0:0:
320,192,33885,128,0,33984:0:0:0:0:
192,192,33984,128,0,34083:0:0:0:0:
64,192,33984,128,0,34083:0:0:0:0:
320,192,34083,128,0,34181:0:0:0:0:
448,192,34181,128,0,34280:0:0:0:0:
64,192,34181,128,0,34280:0:0:0:0:
192,192,34280,128,0,34379:0:0:0:0:
320,192,34379,128,0,34477:0:0:0:0:
448,192,34379,128,0,34477:0:0:0:0:
192,192,34477,128,0,34576:0:0:0:0:
64,192,34576,128,0,34675:0:0:0:0:
448,192,34576,128,0,34675:0:0:0:0:
320,192,34675,128,0,34773:0:0:0:0:
192,192,34773,128,0,34872:0:0:0:0:
64,192,34773,128,0,34872:0:0:0:0:
320,192,34872,128,0,34971:0:0:0:0:
64,192,34971,128,0,35069:0:0:0:0:
448,192,34971,128,0,35069:0:0:0:0:
192,192,35069,128,0,35168:0:0:0:0:
320,192,35168,128,0,35267:0:0:0:0:
448,192,35168,128,0,35267:0:0:0:0:
192,192,35267,128,0,35365:0:0:0:0:
64,192,35365,128,0,35464:0:0:0:0:
320,192,35365,128,0,35464:0:0:0:0:
448,192,35365,128,0,35464:0:0:0:0:
192,192,35464,128,0,35563:0:0:0:0:
320,192,35563,128,0,35661:0:0:0:0:
448,192,35661,128,0,35760:0:0:0:0:
192,192,35661,128,0,35760:0:0:0:0:
64,192,35661,128,0,35760:0:0:0:0:
320,192,35760,128,0,35859:0:0:0:0:
192,192,35859,128,0,35958:0:0:0:0:
448,192,35958,128,0,36056:0:0:0:0:
64,192,35958,128,0,36056:0:0:0:0:
320,192,36056,128,0,36155:0:0:0:0:
192,192,36155,128,0,36254:0:0:0:0:
64,192,36155,128,0,36254:0:0:0:0:
448,192,36155,128,0,36254:0:0:0:0:
320,192,36254,128,0,36352:0:0:0:0:
192,192,36352,128,0,36451:0:0:0:0:
64,192,36451,128,0,36550:0:0:0:0:
320,192,36451,128,0,36550:0:0:0:0:
448,192,36451,128,0,36550:0:0:0:0:
192,192,36550,128,0,36648:0:0:0:0:
320,192,36648,128,0,36747:0:0:0:0:
64,192,36747,128,0,36846:0:0:0:0:
448,192,36747,128,0,36846:0:0:0:0:
320,192,36846,128,0,36944:0:0:0:0:
192,192,36944,128,0,37142:0:0:0:0:
64,192,36944,128,0,37043:0:0:0:0:
320,192,37043,128,0,37240:0:0:0:0:
64,192,37142,128,0,37438:0:0:0:0:
448,192,37142,128,0,37240:0:0:0:0:
192,192,37240,128,0,37438:0:0:0:0:
448,192,37339,128,0,37635:0:0:0:0:
320,192,37339,128,0,37635:0:0:0:0:
192,192,37536,128,0,37635:0:0:0:0:
64,192,37536,128,0,37635:0:0:0:0:
64,192,37734,1,0,0:0:0:0:
192,192,37734,1,0,0:0:0:0:
320,192,37734,1,0,0:0:0:0:
448,192,37734,1,0,0:0:0:0:
64,192,38129,128,0,38227:0:0:0:0:
320,192,38129,128,0,38227:0:0:0:0:
448,192,38129,128,0,38227:0:0:0:0:
192,192,38129,128,0,38227:0:0:0:0:
64,192,38523,1,0,0:0:0:0:
192,192,38523,1,0,0:0:0:0:
320,192,38523,1,0,0:0:0:0:
448,192,38523,1,0,0:0:0:0:
64,192,38721,1,0,0:0:0:0:
192,192,38721,1,0,0:0:0:0:
448,192,38721,1,0,0:0:0:0:
320,192,38819,1,0,0:0:0:0:
192,192,38918,1,0,0:0:0:0:
64,192,38918,1,0,0:0:0:0:
448,192,39017,1,0,0:0:0:0:
320,192,39115,1,0,0:0:0:0:
192,192,39115,1,0,0:0:0:0:
64,192,39115,1,0,0:0:0:0:
448,192,39214,1,0,0:0:0:0:
64,192,39313,1,0,0:0:0:0:
320,192,39313,1,0,0:0:0:0:
192,192,39411,1,0,0:0:0:0:
320,192,39510,1,0,0:0:0:0:
448,192,39510,1,0,0:0:0:0:
64,192,39510,1,0,0:0:0:0:
192,192,39609,1,0,0:0:0:0:
320,192,39708,1,0,0:0:0:0:
448,192,39708,1,0,0:0:0:0:
64,192,39806,1,0,0:0:0:0:
192,192,39905,1,0,0:0:0:0:
320,192,39905,1,0,0:0:0:0:
448,192,39905,1,0,0:0:0:0:
64,192,40004,1,0,0:0:0:0:
192,192,40102,1,0,0:0:0:0:
448,192,40102,1,0,0:0:0:0:
320,192,40201,1,0,0:0:0:0:
192,192,40300,1,0,0:0:0:0:
64,192,40300,1,0,0:0:0:0:
448,192,40300,1,0,0:0:0:0:
320,192,40398,1,0,0:0:0:0:
192,192,40497,1,0,0:0:0:0:
64,192,40497,1,0,0:0:0:0:
448,192,40596,1,0,0:0:0:0:
320,192,40694,1,0,0:0:0:0:
192,192,40694,1,0,0:0:0:0:
64,192,40694,1,0,0:0:0:0:
448,192,40793,1,0,0:0:0:0:
320,192,40892,1,0,0:0:0:0:
64,192,40892,1,0,0:0:0:0:
192,192,40990,1,0,0:0:0:0:
320,192,41089,1,0,0:0:0:0:
448,192,41089,1,0,0:0:0:0:
192,192,41188,1,0,0:0:0:0:
64,192,41188,1,0,0:0:0:0:
320,192,41286,1,0,0:0:0:0:
448,192,41286,1,0,0:0:0:0:
192,192,41385,1,0,0:0:0:0:
64,192,41385,1,0,0:0:0:0:
320,192,41484,1,0,0:0:0:0:
448,192,41484,1,0,0:0:0:0:
192,192,41583,1,0,0:0:0:0:
64,192,41583,1,0,0:0:0:0:
320,192,41681,1,0,0:0:0:0:
448,192,41681,1,0,0:0:0:0:
64,192,41681,128,0,41977:0:0:0:0:
192,192,41681,128,0,41977:0:0:0:0:
64,192,42076,1,0,0:0:0:0:
192,192,42076,1,0,0:0:0:0:
320,192,42076,128,0,42372:0:0:0:0:
448,192,42076,128,0,42372:0:0:0:0:
64,192,42471,1,0,0:0:0:0:
192,192,42471,1,0,0:0:0:0:
320,192,42471,1,0,0:0:0:0:
448,192,42471,1,0,0:0:0:0:
448,192,42668,1,0,0:0:0:0:
320,192,42668,1,0,0:0:0:0:
192,192,42767,1,0,0:0:0:0:
64,192,42767,1,0,0:0:0:0:
320,192,42865,1,0,0:0:0:0:
448,192,42865,1,0,0:0:0:0:
64,192,43063,1,0,0:0:0:0:
192,192,43063,1,0,0:0:0:0:
320,192,43063,128,0,43458:0:0:0:0:
448,192,43063,128,0,43458:0:0:0:0:
192,192,43458,1,0,0:0:0:0:
64,192,43458,1,0,0:0:0:0:
64,192,43655,128,0,43852:0:0:0:0:
448,192,43655,128,0,43852:0:0:0:0:
320,192,43655,128,0,43852:0:0:0:0:
192,192,43655,128,0,43852:0:0:0:0:
64,192,44050,1,0,0:0:0:0:
192,192,44050,1,0,0:0:0:0:
320,192,44050,1,0,0:0:0:0:
448,192,44050,1,0,0:0:0:0:
320,192,44148,1,0,0:0:0:0:
448,192,44148,1,0,0:0:0:0:
192,192,44247,1,0,0:0:0:0:
64,192,44247,1,0,0:0:0:0:
320,192,44346,1,0,0:0:0:0:
448,192,44346,1,0,0:0:0:0:
192,192,44444,1,0,0:0:0:0:
64,192,44444,1,0,0:0:0:0:
320,192,44543,1,0,0:0:0:0:
448,192,44543,1,0,0:0:0:0:
192,192,44642,1,0,0:0:0:0:
64,192,44642,1,0,0:0:0:0:
448,192,44740,1,0,0:0:0:0:
320,192,44740,1,0,0:0:0:0:
64,192,44790,128,0,44888:0:0:0:0:
192,192,44839,128,0,44938:0:0:0:0:
320,192,44888,128,0,44987:0:0:0:0:
448,192,44938,128,0,45036:0:0:0:0:
64,192,44987,128,0,45086:0:0:0:0:
192,192,45036,128,0,45135:0:0:0:0:
448,192,45086,128,0,45185:0:0:0:0:
320,192,45135,128,0,45234:0:0:0:0:
64,192,45185,128,0,45283:0:0:0:0:
192,192,45234,128,0,45333:0:0:0:0:
320,192,45283,128,0,45382:0:0:0:0:
448,192,45333,128,0,45431:0:0:0:0:
192,192,45382,128,0,45481:0:0:0:0:
64,192,45431,128,0,45530:0:0:0:0:
320,192,45481,128,0,45579:0:0:0:0:
448,192,45530,128,0,45629:0:0:0:0:
192,192,45579,128,0,45678:0:0:0:0:
64,192,45629,128,0,45727:0:0:0:0:
320,192,45678,128,0,45777:0:0:0:0:
448,192,45727,128,0,45826:0:0:0:0:
64,192,45777,128,0,45875:0:0:0:0:
192,192,45826,128,0,45925:0:0:0:0:
448,192,45875,128,0,45974:0:0:0:0:
320,192,45925,128,0,46023:0:0:0:0:
64,192,45974,128,0,46073:0:0:0:0:
192,192,46023,128,0,46122:0:0:0:0:
448,192,46073,128,0,46171:0:0:0:0:
320,192,46122,128,0,46221:0:0:0:0:
192,192,46171,128,0,46270:0:0:0:0:
64,192,46221,128,0,46319:0:0:0:0:
320,192,46319,1,0,0:0:0:0:
448,192,46319,1,0,0:0:0:0:
64,192,46418,1,0,0:0:0:0:
192,192,46418,1,0,0:0:0:0:
320,192,46418,1,0,0:0:0:0:
448,192,46418,1,0,0:0:0:0:
448,192,46615,128,0,46714:0:0:0:0:
320,192,46665,128,0,46763:0:0:0:0:
192,192,46714,128,0,46813:0:0:0:0:
64,192,46763,128,0,46862:0:0:0:0:
448,192,46813,128,0,46911:0:0:0:0:
320,192,46862,128,0,46961:0:0:0:0:
192,192,46911,128,0,47010:0:0:0:0:
64,192,46961,128,0,47060:0:0:0:0:
448,192,47010,128,0,47109:0:0:0:0:
320,192,47060,128,0,47158:0:0:0:0:
64,192,47109,128,0,47208:0:0:0:0:
192,192,47158,128,0,47257:0:0:0:0:
320,192,47208,128,0,47306:0:0:0:0:
448,192,47257,128,0,47356:0:0:0:0:
64,192,47306,128,0,47405:0:0:0:0:
192,192,47356,128,0,47454:0:0:0:0:
448,192,47405,128,0,47504:0:0:0:0:
320,192,47454,128,0,47553:0:0:0:0:
192,192,47504,128,0,47602:0:0:0:0:
64,192,47553,128,0,47652:0:0:0:0:
320,192,47602,128,0,47701:0:0:0:0:
448,192,47652,128,0,47750:0:0:0:0:
64,192,47701,128,0,47898:0:0:0:0:
192,192,47750,128,0,47898:0:0:0:0:
320,192,47800,128,0,47898:0:0:0:0:
448,192,47800,128,0,47898:0:0:0:0:
320,192,47997,128,0,48096:0:0:0:0:
448,192,47997,128,0,48096:0:0:0:0:
192,192,47997,128,0,48194:0:0:0:0:
64,192,47997,128,0,48096:0:0:0:0:
64,192,48194,128,0,48392:0:0:0:0:
320,192,48194,128,0,48293:0:0:0:0:
448,192,48194,128,0,48293:0:0:0:0:
192,192,48293,128,0,48490:0:0:0:0:
320,192,48392,128,0,48589:0:0:0:0:
448,192,48392,128,0,48490:0:0:0:0:
64,192,48490,128,0,48688:0:0:0:0:
192,192,48589,128,0,48688:0:0:0:0:
448,192,48589,128,0,48688:0:0:0:0:
320,192,48688,128,0,48786:0:0:0:0:
448,192,48786,128,0,48984:0:0:0:0:
192,192,48786,128,0,48885:0:0:0:0:
64,192,48786,128,0,48885:0:0:0:0:
320,192,48885,128,0,49083:0:0:0:0:
192,192,48984,128,0,49083:0:0:0:0:
64,192,48984,128,0,49083:0:0:0:0:
448,192,49083,128,0,49181:0:0:0:0:
64,192,49181,128,0,49280:0:0:0:0:
192,192,49181,128,0,49379:0:0:0:0:
320,192,49181,128,0,49280:0:0:0:0:
448,192,49280,128,0,49477:0:0:0:0:
64,192,49379,128,0,49477:0:0:0:0:
320,192,49379,128,0,49477:0:0:0:0:
192,192,49477,128,0,49872:0:0:0:0:
64,192,49576,128,0,49675:0:0:0:0:
320,192,49576,128,0,49675:0:0:0:0:
448,192,49576,128,0,49675:0:0:0:0:
64,192,49773,128,0,49872:0:0:0:0:
448,192,49773,128,0,49872:0:0:0:0:
320,192,49773,128,0,49971:0:0:0:0:
64,192,49971,128,0,50069:0:0:0:0:
192,192,49971,128,0,50168:0:0:0:0:
448,192,49971,128,0,50069:0:0:0:0:
320,192,50069,128,0,50267:0:0:0:0:
448,192,50168,128,0,50267:0:0:0:0:
64,192,50168,128,0,50267:0:0:0:0:
192,192,50267,128,0,50365:0:0:0:0:
320,192,50365,128,0,50464:0:0:0:0:
448,192,50365,128,0,50464:0:0:0:0:
64,192,50365,128,0,50464:0:0:0:0:
192,192,50464,128,0,50563:0:0:0:0:
320,192,50563,128,0,50661:0:0:0:0:
448,192,50563,128,0,50661:0:0:0:0:
64,192,50563,128,0,50661:0:0:0:0:
192,192,50661,128,0,50859:0:0:0:0:
64,192,50760,128,0,50859:0:0:0:0:
320,192,50760,128,0,51056:0:0:0:0:
448,192,50760,128,0,50859:0:0:0:0:
64,192,50958,128,0,51056:0:0:0:0:
448,192,50958,128,0,51056:0:0:0:0:
192,192,50958,128,0,51056:0:0:0:0:
448,192,51155,128,0,51254:0:0:0:0:
320,192,51155,128,0,51254:0:0:0:0:
64,192,51155,128,0,51254:0:0:0:0:
192,192,51155,128,0,51451:0:0:0:0:
320,192,51352,128,0,51550:0:0:0:0:
448,192,51352,128,0,51648:0:0:0:0:
64,192,51352,128,0,51451:0:0:0:0:
64,192,51550,128,0,51648:0:0:0:0:
192,192,51550,128,0,51648:0:0:0:0:
320,192,51648,128,0,51944:0:0:0:0:
448,192,51747,128,0,51846:0:0:0:0:
192,192,51747,128,0,51846:0:0:0:0:
64,192,51747,128,0,52043:0:0:0:0:
192,192,51944,128,0,52043:0:0:0:0:
448,192,51944,128,0,52043:0:0:0:0:
320,192,52043,128,0,52339:0:0:0:0:
448,192,52142,128,0,52438:0:0:0:0:
192,192,52142,128,0,52240:0:0:0:0:
64,192,52142,128,0,52240:0:0:0:0:
64,192,52339,128,0,52438:0:0:0:0:
192,192,52339,128,0,52438:0:0:0:0:
320,192,52438,128,0,52635:0:0:0:0:
192,192,52536,128,0,52635:0:0:0:0:
64,192,52536,128,0,52635:0:0:0:0:
448,192,52536,128,0,52635:0:0:0:0:
320,192,52734,128,0,52833:0:0:0:0:
64,192,52734,128,0,52833:0:0:0:0:
192,192,52734,128,0,52833:0:0:0:0:
448,192,52734,128,0,52833:0:0:0:0:
320,192,52931,128,0,53030:0:0:0:0:
448,192,52931,128,0,53030:0:0:0:0:
192,192,52931,128,0,53030:0:0:0:0:
64,192,52931,128,0,53030:0:0:0:0:
320,192,53129,128,0,53227:0:0:0:0:
448,192,53129,128,0,53227:0:0:0:0:
64,192,53129,128,0,53227:0:0:0:0:
192,192,53129,128,0,53227:0:0:0:0:
192,192,53326,128,0,53425:0:0:0:0:
64,192,53326,128,0,53425:0:0:0:0:
320,192,53326,128,0,53425:0:0:0:0:
448,192,53326,128,0,53425:0:0:0:0:
64,192,53523,128,0,53622:0:0:0:0:
192,192,53523,128,0,53622:0:0:0:0:
320,192,53523,128,0,53622:0:0:0:0:
448,192,53523,128,0,53622:0:0:0:0:
320,192,53721,128,0,53819:0:0:0:0:
448,192,53721,128,0,53819:0:0:0:0:
192,192,53819,128,0,53918:0:0:0:0:
64,192,53819,128,0,53918:0:0:0:0:
320,192,53918,128,0,54017:0:0:0:0:
448,192,53918,128,0,54017:0:0:0:0:
192,192,54017,128,0,54115:0:0:0:0:
64,192,54017,128,0,54115:0:0:0:0:
320,192,54115,128,0,54214:0:0:0:0:
448,192,54115,128,0,54214:0:0:0:0:
64,192,54214,1,0,0:0:0:0:
192,192,54214,1,0,0:0:0:0:
448,192,54313,128,0,54609:0:0:0:0:
320,192,54313,128,0,54411:0:0:0:0:
192,192,54313,128,0,54411:0:0:0:0:
64,192,54313,128,0,54411:0:0:0:0:
320,192,54510,128,0,54806:0:0:0:0:
64,192,54510,128,0,54609:0:0:0:0:
192,192,54510,128,0,54609:0:0:0:0:
448,192,54708,128,0,55004:0:0:0:0:
192,192,54708,128,0,54806:0:0:0:0:
64,192,54708,128,0,54806:0:0:0:0:
320,192,54905,128,0,55201:0:0:0:0:
64,192,54905,128,0,55004:0:0:0:0:
192,192,54905,128,0,55004:0:0:0:0:
448,192,55102,128,0,55398:0:0:0:0:
64,192,55102,128,0,55201:0:0:0:0:
192,192,55102,128,0,55201:0:0:0:0:
320,192,55300,128,0,55596:0:0:0:0:
64,192,55300,128,0,55398:0:0:0:0:
192,192,55300,128,0,55398:0:0:0:0:
448,192,55497,128,0,55793:0:0:0:0:
64,192,55497,128,0,55596:0:0:0:0:
192,192,55497,128,0,55596:0:0:0:0:
320,192,55694,128,0,55793:0:0:0:0:
64,192,55694,128,0,55793:0:0:0:0:
192,192,55694,128,0,55793:0:0:0:0:
64,192,55892,128,0,56188:0:0:0:0:
192,192,55892,128,0,55990:0:0:0:0:
320,192,55892,128,0,55990:0:0:0:0:
448,192,55892,128,0,55990:0:0:0:0:
192,192,56089,128,0,56385:0:0:0:0:
448,192,56089,128,0,56188:0:0:0:0:
320,192,56089,128,0,56188:0:0:0:0:
64,192,56286,128,0,56583:0:0:0:0:
320,192,56286,128,0,56385:0:0:0:0:
448,192,56286,128,0,56385:0:0:0:0:
192,192,56484,128,0,56780:0:0:0:0:
448,192,56484,128,0,56583:0:0:0:0:
320,192,56484,128,0,56583:0:0:0:0:
64,192,56681,128,0,56977:0:0:0:0:
448,192,56681,128,0,56780:0:0:0:0:
320,192,56681,128,0,56780:0:0:0:0:
192,192,56879,128,0,57175:0:0:0:0:
448,192,56879,128,0,56977:0:0:0:0:
320,192,56879,128,0,56977:0:0:0:0:
64,192,57076,128,0,57372:0:0:0:0:
448,192,57076,128,0,57175:0:0:0:0:
320,192,57076,128,0,57175:0:0:0:0:
192,192,57273,128,0,57372:0:0:0:0:
448,192,57273,128,0,57372:0:0:0:0:
320,192,57273,128,0,57372:0:0:0:0:
64,192,57471,1,0,0:0:0:0:
192,192,57471,1,0,0:0:0:0:
320,192,57471,1,0,0:0:0:0:
448,192,57471,1,0,0:0:0:0:
64,192,57668,1,0,0:0:0:0:
192,192,57668,1,0,0:0:0:0:
320,192,57668,1,0,0:0:0:0:
448,192,57668,1,0,0:0:0:0:
64,192,57865,128,0,57964:0:0:0:0:
192,192,57865,128,0,57964:0:0:0:0:
320,192,57865,128,0,57964:0:0:0:0:
448,192,57865,128,0,57964:0:0:0:0:
64,192,58260,1,0,0:0:0:0:
192,192,58260,1,0,0:0:0:0:
320,192,58260,1,0,0:0:0:0:
448,192,58260,1,0,0:0:0:0:
448,192,58458,1,0,0:0:0:0:
320,192,58458,1,0,0:0:0:0:
192,192,58458,1,0,0:0:0:0:
64,192,58458,1,0,0:0:0:0:
64,192,58655,128,0,58754:0:0:0:0:
192,192,58655,128,0,58754:0:0:0:0:
320,192,58655,128,0,58754:0:0:0:0:
448,192,58655,128,0,58754:0:0:0:0:
64,192,59050,1,0,0:0:0:0:
192,192,59050,1,0,0:0:0:0:
448,192,59050,1,0,0:0:0:0:
448,192,59247,1,0,0:0:0:0:
320,192,59247,1,0,0:0:0:0:
192,192,59346,1,0,0:0:0:0:
64,192,59346,1,0,0:0:0:0:
192,192,59444,1,0,0:0:0:0:
64,192,59444,1,0,0:0:0:0:
320,192,59444,1,0,0:0:0:0:
448,192,59444,1,0,0:0:0:0:
64,192,59642,1,0,0:0:0:0:
192,192,59642,1,0,0:0:0:0:
320,192,59642,1,0,0:0:0:0:
448,192,59642,1,0,0:0:0:0:
448,192,59839,1,0,0:0:0:0:
320,192,59839,1,0,0:0:0:0:
192,192,59839,1,0,0:0:0:0:
64,192,59839,1,0,0:0:0:0:
448,192,60036,1,0,0:0:0:0:
320,192,60036,1,0,0:0:0:0:
64,192,60036,1,0,0:0:0:0:
192,192,60135,1,0,0:0:0:0:
320,192,60234,1,0,0:0:0:0:
448,192,60234,1,0,0:0:0:0:
192,192,60333,1,0,0:0:0:0:
64,192,60333,1,0,0:0:0:0:
320,192,60431,1,0,0:0:0:0:
448,192,60431,1,0,0:0:0:0:
192,192,60530,1,0,0:0:0:0:
64,192,60530,1,0,0:0:0:0:
320,192,60629,128,0,60727:0:0:0:0:
448,192,60629,128,0,60727:0:0:0:0:
192,192,60629,128,0,60826:0:0:0:0:
64,192,60629,128,0,60727:0:0:0:0:
64,192,60826,128,0,61023:0:0:0:0:
320,192,60826,128,0,60925:0:0:0:0:
448,192,60826,128,0,60925:0:0:0:0:
192,192,60925,128,0,61122:0:0:0:0:
320,192,61023,128,0,61221:0:0:0:0:
448,192,61023,128,0,61122:0:0:0:0:
64,192,61122,128,0,61319:0:0:0:0:
192,192,61221,128,0,61319:0:0:0:0:
448,192,61221,128,0,61319:0:0:0:0:
320,192,61319,128,0,61418:0:0:0:0:
448,192,61418,128,0,61615:0:0:0:0:
192,192,61418,128,0,61517:0:0:0:0:
64,192,61418,128,0,61517:0:0:0:0:
320,192,61517,128,0,61714:0:0:0:0:
192,192,61615,128,0,61714:0:0:0:0:
64,192,61615,128,0,61714:0:0:0:0:
448,192,61714,128,0,61813:0:0:0:0:
64,192,61813,128,0,61911:0:0:0:0:
192,192,61813,128,0,62010:0:0:0:0:
320,192,61813,128,0,61911:0:0:0:0:
448,192,61911,128,0,62109:0:0:0:0:
64,192,62010,128,0,62109:0:0:0:0:
320,192,62010,128,0,62109:0:0:0:0:
192,192,62109,128,0,62504:0:0:0:0:
64,192,62208,128,0,62306:0:0:0:0:
320,192,62208,128,0,62306:0:0:0:0:
448,192,62208,128,0,62306:0:0:0:0:
64,192,62405,128,0,62504:0:0:0:0:
448,192,62405,128,0,62504:0:0:0:0:
320,192,62405,128,0,62602:0:0:0:0:
64,192,62602,128,0,62701:0:0:0:0:
192,192,62602,128,0,62800:0:0:0:0:
448,192,62602,128,0,62701:0:0:0:0:
320,192,62701,128,0,62898:0:0:0:0:
448,192,62800,128,0,62898:0:0:0:0:
64,192,62800,128,0,62898:0:0:0:0:
192,192,62898,128,0,62997:0:0:0:0:
320,192,62997,128,0,63096:0:0:0:0:
448,192,62997,128,0,63096:0:0:0:0:
64,192,62997,128,0,63096:0:0:0:0:
192,192,63096,128,0,63194:0:0:0:0:
320,192,63194,128,0,63293:0:0:0:0:
448,192,63194,128,0,63293:0:0:0:0:
64,192,63194,128,0,63293:0:0:0:0:
192,192,63293,128,0,63490:0:0:0:0:
64,192,63392,128,0,63490:0:0:0:0:
320,192,63392,128,0,63688:0:0:0:0:
448,192,63392,128,0,63490:0:0:0:0:
64,192,63589,128,0,63688:0:0:0:0:
448,192,63589,128,0,63688:0:0:0:0:
192,192,63589,128,0,63688:0:0:0:0:
448,192,63786,128,0,63885:0:0:0:0:
320,192,63786,128,0,63885:0:0:0:0:
64,192,63786,128,0,63885:0:0:0:0:
192,192,63786,128,0,64083:0:0:0:0:
320,192,63984,128,0,64181:0:0:0:0:
448,192,63984,128,0,64280:0:0:0:0:
64,192,63984,128,0,64083:0:0:0:0:
64,192,64181,128,0,64280:0:0:0:0:
192,192,64181,128,0,64280:0:0:0:0:
320,192,64280,128,0,64576:0:0:0:0:
448,192,64379,128,0,64477:0:0:0:0:
192,192,64379,128,0,64477:0:0:0:0:
64,192,64379,128,0,64675:0:0:0:0:
192,192,64576,128,0,64675:0:0:0:0:
448,192,64576,128,0,64675:0:0:0:0:
320,192,64675,128,0,64971:0:0:0:0:
448,192,64773,128,0,64971:0:0:0:0:
192,192,64773,128,0,64872:0:0:0:0:
64,192,64773,128,0,64872:0:0:0:0:
64,192,64971,128,0,65069:0:0:0:0:
192,192,64971,128,0,65069:0:0:0:0:
320,192,65069,128,0,65168:0:0:0:0:
448,192,65069,128,0,65168:0:0:0:0:
192,192,65168,128,0,65267:0:0:0:0:
64,192,65168,128,0,65267:0:0:0:0:
320,192,65267,1,0,0:0:0:0:
448,192,65267,1,0,0:0:0:0:
192,192,65365,128,0,65563:0:0:0:0:
448,192,65365,128,0,65563:0:0:0:0:
320,192,65365,128,0,65563:0:0:0:0:
64,192,65365,128,0,65563:0:0:0:0:
320,192,65760,128,0,65958:0:0:0:0:
448,192,65760,128,0,65958:0:0:0:0:
192,192,65760,128,0,65958:0:0:0:0:
64,192,65760,128,0,65958:0:0:0:0:
192,192,66155,128,0,66352:0:0:0:0:
320,192,66155,128,0,66254:0:0:0:0:
448,192,66155,128,0,66254:0:0:0:0:
64,192,66155,128,0,66352:0:0:0:0:
320,192,66352,128,0,66451:0:0:0:0:
448,192,66352,128,0,66451:0:0:0:0:
192,192,66451,128,0,66550:0:0:0:0:
64,192,66451,128,0,66550:0:0:0:0:
320,192,66550,128,0,66648:0:0:0:0:
448,192,66550,128,0,66648:0:0:0:0:
192,192,66648,128,0,66747:0:0:0:0:
64,192,66648,128,0,66747:0:0:0:0:
320,192,66747,128,0,66846:0:0:0:0:
448,192,66747,128,0,66846:0:0:0:0:
64,192,66846,1,0,0:0:0:0:
192,192,66846,1,0,0:0:0:0:
192,192,66944,128,0,67043:0:0:0:0:
64,192,66944,128,0,67043:0:0:0:0:
448,192,66944,128,0,67240:0:0:0:0:
320,192,66944,128,0,67043:0:0:0:0:
192,192,67142,128,0,67240:0:0:0:0:
64,192,67142,128,0,67240:0:0:0:0:
320,192,67142,128,0,67438:0:0:0:0:
64,192,67339,128,0,67438:0:0:0:0:
192,192,67339,128,0,67438:0:0:0:0:
448,192,67339,128,0,67635:0:0:0:0:
192,192,67536,128,0,67635:0:0:0:0:
64,192,67536,128,0,67635:0:0:0:0:
320,192,67536,128,0,67833:0:0:0:0:
192,192,67734,128,0,67833:0:0:0:0:
64,192,67734,128,0,67833:0:0:0:0:
448,192,67734,128,0,68030:0:0:0:0:
192,192,67931,128,0,68030:0:0:0:0:
64,192,67931,128,0,68030:0:0:0:0:
320,192,67931,128,0,68227:0:0:0:0:
192,192,68129,128,0,68227:0:0:0:0:
64,192,68129,128,0,68227:0:0:0:0:
448,192,68129,128,0,68425:0:0:0:0:
192,192,68326,128,0,68425:0:0:0:0:
64,192,68326,128,0,68425:0:0:0:0:
320,192,68326,128,0,68425:0:0:0:0:
64,192,68523,128,0,68819:0:0:0:0:
192,192,68523,128,0,68622:0:0:0:0:
320,192,68523,128,0,68622:0:0:0:0:
448,192,68523,128,0,68622:0:0:0:0:
192,192,68721,128,0,69017:0:0:0:0:
448,192,68721,128,0,68819:0:0:0:0:
320,192,68721,128,0,68819:0:0:0:0:
64,192,68918,128,0,69214:0:0:0:0:
320,192,68918,128,0,69017:0:0:0:0:
448,192,68918,128,0,69017:0:0:0:0:
192,192,69115,128,0,69411:0:0:0:0:
448,192,69115,128,0,69214:0:0:0:0:
320,192,69115,128,0,69214:0:0:0:0:
64,192,69313,128,0,69609:0:0:0:0:
448,192,69313,128,0,69411:0:0:0:0:
320,192,69313,128,0,69411:0:0:0:0:
192,192,69510,128,0,69806:0:0:0:0:
448,192,69510,128,0,69609:0:0:0:0:
320,192,69510,128,0,69609:0:0:0:0:
64,192,69708,128,0,70004:0:0:0:0:
448,192,69708,128,0,69806:0:0:0:0:
320,192,69708,128,0,69806:0:0:0:0:
192,192,69905,128,0,70004:0:0:0:0:
448,192,69905,128,0,70004:0:0:0:0:
320,192,69905,128,0,70004:0:0:0:0:
64,192,70102,128,0,70300:0:0:0:0:
192,192,70102,128,0,70300:0:0:0:0:
448,192,70102,128,0,70300:0:0:0:0:
320,192,70497,128,0,70694:0:0:0:0:
448,192,70497,128,0,70694:0:0:0:0:
64,192,70497,128,0,70694:0:0:0:0:
64,192,70892,128,0,70990:0:0:0:0:
192,192,70892,128,0,70990:0:0:0:0:
320,192,70892,128,0,70990:0:0:0:0:
448,192,70892,128,0,70990:0:0:0:0:
320,192,71089,1,0,0:0:0:0:
448,192,71089,1,0,0:0:0:0:
64,192,71188,1,0,0:0:0:0:
192,192,71188,1,0,0:0:0:0:
320,192,71286,1,0,0:0:0:0:
448,192,71286,1,0,0:0:0:0:
192,192,71484,1,0,0:0:0:0:
320,192,71484,1,0,0:0:0:0:
448,192,71484,1,0,0:0:0:0:
64,192,71484,128,0,72076:0:0:0:0:
320,192,71681,1,0,0:0:0:0:
448,192,71780,1,0,0:0:0:0:
192,192,71879,1,0,0:0:0:0:
320,192,71879,1,0,0:0:0:0:
192,192,72076,1,0,0:0:0:0:
320,192,72076,1,0,0:0:0:0:
448,192,72076,128,0,72471:0:0:0:0:
64,192,72175,1,0,0:0:0:0:
320,192,72273,128,0,72471:0:0:0:0:
64,192,72471,1,0,0:0:0:0:
192,192,72471,1,0,0:0:0:0:
320,192,72569,1,0,0:0:0:0:
448,192,72569,1,0,0:0:0:0:
64,192,72668,1,0,0:0:0:0:
192,192,72668,1,0,0:0:0:0:
320,192,72767,1,0,0:0:0:0:
448,192,72767,1,0,0:0:0:0:
192,192,72865,1,0,0:0:0:0:
64,192,72865,1,0,0:0:0:0:
320,192,72964,1,0,0:0:0:0:
448,192,72964,1,0,0:0:0:0:
192,192,73063,1,0,0:0:0:0:
64,192,73063,1,0,0:0:0:0:
320,192,73161,1,0,0:0:0:0:
448,192,73161,1,0,0:0:0:0:
64,192,73260,128,0,73359:0:0:0:0:
192,192,73260,128,0,73359:0:0:0:0:
320,192,73260,128,0,73359:0:0:0:0:
448,192,73260,128,0,73359:0:0:0:0:
448,192,73458,128,0,73556:0:0:0:0:
64,192,73458,128,0,73556:0:0:0:0:
192,192,73556,128,0,73655:0:0:0:0:
320,192,73655,128,0,73754:0:0:0:0:
448,192,73655,128,0,73754:0:0:0:0:
64,192,73754,128,0,73852:0:0:0:0:
192,192,73852,128,0,73951:0:0:0:0:
320,192,73852,128,0,73951:0:0:0:0:
448,192,73951,128,0,74050:0:0:0:0:
64,192,74050,128,0,74148:0:0:0:0:
192,192,74050,128,0,74148:0:0:0:0:
448,192,74148,128,0,74247:0:0:0:0:
192,192,74247,128,0,74346:0:0:0:0:
320,192,74247,128,0,74346:0:0:0:0:
64,192,74346,128,0,74444:0:0:0:0:
192,192,74444,128,0,74543:0:0:0:0:
448,192,74444,128,0,74543:0:0:0:0:
320,192,74543,128,0,74642:0:0:0:0:
192,192,74642,128,0,74740:0:0:0:0:
64,192,74642,128,0,74740:0:0:0:0:
448,192,74740,128,0,74839:0:0:0:0:
64,192,74839,128,0,74938:0:0:0:0:
320,192,74839,128,0,74938:0:0:0:0:
192,192,74938,128,0,75036:0:0:0:0:
320,192,75036,128,0,75135:0:0:0:0:
448,192,75036,128,0,75135:0:0:0:0:
64,192,75135,128,0,75234:0:0:0:0:
192,192,75234,128,0,75333:0:0:0:0:
448,192,75234,128,0,75333:0:0:0:0:
320,192,75333,128,0,75431:0:0:0:0:
64,192,75431,128,0,75530:0:0:0:0:
192,192,75431,128,0,75530:0:0:0:0:
448,192,75530,128,0,75629:0:0:0:0:
320,192,75629,128,0,75727:0:0:0:0:
192,192,75629,128,0,75727:0:0:0:0:
64,192,75727,128,0,75826:0:0:0:0:
320,192,75826,128,0,76023:0:0:0:0:
448,192,75826,128,0,76023:0:0:0:0:
64,192,75925,1,0,0:0:0:0:
192,192,75925,1,0,0:0:0:0:
64,192,76023,128,0,76122:0:0:0:0:
192,192,76023,128,0,76122:0:0:0:0:
320,192,76122,128,0,76221:0:0:0:0:
448,192,76122,128,0,76221:0:0:0:0:
192,192,76221,128,0,76319:0:0:0:0:
64,192,76221,128,0,76319:0:0:0:0:
320,192,76319,1,0,0:0:0:0:
448,192,76319,1,0,0:0:0:0:
64,192,76418,128,0,76517:0:0:0:0:
192,192,76418,128,0,76517:0:0:0:0:
320,192,76418,128,0,76517:0:0:0:0:
448,192,76418,128,0,76517:0:0:0:0:
448,192,76714,128,0,76813:0:0:0:0:
320,192,76714,128,0,76813:0:0:0:0:
192,192,76714,128,0,76813:0:0:0:0:
64,192,76714,128,0,76813:0:0:0:0:
64,192,77010,128,0,77109:0:0:0:0:
192,192,77010,128,0,77109:0:0:0:0:
320,192,77010,128,0,77109:0:0:0:0:
448,192,77010,128,0,77109:0:0:0:0:
64,192,77405,128,0,77701:0:0:0:0:
192,192,77405,128,0,77701:0:0:0:0:
320,192,77602,128,0,77898:0:0:0:0:
448,192,77602,128,0,77898:0:0:0:0:
64,192,77800,128,0,77898:0:0:0:0:
192,192,77800,128,0,77898:0:0:0:0:
64,192,77997,128,0,78096:0:0:0:0:
192,192,77997,128,0,78096:0:0:0:0:
320,192,77997,128,0,78096:0:0:0:0:
448,192,77997,128,0,78096:0:0:0:0:
448,192,78293,128,0,78392:0:0:0:0:
320,192,78293,128,0,78392:0:0:0:0:
192,192,78293,128,0,78392:0:0:0:0:
64,192,78293,128,0,78392:0:0:0:0:
64,192,78589,128,0,78688:0:0:0:0:
192,192,78589,128,0,78688:0:0:0:0:
320,192,78589,128,0,78688:0:0:0:0:
448,192,78589,128,0,78688:0:0:0:0:
320,192,78984,128,0,79280:0:0:0:0:
448,192,78984,128,0,79280:0:0:0:0:
192,192,79181,128,0,79477:0:0:0:0:
64,192,79181,128,0,79477:0:0:0:0:
320,192,79379,128,0,79477:0:0:0:0:
448,192,79379,128,0,79477:0:0:0:0:
192,192,79576,128,0,79675:0:0:0:0:
320,192,79576,128,0,79675:0:0:0:0:
448,192,79576,128,0,79675:0:0:0:0:
64,192,79576,128,0,79675:0:0:0:0:
448,192,79773,128,0,79872:0:0:0:0:
64,192,79773,128,0,79872:0:0:0:0:
192,192,79872,128,0,79971:0:0:0:0:
320,192,79971,128,0,80069:0:0:0:0:
448,192,79971,128,0,80069:0:0:0:0:
64,192,80069,128,0,80168:0:0:0:0:
192,192,80168,128,0,80267:0:0:0:0:
320,192,80168,128,0,80267:0:0:0:0:
448,192,80267,128,0,80365:0:0:0:0:
64,192,80365,128,0,80464:0:0:0:0:
192,192,80365,128,0,80464:0:0:0:0:
448,192,80464,128,0,80563:0:0:0:0:
192,192,80563,128,0,80661:0:0:0:0:
320,192,80563,128,0,80661:0:0:0:0:
64,192,80661,128,0,80760:0:0:0:0:
192,192,80760,128,0,80859:0:0:0:0:
448,192,80760,128,0,80859:0:0:0:0:
320,192,80859,128,0,80958:0:0:0:0:
192,192,80958,128,0,81056:0:0:0:0:
64,192,80958,128,0,81056:0:0:0:0:
448,192,81056,128,0,81155:0:0:0:0:
64,192,81155,128,0,81254:0:0:0:0:
320,192,81155,128,0,81254:0:0:0:0:
192,192,81254,128,0,81352:0:0:0:0:
320,192,81352,128,0,81451:0:0:0:0:
448,192,81352,128,0,81451:0:0:0:0:
64,192,81451,128,0,81550:0:0:0:0:
192,192,81550,128,0,81648:0:0:0:0:
448,192,81550,128,0,81648:0:0:0:0:
320,192,81648,128,0,81747:0:0:0:0:
64,192,81747,128,0,81846:0:0:0:0:
192,192,81747,128,0,81846:0:0:0:0:
448,192,81846,128,0,81944:0:0:0:0:
320,192,81944,128,0,82043:0:0:0:0:
192,192,81944,128,0,82043:0:0:0:0:
64,192,82043,128,0,82142:0:0:0:0:
320,192,82142,1,0,0:0:0:0:
448,192,82142,1,0,0:0:0:0:
64,192,82240,1,0,0:0:0:0:
192,192,82240,1,0,0:0:0:0:
320,192,82339,1,0,0:0:0:0:
448,192,82339,1,0,0:0:0:0:
192,192,82438,1,0,0:0:0:0:
64,192,82438,1,0,0:0:0:0:
320,192,82536,1,0,0:0:0:0:
448,192,82536,1,0,0:0:0:0:
64,192,82635,1,0,0:0:0:0:
192,192,82635,1,0,0:0:0:0:
448,192,82734,1,0,0:0:0:0:
320,192,82734,1,0,0:0:0:0:
192,192,82734,1,0,0:0:0:0:
64,192,82734,1,0,0:0:0:0:
64,192,83129,128,0,83227:0:0:0:0:
192,192,83129,128,0,83227:0:0:0:0:
448,192,83129,128,0,83227:0:0:0:0:
64,192,83326,1,0,0:0:0:0:
192,192,83326,1,0,0:0:0:0:
320,192,83425,1,0,0:0:0:0:
448,192,83425,1,0,0:0:0:0:
448,192,83523,1,0,0:0:0:0:
192,192,83523,1,0,0:0:0:0:
64,192,83523,1,0,0:0:0:0:
320,192,83523,1,0,0:0:0:0:
64,192,83918,128,0,84017:0:0:0:0:
320,192,83918,128,0,84017:0:0:0:0:
448,192,83918,128,0,84017:0:0:0:0:
320,192,84115,1,0,0:0:0:0:
448,192,84115,1,0,0:0:0:0:
192,192,84214,1,0,0:0:0:0:
64,192,84214,1,0,0:0:0:0:
448,192,84313,1,0,0:0:0:0:
320,192,84313,1,0,0:0:0:0:
192,192,84313,1,0,0:0:0:0:
64,192,84313,1,0,0:0:0:0:
320,192,84510,1,0,0:0:0:0:
448,192,84510,1,0,0:0:0:0:
192,192,84609,1,0,0:0:0:0:
64,192,84609,1,0,0:0:0:0:
320,192,84708,1,0,0:0:0:0:
448,192,84708,1,0,0:0:0:0:
192,192,84806,1,0,0:0:0:0:
64,192,84806,1,0,0:0:0:0:
448,192,84905,1,0,0:0:0:0:
320,192,84905,1,0,0:0:0:0:
192,192,85004,1,0,0:0:0:0:
64,192,85004,1,0,0:0:0:0:
320,192,85102,1,0,0:0:0:0:
448,192,85102,1,0,0:0:0:0:
192,192,85102,1,0,0:0:0:0:
64,192,85102,1,0,0:0:0:0:
64,192,85201,1,0,0:0:0:0:
192,192,85201,1,0,0:0:0:0:
320,192,85300,1,0,0:0:0:0:
448,192,85300,1,0,0:0:0:0:
192,192,85398,1,0,0:0:0:0:
64,192,85398,1,0,0:0:0:0:
320,192,85497,1,0,0:0:0:0:
448,192,85497,1,0,0:0:0:0:
192,192,85596,1,0,0:0:0:0:
64,192,85596,1,0,0:0:0:0:
320,192,85694,1,0,0:0:0:0:
448,192,85694,1,0,0:0:0:0:
192,192,85793,1,0,0:0:0:0:
64,192,85793,1,0,0:0:0:0:
64,192,85892,1,0,0:0:0:0:
192,192,85892,1,0,0:0:0:0:
320,192,85892,1,0,0:0:0:0:
448,192,85892,1,0,0:0:0:0:
64,192,86286,128,0,86385:0:0:0:0:
448,192,86286,128,0,86385:0:0:0:0:
320,192,86286,128,0,86385:0:0:0:0:
64,192,86681,1,0,0:0:0:0:
192,192,86681,1,0,0:0:0:0:
320,192,86681,1,0,0:0:0:0:
448,192,86681,1,0,0:0:0:0:
192,192,87076,128,0,87175:0:0:0:0:
448,192,87076,128,0,87175:0:0:0:0:
64,192,87076,128,0,87175:0:0:0:0:
64,192,87471,1,0,0:0:0:0:
448,192,87471,1,0,0:0:0:0:
64,192,87668,128,0,87767:0:0:0:0:
192,192,87668,128,0,87767:0:0:0:0:
320,192,87668,128,0,87767:0:0:0:0:
448,192,87668,128,0,87767:0:0:0:0:
448,192,87964,128,0,88063:0:0:0:0:
192,192,87964,128,0,88063:0:0:0:0:
320,192,87964,128,0,88063:0:0:0:0:
64,192,87964,128,0,88063:0:0:0:0:
64,192,88260,128,0,88458:0:0:0:0:
192,192,88260,128,0,88556:0:0:0:0:
320,192,88260,128,0,88655:0:0:0:0:
448,192,88260,128,0,88754:0:0:0:0:
64,192,88556,128,0,89050:0:0:0:0:
192,192,88655,128,0,89050:0:0:0:0:
320,192,88754,128,0,89050:0:0:0:0:
448,192,88852,128,0,89050:0:0:0:0:
