osu file format v14

[General]
AudioFilename: audio.mp3
AudioLeadIn: 0
PreviewTime: 46907
Countdown: 0
SampleSet: Soft
StackLeniency: 0.4
Mode: 0
LetterboxInBreaks: 0
WidescreenStoryboard: 1

[Editor]
Bookmarks: 63100
DistanceSpacing: 1.1
BeatDivisor: 4
GridSize: 4
TimelineZoom: 2.999999

[Metadata]
Title:Blend W
TitleUnicode:Blend W
Artist:MowtenDoo
ArtistUnicode:MowtenDoo
Creator:Kalindraz
Version:Normal
Source:ブレンド・S
Tags:skull kid xxluizxx47 lucifinho alexsander Batatin ekisu marianna snoop doggy dogg style life weed rap rapper Bon Appetit S Blend A coffee smoke electronic english anime pop rap novelty reicavera
BeatmapID:2764497
BeatmapSetID:780368

[Difficulty]
HPDrainRate:3
CircleSize:3
OverallDifficulty:5
ApproachRate:4.5
SliderMultiplier:1.6
SliderTickRate:1

[Events]
//Background and Video events
0,0,"anime.jpg",0,0
Video,0,"snoopdog.mp4"
//Break Periods
//Storyboard Layer 0 (Background)
//Storyboard Layer 1 (Fail)
//Storyboard Layer 2 (Pass)
//Storyboard Layer 3 (Foreground)
//Storyboard Layer 4 (Overlay)
//Storyboard Sound Samples

[TimingPoints]
732,394.736842105263,4,2,1,50,1,0
7047,-100,4,2,1,50,0,0
48100,-100,4,2,1,50,0,1
73363,-100,4,2,1,50,0,0

[Colours]
Combo1 : 0,128,192
Combo2 : 0,255,255
Combo3 : 128,0,255
Combo4 : 255,128,0
Combo5 : 0,255,0

[HitObjects]
304,160,732,6,0,B|288:84|288:84|308:36,2,120,10|8|8,0:0|0:0|0:0,0:0:0:0:
300,248,1521,2,0,B|224:264|224:264|176:244,2,120,10|8|8,0:0|0:0|0:0,0:0:0:0:
384,268,2310,2,0,B|400:344|400:344|380:392,2,120,8|8|8,0:0|0:0|0:0,0:0:0:0:
388,180,3099,2,0,B|464:164|464:164|512:184,2,120,10|8|10,0:0|0:0|0:0,0:0:0:0:
372,92,3889,6,0,L|496:68,2,120,10|8|8,0:0|0:0|0:0,0:0:0:0:
284,96,4679,2,0,L|160:72,2,120,10|8|8,0:0|0:0|0:0,0:0:0:0:
280,184,5468,1,14,0:0:0:0:
44,212,7047,5,12,1:2:0:0:
156,348,7442,1,10,0:0:0:0:
220,184,7837,2,0,B|188:152|188:152|183:118|183:118|143:79,2,120,10|10|8,0:0|0:0|0:0,0:0:0:0:
280,248,8626,6,0,P|364:276|436:236,1,160,10|10,0:0|0:0,0:0:0:0:
416,72,9416,2,0,P|332:44|260:84,1,160,10|10,0:0|0:0,0:0:0:0:
144,192,10205,5,14,0:0:0:0:
252,332,10600,1,8,0:0:0:0:
76,356,10995,2,0,B|41:316|41:316|32:236,2,120,10|10|8,0:0|0:0|0:0,0:0:0:0:
164,372,11784,5,14,0:0:0:0:
256,224,12179,1,10,0:0:0:0:
360,368,12574,1,10,0:0:0:0:
452,220,12969,1,8,0:0:0:0:
368,64,13363,6,0,L|200:56,1,160,14|10,0:0|0:0,0:0:0:0:
96,192,14153,2,0,L|264:200,1,160,10|8,0:0|0:0,0:0:0:0:
432,216,14942,6,0,P|452:264|452:336,2,120,10|10|8,0:0|0:0|0:0,0:0:0:0:
380,144,15731,2,0,B|344:120|344:120|268:120|268:120|232:144,1,160,10|10,0:0|0:0,0:0:0:0:
156,300,16521,6,0,B|92:352|92:352|28:304,1,160,2|6,0:0|0:0,0:0:0:0:
20,128,17310,2,0,B|84:76|84:76|148:124,1,160,2|6,0:0|0:0,0:0:0:0:
344,296,18297,2,0,L|472:320,2,120,8|8|12,0:0|0:0|0:0,0:0:0:0:
8,192,19679,5,6,1:2:0:0:
8,192,21258,5,6,1:2:0:0:
8,192,22837,5,6,1:2:0:0:
8,192,24416,5,6,1:2:0:0:
8,192,25205,1,0,0:0:0:0:
8,192,25995,6,0,P|88:164|156:196,1,160,6|4,3:0|3:0,0:0:0:0:
192,272,26587,1,4,3:0:0:0:
228,352,26784,2,0,P|300:381|373:353,1,160,4|4,3:0|3:0,0:0:0:0:
492,224,27574,6,0,L|460:60,1,160,6|4,3:0|3:0,0:0:0:0:
396,8,28166,1,4,3:0:0:0:
332,68,28363,2,0,L|301:225,1,160,4|4,0:3|0:3,0:0:0:0:
144,304,29153,6,0,B|76:256|76:256|152:216,1,160,6|4,3:0|3:0,0:0:0:0:
224,180,29745,1,4,3:0:0:0:
304,220,29942,2,0,B|371:255|371:255|303:303,1,160,4|8,3:0|0:0,0:0:0:0:
224,340,30534,1,4,3:0:0:0:
144,304,30731,5,4,3:0:0:0:
348,16,31521,1,6,1:2:0:0:
500,104,31916,1,8,0:0:0:0:
328,128,32310,6,0,L|176:72,1,160,6|10,1:2|0:0,0:0:0:0:
132,148,32903,1,0,0:0:0:0:
132,148,33100,2,0,L|284:204,1,160,2|8,1:2|0:0,0:0:0:0:
364,360,33889,5,2,1:2:0:0:
512,264,34284,1,10,1:2:0:0:
360,176,34679,1,2,1:2:0:0:
212,272,35074,1,8,0:0:0:0:
36,264,35468,6,0,P|12:192|40:108,1,160,2|10,1:2|0:0,0:0:0:0:
124,116,36060,1,0,0:0:0:0:
124,116,36258,2,0,P|147:191|123:266,1,160,0|10,0:0|0:0,0:0:0:0:
256,380,37047,5,2,1:2:0:0:
324,220,37442,1,10,0:0:0:0:
400,380,37837,1,2,0:0:0:0:
468,220,38232,1,10,0:0:0:0:
344,96,38626,6,0,P|261:77|182:114,1,160,14|10,1:2|0:0,0:0:0:0:
199,280,39416,2,0,P|281:298|360:261,1,160,10|10,0:0|1:2,0:0:0:0:
500,176,40205,5,10,0:0:0:0:
344,96,40600,1,10,0:0:0:0:
196,192,40995,2,0,P|120:212|40:192,1,160,10|10,3:2|3:2,0:0:0:0:
128,40,41784,6,0,B|216:24|216:24|268:84,2,160,6|12|0,1:2|1:2|1:2,0:0:0:0:
42,193,42968,1,8,1:2:0:0:
42,193,43166,2,0,P|108:244|216:236,1,160,8|2,1:2|1:2,0:0:0:0:
268,232,43758,1,14,1:2:0:0:
376,96,44153,2,0,B|392:144|392:144|384:220,2,120,14|14|6,1:2|1:2|1:2,0:0:0:0:
308,40,44942,6,0,B|260:16|260:16|208:16|208:16|156:48,1,160,6|8,1:2|1:2,0:0:0:0:
76,200,45731,2,0,B|60:248|60:248|68:324,2,120,6|6|6,1:2|1:2|1:2,0:0:0:0:
112,120,46521,5,6,2:0:0:0:
88,208,48100,6,0,P|160:192|252:240,1,160,14|10,1:2|0:0,0:0:0:0:
256,312,48692,1,0,0:0:0:0:
332,356,48889,2,0,P|396:360|448:336,2,120,10|8|8,0:0|0:0|0:0,0:0:0:0:
256,312,49679,6,0,B|208:336|208:336|156:336|156:336|104:308,1,160,10|10,0:0|0:0,0:0:0:0:
184,152,50468,2,0,B|232:128|232:128|284:128|284:128|336:156,1,160,10|10,0:0|0:0,0:0:0:0:
480,248,51258,5,14,0:0:0:0:
319,329,51653,1,10,0:0:0:0:
331,153,52047,2,0,B|344:92|344:92|344:24,2,120,10|8|8,0:0|0:0|0:0,0:0:0:0:
284,228,52837,6,0,L|112:236,1,160,14|10,0:0|0:0,0:0:0:0:
28,88,53626,2,0,L|200:80,1,160,10|8,0:0|0:0,0:0:0:0:
364,56,54416,5,14,0:0:0:0:
496,172,54810,1,10,0:0:0:0:
404,324,55205,1,10,0:0:0:0:
272,208,55599,1,0,0:0:0:0:
176,356,55995,6,0,P|96:360|32:312,1,160,10|10,0:0|0:0,0:0:0:0:
20,228,56587,1,0,0:0:0:0:
24,140,56784,2,0,P|87:94|166:98,1,160,10|10,0:0|0:0,0:0:0:0:
328,168,57574,6,0,P|412:168|452:104,1,160,2|12,0:0|0:0,0:0:0:0:
420,28,58166,1,0,0:0:0:0:
420,28,58363,2,0,P|336:28|296:92,1,160,2|12,0:0|0:0,0:0:0:0:
332,260,59153,6,0,P|412:260|452:244,2,120,14|8|8,0:0|0:0|0:0,0:0:0:0:
252,220,59942,2,0,P|176:196|96:228,1,160,10|10,0:0|0:0,0:0:0:0:
184,380,60731,6,0,L|348:368,1,160,14|10,0:0|0:0,0:0:0:0:
424,328,61324,1,0,0:0:0:0:
484,264,61521,2,0,B|496:208|496:208|484:144,2,120,10|8|8,0:0|0:0|0:0,0:0:0:0:
424,328,62310,6,0,B|393:290|393:290|361:282|361:282|336:261|336:261|281:255,1,160,10|10,0:0|0:0,0:0:0:0:
268,80,63100,2,0,B|298:117|298:117|330:125|330:125|355:146|355:146|410:152,1,160,2|10,0:0|0:0,0:0:0:0:
500,4,63889,5,10,0:0:0:0:
324,8,64284,1,10,0:0:0:0:
152,48,64679,2,0,P|148:104|184:160,2,120,10|8|8,0:0|0:0|0:0,0:0:0:0:
232,12,65468,5,12,0:0:0:0:
404,56,65863,1,12,0:0:0:0:
472,220,66258,1,12,0:0:0:0:
300,184,66653,1,14,0:3:0:0:
176,304,67047,6,0,L|0:280,1,160,6|8,0:0|0:0,0:0:0:0:
24,104,67837,2,0,L|200:128,1,160,2|10,0:0|0:0,0:0:0:0:
348,192,68626,5,2,0:0:0:0:
476,72,69021,1,10,0:0:0:0:
420,240,69416,2,0,P|356:276|272:236,1,160,2|10,0:0|0:0,0:0:0:0:
156,124,70205,5,12,1:2:0:0:
32,248,70600,1,12,1:2:0:0:
168,360,70995,2,0,L|300:348,2,120,14|12|6,1:2|1:2|1:2,0:0:0:0:
160,272,71784,6,0,L|328:260,1,160,0|8,0:0|0:0,0:0:0:0:
488,200,72574,1,2,3:0:0:0:
360,80,72968,1,6,3:0:0:0:
196,148,73363,6,0,B|120:160|120:160|40:128,1,160,14|10,0:0|0:0,0:0:0:0:
44,40,73955,1,0,0:0:0:0:
44,40,74153,2,0,B|120:28|120:28|200:60,1,160,10|10,0:0|0:0,0:0:0:0:
360,128,74942,6,0,P|424:132|476:92,2,120,10|8|8,0:0|0:0|0:0,0:0:0:0:
288,80,75731,2,0,B|256:132|256:132|264:256,1,160,10|10,0:0|0:0,0:0:0:0:
356,380,76521,6,0,L|480:372,2,120,14|12|14,0:0|0:0|0:0,0:0:0:0:
308,308,77310,2,0,L|363:196,2,120,14|12|14,0:0|0:0|0:0,0:0:0:0:
220,308,78100,2,0,L|164:196,2,120,14|12|14,0:0|0:0|0:0,0:0:0:0:
172,380,78890,2,0,L|48:372,2,120,14|12|14,0:0|0:0|0:0,0:0:0:0:
260,380,79679,5,14,0:0:0:0:
256,204,80074,1,10,0:0:0:0:
100,284,80468,2,0,P|76:232|100:124,1,160,10|10,0:0|0:0,0:0:0:0:
236,32,81258,6,0,B|303:23|303:23|361:43,2,120,10|8|8,0:0|0:0|0:0,0:0:0:0:
205,114,82047,2,0,B|283:148|283:148|358:131,1,160,10|6,0:0|0:3,0:0:0:0:
504,36,82837,5,10,0:0:0:0:
464,208,83231,1,6,0:0:0:0:
315,303,83626,1,10,0:0:0:0:
355,131,84020,1,6,0:0:0:0:
208,228,84416,6,0,B|134:258|134:258|95:223|95:223|95:158|95:158|134:124|134:124|216:150,1,320,6|8,0:0|0:0,0:0:0:0:
364,220,85600,1,4,3:0:0:0:
220,320,85995,6,0,P|128:352|64:328,1,160,10|6,0:0|0:0,0:0:0:0:
54,159,86784,2,0,P|146:127|210:151,1,160,2|6,0:0|0:0,0:0:0:0:
464,192,87771,2,0,L|488:316,2,120,4|4|6,0:0|0:0|0:0,0:0:0:0:
