osu file format v14

[General]
AudioFilename: audio.mp3
AudioLeadIn: 0
PreviewTime: 46934
Countdown: 0
SampleSet: Soft
StackLeniency: 0.7
Mode: 3
LetterboxInBreaks: 0
SpecialStyle: 0
WidescreenStoryboard: 0

[Editor]
DistanceSpacing: 0.8
BeatDivisor: 4
GridSize: 32
TimelineZoom: 1.9

[Metadata]
Title:Blend W
TitleUnicode:Blend W
Artist:MowtenDoo
ArtistUnicode:MowtenDoo
Creator:Mirea
Version:Sadistic Weed
Source:ブレンド・S
Tags:smoke weed everyday marijuana bon appetit s doggy meme blend a snoop dogg parody mashup soundclown electronic instrumental anime
BeatmapID:1691920
BeatmapSetID:806066

[Difficulty]
HPDrainRate:8
CircleSize:4
OverallDifficulty:8
ApproachRate:5
SliderMultiplier:1.4
SliderTickRate:1

[Events]
//Background and Video events
0,0,"BG.jpg",0,0
//Break Periods
//Storyboard Layer 0 (Background)
//Storyboard Layer 1 (Fail)
//Storyboard Layer 2 (Pass)
//Storyboard Layer 3 (Foreground)
//Storyboard Layer 4 (Overlay)
//Storyboard Sound Samples

[TimingPoints]
750,394.736842105263,4,2,1,40,1,0
48118,-100,4,2,1,40,0,1
59960,-100,4,2,1,40,0,0
60749,-100,4,2,1,40,0,1
67065,-100,4,2,1,40,0,0

[HitObjects]
64,192,157,5,0,0:0:0:0:
192,192,256,1,0,0:0:0:0:
320,192,355,128,0,750:0:0:0:0:
64,192,750,1,2,0:0:0:0:
192,192,750,128,4,947:0:0:0:0:
448,192,750,1,0,0:0:0:0:
448,192,947,1,0,0:0:0:0:
64,192,1046,128,8,1243:0:0:0:0:
192,192,1046,1,0,0:0:0:0:
448,192,1144,1,2,0:0:0:0:
320,192,1243,1,0,0:0:0:0:
64,192,1342,1,8,0:0:0:0:
192,192,1342,1,0,0:0:0:0:
64,192,1539,1,2,0:0:0:0:
448,192,1539,128,0,1736:0:0:0:0:
192,192,1638,1,8,0:0:0:0:
320,192,1638,1,0,0:0:0:0:
64,192,1736,1,0,0:0:0:0:
192,192,1835,1,0,0:0:0:0:
320,192,1934,1,2,0:0:0:0:
448,192,1934,1,0,0:0:0:0:
64,192,2032,1,0,0:0:0:0:
320,192,2131,1,0,0:0:0:0:
192,192,2230,1,0,0:0:0:0:
320,192,2328,128,2,2526:0:0:0:0:
448,192,2328,1,0,0:0:0:0:
64,192,2427,1,0,0:0:0:0:
192,192,2526,1,0,0:0:0:0:
320,192,2624,1,8,0:0:0:0:
448,192,2624,128,0,2822:0:0:0:0:
192,192,2723,1,2,0:0:0:0:
64,192,2921,1,8,0:0:0:0:
192,192,2921,1,0,0:0:0:0:
320,192,3019,1,0,0:0:0:0:
64,192,3118,128,2,3315:0:0:0:0:
448,192,3118,1,0,0:0:0:0:
192,192,3217,1,8,0:0:0:0:
320,192,3217,1,0,0:0:0:0:
448,192,3315,1,0,0:0:0:0:
192,192,3414,1,0,0:0:0:0:
64,192,3513,128,2,3710:0:0:0:0:
320,192,3513,1,0,0:0:0:0:
448,192,3710,1,0,0:0:0:0:
320,192,3809,1,0,0:0:0:0:
64,192,3907,1,2,0:0:0:0:
448,192,3907,128,0,4105:0:0:0:0:
192,192,4006,1,0,0:0:0:0:
320,192,4105,1,0,0:0:0:0:
64,192,4203,1,8,0:0:0:0:
192,192,4203,128,0,4401:0:0:0:0:
448,192,4302,1,2,0:0:0:0:
320,192,4401,1,0,0:0:0:0:
64,192,4499,1,8,0:0:0:0:
192,192,4499,1,0,0:0:0:0:
64,192,4697,1,2,0:0:0:0:
448,192,4697,128,0,4894:0:0:0:0:
192,192,4796,1,8,0:0:0:0:
320,192,4796,1,0,0:0:0:0:
192,192,4894,1,8,0:0:0:0:
320,192,4894,1,0,0:0:0:0:
64,192,5092,128,2,5190:0:0:0:0:
448,192,5092,128,0,5190:0:0:0:0:
192,192,5289,1,2,0:0:0:0:
448,192,5289,1,0,0:0:0:0:
64,192,5486,128,2,6671:0:0:0:0:
320,192,5486,128,4,5782:0:0:0:0:
448,192,5486,128,0,5782:0:0:0:0:
192,192,5881,128,0,6177:0:0:0:0:
448,192,5881,128,0,6177:0:0:0:0:
192,192,6276,128,0,6671:0:0:0:0:
320,192,6276,128,0,6868:0:0:0:0:
448,192,6671,128,0,6868:0:0:0:0:
192,192,6868,128,0,7065:0:0:0:0:
64,192,7065,128,2,7263:0:0:0:0:
320,192,7065,1,4,0:0:0:0:
448,192,7065,1,0,0:0:0:0:
192,192,7263,1,8,0:0:0:0:
448,192,7263,1,0,0:0:0:0:
192,192,7460,1,2,0:0:0:0:
320,192,7460,1,0,0:0:0:0:
64,192,7657,1,8,0:0:0:0:
320,192,7657,1,0,0:0:0:0:
192,192,7855,128,2,8052:0:0:0:0:
448,192,7855,1,0,0:0:0:0:
320,192,8052,1,8,0:0:0:0:
448,192,8052,1,0,0:0:0:0:
64,192,8151,128,0,8348:0:0:0:0:
192,192,8249,1,2,0:0:0:0:
192,192,8447,1,8,0:0:0:0:
320,192,8447,1,0,0:0:0:0:
64,192,8644,1,2,0:0:0:0:
448,192,8644,128,0,8842:0:0:0:0:
64,192,8842,1,8,0:0:0:0:
192,192,8842,1,0,0:0:0:0:
192,192,9039,128,2,9236:0:0:0:0:
448,192,9039,1,0,0:0:0:0:
320,192,9236,1,8,0:0:0:0:
448,192,9236,1,0,0:0:0:0:
64,192,9434,1,2,0:0:0:0:
320,192,9434,128,0,9631:0:0:0:0:
64,192,9631,1,8,0:0:0:0:
192,192,9631,1,0,0:0:0:0:
64,192,9828,128,2,10026:0:0:0:0:
448,192,9828,1,0,0:0:0:0:
320,192,10026,1,8,0:0:0:0:
448,192,10026,1,0,0:0:0:0:
64,192,10223,1,2,0:0:0:0:
192,192,10223,1,4,0:0:0:0:
448,192,10223,1,0,0:0:0:0:
64,192,10421,1,8,0:0:0:0:
320,192,10421,1,0,0:0:0:0:
192,192,10519,1,0,0:0:0:0:
320,192,10618,1,2,0:0:0:0:
448,192,10618,1,0,0:0:0:0:
192,192,10815,1,8,0:0:0:0:
448,192,10815,1,0,0:0:0:0:
64,192,11013,128,2,11210:0:0:0:0:
320,192,11013,1,0,0:0:0:0:
192,192,11210,1,8,0:0:0:0:
320,192,11210,1,0,0:0:0:0:
448,192,11309,128,0,11506:0:0:0:0:
64,192,11407,1,2,0:0:0:0:
192,192,11605,1,8,0:0:0:0:
320,192,11605,1,0,0:0:0:0:
64,192,11802,128,2,11901:0:0:0:0:
320,192,11802,128,4,11999:0:0:0:0:
448,192,11802,128,0,11999:0:0:0:0:
64,192,11999,1,8,0:0:0:0:
192,192,11999,1,0,0:0:0:0:
64,192,12197,128,2,12394:0:0:0:0:
192,192,12197,128,4,12394:0:0:0:0:
448,192,12197,128,0,12296:0:0:0:0:
320,192,12394,1,8,0:0:0:0:
448,192,12394,1,0,0:0:0:0:
64,192,12592,1,2,0:0:0:0:
192,192,12592,1,4,0:0:0:0:
320,192,12690,1,8,0:0:0:0:
448,192,12690,1,0,0:0:0:0:
64,192,12789,1,8,0:0:0:0:
192,192,12789,1,0,0:0:0:0:
320,192,12888,1,8,0:0:0:0:
448,192,12888,1,0,0:0:0:0:
64,192,12986,1,2,0:0:0:0:
192,192,12986,1,8,0:0:0:0:
320,192,13085,1,8,0:0:0:0:
448,192,13085,1,0,0:0:0:0:
64,192,13184,1,8,0:0:0:0:
192,192,13184,1,0,0:0:0:0:
320,192,13282,1,8,0:0:0:0:
64,192,13381,1,2,0:0:0:0:
192,192,13381,1,4,0:0:0:0:
448,192,13381,1,0,0:0:0:0:
320,192,13480,1,0,0:0:0:0:
64,192,13578,1,8,0:0:0:0:
448,192,13578,1,0,0:0:0:0:
192,192,13677,1,0,0:0:0:0:
320,192,13776,1,2,0:0:0:0:
448,192,13776,1,0,0:0:0:0:
192,192,13874,1,0,0:0:0:0:
64,192,13973,1,8,0:0:0:0:
320,192,13973,128,0,14072:0:0:0:0:
448,192,14072,128,0,14171:0:0:0:0:
64,192,14171,128,2,14368:0:0:0:0:
192,192,14171,1,0,0:0:0:0:
448,192,14269,1,0,0:0:0:0:
192,192,14368,1,8,0:0:0:0:
320,192,14368,1,0,0:0:0:0:
64,192,14467,128,0,14565:0:0:0:0:
320,192,14565,1,2,0:0:0:0:
448,192,14565,1,0,0:0:0:0:
192,192,14664,1,0,0:0:0:0:
64,192,14763,1,8,0:0:0:0:
448,192,14763,128,0,14861:0:0:0:0:
64,192,14960,128,2,15157:0:0:0:0:
320,192,14960,1,0,0:0:0:0:
192,192,15157,1,8,0:0:0:0:
448,192,15157,1,0,0:0:0:0:
320,192,15256,128,0,15453:0:0:0:0:
64,192,15355,1,2,0:0:0:0:
192,192,15552,128,8,15651:0:0:0:0:
320,192,15552,1,4,0:0:0:0:
448,192,15552,1,0,0:0:0:0:
64,192,15749,128,2,15947:0:0:0:0:
448,192,15749,1,0,0:0:0:0:
192,192,15848,1,0,0:0:0:0:
320,192,15947,1,2,0:0:0:0:
448,192,15947,1,0,0:0:0:0:
192,192,16046,1,2,0:0:0:0:
64,192,16144,1,2,0:0:0:0:
448,192,16144,1,0,0:0:0:0:
64,192,16342,1,4,0:0:0:0:
192,192,16342,1,8,0:0:0:0:
320,192,16342,1,0,0:0:0:0:
192,192,16539,1,2,0:0:0:0:
448,192,16539,1,0,0:0:0:0:
192,192,16736,1,2,0:0:0:0:
448,192,16736,1,0,0:0:0:0:
64,192,16934,1,2,0:0:0:0:
320,192,16934,1,4,0:0:0:0:
448,192,16934,1,0,0:0:0:0:
64,192,17328,1,2,0:0:0:0:
320,192,17328,1,0,0:0:0:0:
64,192,17526,1,2,0:0:0:0:
320,192,17526,1,0,0:0:0:0:
64,192,17723,1,2,0:0:0:0:
192,192,17723,1,4,0:0:0:0:
448,192,17723,1,0,0:0:0:0:
320,192,17822,1,0,0:0:0:0:
448,192,17921,128,0,18019:0:0:0:0:
64,192,18118,1,2,0:0:0:0:
192,192,18217,1,0,0:0:0:0:
320,192,18315,1,2,0:0:0:0:
448,192,18315,1,8,0:0:0:0:
64,192,18414,1,0,0:0:0:0:
320,192,18513,1,0,0:0:0:0:
64,192,18611,1,2,0:0:0:0:
192,192,18611,1,8,0:0:0:0:
448,192,18710,1,0,0:0:0:0:
192,192,18809,1,0,0:0:0:0:
64,192,18907,128,2,19302:0:0:0:0:
320,192,18907,128,8,19302:0:0:0:0:
448,192,18907,128,4,19302:0:0:0:0:
64,192,19697,1,2,0:0:0:0:
192,192,19697,1,4,0:0:0:0:
320,192,19697,1,0,0:0:0:0:
64,192,21276,1,2,0:0:0:0:
192,192,21276,1,8,0:0:0:0:
320,192,21276,1,0,0:0:0:0:
448,192,22657,128,0,22855:0:0:0:0:
64,192,22855,1,8,0:0:0:0:
192,192,22855,1,2,0:0:0:0:
320,192,22855,1,0,0:0:0:0:
320,192,24236,128,0,24434:0:0:0:0:
64,192,24434,1,2,0:0:0:0:
192,192,24434,1,8,0:0:0:0:
448,192,24434,1,0,0:0:0:0:
320,192,25026,128,0,25223:0:0:0:0:
64,192,25223,1,2,0:0:0:0:
192,192,25223,1,4,0:0:0:0:
448,192,25223,1,0,0:0:0:0:
64,192,25519,1,8,0:0:0:0:
192,192,25519,1,0,0:0:0:0:
320,192,25618,1,2,0:0:0:0:
448,192,25618,1,0,0:0:0:0:
64,192,25815,1,8,0:0:0:0:
320,192,25815,1,0,0:0:0:0:
192,192,25914,1,8,0:0:0:0:
320,192,26013,1,2,0:0:0:0:
448,192,26013,1,4,0:0:0:0:
64,192,26210,1,8,0:0:0:0:
448,192,26210,1,0,0:0:0:0:
320,192,26309,1,8,0:0:0:0:
64,192,26407,1,2,0:0:0:0:
192,192,26407,1,0,0:0:0:0:
320,192,26506,1,8,0:0:0:0:
192,192,26605,1,8,0:0:0:0:
448,192,26605,1,0,0:0:0:0:
64,192,26802,1,2,0:0:0:0:
448,192,26802,1,0,0:0:0:0:
192,192,26901,1,8,0:0:0:0:
320,192,26999,1,8,0:0:0:0:
448,192,26999,1,0,0:0:0:0:
64,192,27098,1,8,0:0:0:0:
192,192,27197,1,2,0:0:0:0:
320,192,27197,1,0,0:0:0:0:
64,192,27394,1,8,0:0:0:0:
192,192,27394,1,0,0:0:0:0:
448,192,27493,1,8,0:0:0:0:
64,192,27592,1,2,0:0:0:0:
320,192,27592,1,0,0:0:0:0:
448,192,27789,1,0,0:0:0:0:
320,192,27789,1,8,0:0:0:0:
192,192,27888,1,8,0:0:0:0:
64,192,27986,1,2,0:0:0:0:
448,192,27986,1,0,0:0:0:0:
320,192,28085,1,0,0:0:0:0:
64,192,28184,1,8,0:0:0:0:
192,192,28184,1,0,0:0:0:0:
320,192,28282,1,8,0:0:0:0:
64,192,28381,1,2,0:0:0:0:
448,192,28381,1,0,0:0:0:0:
192,192,28480,1,8,0:0:0:0:
320,192,28578,1,8,0:0:0:0:
448,192,28578,1,0,0:0:0:0:
64,192,28677,1,0,0:0:0:0:
320,192,28776,1,2,0:0:0:0:
448,192,28776,1,0,0:0:0:0:
64,192,28874,1,8,0:0:0:0:
192,192,28874,1,0,0:0:0:0:
320,192,28973,1,0,0:0:0:0:
192,192,29072,1,8,0:0:0:0:
64,192,29171,1,2,0:0:0:0:
448,192,29171,1,0,0:0:0:0:
320,192,29368,1,8,0:0:0:0:
64,192,29467,1,8,0:0:0:0:
192,192,29467,1,0,0:0:0:0:
320,192,29565,1,2,0:0:0:0:
448,192,29565,1,0,0:0:0:0:
64,192,29763,1,8,0:0:0:0:
448,192,29763,1,0,0:0:0:0:
192,192,29861,1,8,0:0:0:0:
320,192,29960,1,2,0:0:0:0:
448,192,29960,1,0,0:0:0:0:
192,192,30059,1,8,0:0:0:0:
64,192,30157,1,8,0:0:0:0:
320,192,30157,1,0,0:0:0:0:
64,192,30355,1,2,0:0:0:0:
192,192,30355,1,0,0:0:0:0:
448,192,30453,1,8,0:0:0:0:
64,192,30552,1,8,0:0:0:0:
320,192,30552,1,0,0:0:0:0:
192,192,30651,1,8,0:0:0:0:
64,192,30749,1,2,0:0:0:0:
448,192,30749,1,0,0:0:0:0:
320,192,30749,1,4,0:0:0:0:
320,192,31342,1,0,0:0:0:0:
192,192,31440,1,0,0:0:0:0:
64,192,31539,1,2,0:0:0:0:
320,192,31539,128,4,31736:0:0:0:0:
448,192,31539,1,0,0:0:0:0:
64,192,31835,1,8,0:0:0:0:
192,192,31835,1,0,0:0:0:0:
320,192,31934,1,2,0:0:0:0:
448,192,31934,1,0,0:0:0:0:
64,192,32131,1,8,0:0:0:0:
448,192,32131,1,0,0:0:0:0:
320,192,32230,1,8,0:0:0:0:
64,192,32328,1,4,0:0:0:0:
192,192,32328,1,2,0:0:0:0:
448,192,32328,128,0,32624:0:0:0:0:
64,192,32624,128,0,32921:0:0:0:0:
320,192,32723,1,2,0:0:0:0:
448,192,32723,128,0,32921:0:0:0:0:
192,192,32921,1,0,0:0:0:0:
448,192,33019,1,0,0:0:0:0:
64,192,33118,128,2,33414:0:0:0:0:
320,192,33118,1,0,0:0:0:0:
448,192,33414,128,0,33710:0:0:0:0:
64,192,33513,128,2,33710:0:0:0:0:
192,192,33513,1,0,0:0:0:0:
320,192,33710,1,0,0:0:0:0:
64,192,33907,1,2,0:0:0:0:
448,192,33907,1,0,0:0:0:0:
192,192,34006,128,0,34203:0:0:0:0:
448,192,34105,128,0,34203:0:0:0:0:
320,192,34203,128,0,34401:0:0:0:0:
64,192,34302,128,2,34401:0:0:0:0:
192,192,34302,1,0,0:0:0:0:
448,192,34401,128,0,34598:0:0:0:0:
192,192,34499,128,0,34697:0:0:0:0:
320,192,34598,128,0,34697:0:0:0:0:
64,192,34697,128,2,34894:0:0:0:0:
448,192,34697,1,0,0:0:0:0:
320,192,34894,1,0,0:0:0:0:
192,192,34993,128,0,35190:0:0:0:0:
448,192,35092,1,2,0:0:0:0:
320,192,35289,128,0,35486:0:0:0:0:
64,192,35486,1,2,0:0:0:0:
192,192,35486,1,4,0:0:0:0:
448,192,35486,128,0,35782:0:0:0:0:
64,192,35782,128,0,36078:0:0:0:0:
320,192,35881,1,2,0:0:0:0:
448,192,35881,128,0,36078:0:0:0:0:
192,192,36078,1,0,0:0:0:0:
64,192,36276,128,2,36572:0:0:0:0:
320,192,36276,1,0,0:0:0:0:
448,192,36572,128,0,36868:0:0:0:0:
64,192,36671,128,2,36868:0:0:0:0:
192,192,36671,1,0,0:0:0:0:
320,192,36868,1,0,0:0:0:0:
64,192,37065,128,2,37164:0:0:0:0:
320,192,37065,1,0,0:0:0:0:
192,192,37164,128,0,37263:0:0:0:0:
448,192,37263,128,0,37361:0:0:0:0:
320,192,37361,128,0,37460:0:0:0:0:
64,192,37460,128,2,37855:0:0:0:0:
192,192,37460,128,0,37559:0:0:0:0:
320,192,37559,128,0,37657:0:0:0:0:
448,192,37657,128,0,37756:0:0:0:0:
192,192,37756,128,0,37855:0:0:0:0:
320,192,37855,1,2,0:0:0:0:
448,192,37855,1,0,0:0:0:0:
64,192,38249,1,2,0:0:0:0:
192,192,38249,1,0,0:0:0:0:
64,192,38644,1,2,0:0:0:0:
192,192,38644,1,4,0:0:0:0:
448,192,38644,1,0,0:0:0:0:
64,192,38842,1,8,0:0:0:0:
320,192,38842,1,0,0:0:0:0:
448,192,38842,1,0,0:0:0:0:
192,192,39039,1,2,0:0:0:0:
320,192,39039,1,0,0:0:0:0:
64,192,39236,1,8,0:0:0:0:
192,192,39236,1,0,0:0:0:0:
448,192,39236,1,0,0:0:0:0:
320,192,39434,1,2,0:0:0:0:
448,192,39434,1,0,0:0:0:0:
64,192,39631,1,8,0:0:0:0:
192,192,39631,1,0,0:0:0:0:
320,192,39631,1,0,0:0:0:0:
192,192,39828,1,2,0:0:0:0:
448,192,39828,1,0,0:0:0:0:
64,192,40026,1,8,0:0:0:0:
320,192,40026,1,0,0:0:0:0:
448,192,40026,1,0,0:0:0:0:
64,192,40223,1,2,0:0:0:0:
192,192,40223,1,0,0:0:0:0:
192,192,40421,1,8,0:0:0:0:
320,192,40421,1,0,0:0:0:0:
448,192,40421,1,0,0:0:0:0:
64,192,40618,1,2,0:0:0:0:
448,192,40618,1,0,0:0:0:0:
64,192,40815,1,8,0:0:0:0:
192,192,40815,1,0,0:0:0:0:
320,192,40815,1,0,0:0:0:0:
320,192,41013,1,2,0:0:0:0:
448,192,41013,1,0,0:0:0:0:
64,192,41210,1,8,0:0:0:0:
192,192,41210,1,0,0:0:0:0:
320,192,41309,1,8,0:0:0:0:
448,192,41309,1,0,0:0:0:0:
64,192,41407,1,2,0:0:0:0:
192,192,41407,1,0,0:0:0:0:
320,192,41506,1,8,0:0:0:0:
448,192,41506,1,0,0:0:0:0:
64,192,41605,1,8,0:0:0:0:
192,192,41605,1,0,0:0:0:0:
320,192,41703,1,8,0:0:0:0:
64,192,41802,128,2,42098:0:0:0:0:
192,192,41802,1,4,0:0:0:0:
448,192,41802,128,0,42098:0:0:0:0:
64,192,42197,1,2,0:0:0:0:
192,192,42197,128,4,42493:0:0:0:0:
448,192,42197,128,0,42493:0:0:0:0:
64,192,42592,1,2,0:0:0:0:
320,192,42592,128,4,42888:0:0:0:0:
448,192,42592,128,0,42888:0:0:0:0:
192,192,42789,1,10,0:0:0:0:
64,192,42986,1,8,0:0:0:0:
192,192,42986,1,0,0:0:0:0:
448,192,42986,1,0,0:0:0:0:
64,192,43184,128,2,43578:0:0:0:0:
320,192,43184,1,4,0:0:0:0:
448,192,43184,128,0,43578:0:0:0:0:
192,192,43578,1,2,0:0:0:0:
320,192,43578,1,4,0:0:0:0:
64,192,43776,1,4,0:0:0:0:
320,192,43776,1,8,0:0:0:0:
448,192,43776,128,0,43973:0:0:0:0:
192,192,43874,1,0,0:0:0:0:
64,192,43973,1,0,0:0:0:0:
320,192,44072,1,0,0:0:0:0:
64,192,44171,128,2,44368:0:0:0:0:
448,192,44171,1,0,0:0:0:0:
192,192,44368,1,8,0:0:0:0:
320,192,44368,1,0,0:0:0:0:
64,192,44467,1,8,0:0:0:0:
448,192,44467,128,0,44664:0:0:0:0:
320,192,44565,1,2,0:0:0:0:
192,192,44664,1,0,0:0:0:0:
64,192,44763,128,2,44960:0:0:0:0:
448,192,44763,1,0,0:0:0:0:
192,192,44960,1,2,0:0:0:0:
448,192,44960,128,4,45355:0:0:0:0:
64,192,45157,1,2,0:0:0:0:
320,192,45157,1,0,0:0:0:0:
64,192,45355,128,2,45453:0:0:0:0:
192,192,45355,128,0,45552:0:0:0:0:
320,192,45453,128,0,45749:0:0:0:0:
448,192,45552,128,2,45749:0:0:0:0:
64,192,45749,128,2,46046:0:0:0:0:
192,192,45749,1,8,0:0:0:0:
192,192,45947,1,2,0:0:0:0:
320,192,46046,1,8,0:0:0:0:
448,192,46046,128,2,46342:0:0:0:0:
192,192,46144,1,2,0:0:0:0:
64,192,46342,128,2,46934:0:0:0:0:
320,192,46342,1,8,0:0:0:0:
192,192,46539,128,2,46934:0:0:0:0:
320,192,46539,128,4,46934:0:0:0:0:
448,192,46539,128,0,46934:0:0:0:0:
320,192,47328,1,0,0:0:0:0:
64,192,47427,1,0,0:0:0:0:
192,192,47526,1,0,0:0:0:0:
320,192,47624,1,0,0:0:0:0:
64,192,47723,128,0,47921:0:0:0:0:
448,192,47822,1,0,0:0:0:0:
192,192,47921,1,0,0:0:0:0:
320,192,48019,1,0,0:0:0:0:
64,192,48118,1,4,0:0:0:0:
192,192,48118,1,2,0:0:0:0:
448,192,48118,1,0,0:0:0:0:
320,192,48217,1,0,0:0:0:0:
64,192,48315,1,8,0:0:0:0:
448,192,48315,1,0,0:0:0:0:
192,192,48414,1,0,0:0:0:0:
320,192,48513,1,2,0:0:0:0:
448,192,48513,1,0,0:0:0:0:
192,192,48611,1,0,0:0:0:0:
64,192,48710,1,8,0:0:0:0:
448,192,48710,1,0,0:0:0:0:
320,192,48809,1,0,0:0:0:0:
64,192,48907,1,2,0:0:0:0:
192,192,48907,1,0,0:0:0:0:
448,192,49006,1,0,0:0:0:0:
64,192,49105,1,8,0:0:0:0:
320,192,49105,1,0,0:0:0:0:
192,192,49203,1,0,0:0:0:0:
320,192,49302,1,2,0:0:0:0:
448,192,49302,1,0,0:0:0:0:
64,192,49499,1,8,0:0:0:0:
192,192,49499,1,0,0:0:0:0:
320,192,49499,1,0,0:0:0:0:
64,192,49697,128,2,50092:0:0:0:0:
448,192,49697,1,0,0:0:0:0:
192,192,49894,1,8,0:0:0:0:
320,192,49894,1,0,0:0:0:0:
192,192,50092,128,2,50486:0:0:0:0:
448,192,50092,1,0,0:0:0:0:
64,192,50289,1,8,0:0:0:0:
320,192,50289,1,0,0:0:0:0:
320,192,50486,128,2,50881:0:0:0:0:
448,192,50486,1,0,0:0:0:0:
64,192,50684,1,8,0:0:0:0:
192,192,50684,1,0,0:0:0:0:
64,192,50881,1,2,0:0:0:0:
448,192,50881,128,0,51276:0:0:0:0:
192,192,51078,1,8,0:0:0:0:
320,192,51078,1,0,0:0:0:0:
64,192,51276,128,4,52065:0:0:0:0:
192,192,51276,1,2,0:0:0:0:
320,192,51276,1,0,0:0:0:0:
320,192,51473,1,8,0:0:0:0:
448,192,51473,1,0,0:0:0:0:
192,192,51671,1,2,0:0:0:0:
448,192,51671,1,0,0:0:0:0:
192,192,51868,1,8,0:0:0:0:
320,192,51868,1,0,0:0:0:0:
320,192,52065,1,2,0:0:0:0:
448,192,52065,1,0,0:0:0:0:
64,192,52263,1,8,0:0:0:0:
192,192,52263,1,0,0:0:0:0:
448,192,52263,1,0,0:0:0:0:
192,192,52460,1,2,0:0:0:0:
320,192,52460,1,0,0:0:0:0:
64,192,52657,1,8,0:0:0:0:
320,192,52657,1,0,0:0:0:0:
448,192,52657,1,0,0:0:0:0:
64,192,52855,1,4,0:0:0:0:
192,192,52855,1,2,0:0:0:0:
448,192,52855,128,0,53249:0:0:0:0:
192,192,53052,1,8,0:0:0:0:
320,192,53052,1,0,0:0:0:0:
64,192,53249,1,4,0:0:0:0:
320,192,53249,128,2,53644:0:0:0:0:
192,192,53447,1,8,0:0:0:0:
448,192,53447,1,0,0:0:0:0:
64,192,53644,1,4,0:0:0:0:
192,192,53644,128,2,54039:0:0:0:0:
320,192,53743,1,8,0:0:0:0:
448,192,53842,1,8,0:0:0:0:
64,192,53940,1,8,0:0:0:0:
320,192,54039,1,2,0:0:0:0:
448,192,54039,128,8,54335:0:0:0:0:
192,192,54138,1,8,0:0:0:0:
64,192,54236,1,8,0:0:0:0:
320,192,54335,1,8,0:0:0:0:
64,192,54434,1,4,0:0:0:0:
192,192,54434,1,2,0:0:0:0:
448,192,54434,1,0,0:0:0:0:
320,192,54532,1,0,0:0:0:0:
64,192,54631,1,8,0:0:0:0:
448,192,54631,1,0,0:0:0:0:
192,192,54730,1,0,0:0:0:0:
320,192,54828,1,2,0:0:0:0:
448,192,54828,1,0,0:0:0:0:
64,192,54927,1,0,0:0:0:0:
192,192,55026,1,8,0:0:0:0:
448,192,55026,1,0,0:0:0:0:
320,192,55124,1,0,0:0:0:0:
64,192,55223,1,2,0:0:0:0:
192,192,55223,1,0,0:0:0:0:
320,192,55322,1,0,0:0:0:0:
64,192,55421,1,8,0:0:0:0:
448,192,55421,1,0,0:0:0:0:
192,192,55519,1,0,0:0:0:0:
320,192,55618,1,2,0:0:0:0:
448,192,55618,1,0,0:0:0:0:
192,192,55717,1,0,0:0:0:0:
64,192,55815,1,8,0:0:0:0:
448,192,55815,1,0,0:0:0:0:
192,192,56013,1,2,0:0:0:0:
320,192,56013,1,0,0:0:0:0:
64,192,56210,1,8,0:0:0:0:
320,192,56210,1,0,0:0:0:0:
448,192,56210,1,0,0:0:0:0:
192,192,56407,1,2,0:0:0:0:
448,192,56407,1,0,0:0:0:0:
64,192,56605,1,8,0:0:0:0:
192,192,56605,1,0,0:0:0:0:
320,192,56605,1,0,0:0:0:0:
64,192,56802,1,2,0:0:0:0:
448,192,56802,1,0,0:0:0:0:
192,192,56999,1,8,0:0:0:0:
320,192,56999,1,0,0:0:0:0:
448,192,56999,1,0,0:0:0:0:
64,192,57197,1,2,0:0:0:0:
192,192,57197,1,0,0:0:0:0:
64,192,57394,128,8,57592:0:0:0:0:
320,192,57394,1,0,0:0:0:0:
448,192,57394,1,0,0:0:0:0:
192,192,57592,1,2,0:0:0:0:
320,192,57592,1,0,0:0:0:0:
192,192,57789,1,2,0:0:0:0:
448,192,57789,1,0,0:0:0:0:
64,192,57986,1,4,0:0:0:0:
320,192,57986,1,2,0:0:0:0:
448,192,57986,1,8,0:0:0:0:
192,192,58184,1,0,0:0:0:0:
320,192,58184,1,0,0:0:0:0:
64,192,58381,1,2,0:0:0:0:
192,192,58381,1,0,0:0:0:0:
64,192,58578,1,2,0:0:0:0:
320,192,58578,1,0,0:0:0:0:
192,192,58776,1,4,0:0:0:0:
320,192,58776,1,2,0:0:0:0:
448,192,58776,1,8,0:0:0:0:
64,192,59171,1,2,0:0:0:0:
320,192,59171,1,4,0:0:0:0:
448,192,59171,1,0,0:0:0:0:
192,192,59467,1,2,0:0:0:0:
320,192,59467,1,0,0:0:0:0:
64,192,59565,128,2,59763:0:0:0:0:
448,192,59565,1,0,0:0:0:0:
192,192,59763,1,2,0:0:0:0:
320,192,59763,1,0,0:0:0:0:
320,192,59960,128,4,60059:0:0:0:0:
448,192,59960,128,2,60157:0:0:0:0:
192,192,60059,128,0,60157:0:0:0:0:
64,192,60157,128,0,60256:0:0:0:0:
448,192,60256,128,0,60355:0:0:0:0:
192,192,60355,128,2,60552:0:0:0:0:
320,192,60355,128,0,60453:0:0:0:0:
64,192,60453,128,0,60552:0:0:0:0:
448,192,60552,128,0,60651:0:0:0:0:
320,192,60651,128,0,60749:0:0:0:0:
64,192,60749,1,2,0:0:0:0:
192,192,60749,1,4,0:0:0:0:
448,192,60749,1,0,0:0:0:0:
320,192,60848,1,0,0:0:0:0:
64,192,60947,1,8,0:0:0:0:
192,192,60947,1,0,0:0:0:0:
320,192,61046,1,0,0:0:0:0:
64,192,61144,1,2,0:0:0:0:
448,192,61144,1,0,0:0:0:0:
192,192,61243,1,0,0:0:0:0:
320,192,61342,1,8,0:0:0:0:
448,192,61342,1,0,0:0:0:0:
192,192,61440,1,0,0:0:0:0:
64,192,61539,1,2,0:0:0:0:
448,192,61539,1,0,0:0:0:0:
320,192,61638,1,0,0:0:0:0:
64,192,61736,1,8,0:0:0:0:
192,192,61736,1,0,0:0:0:0:
448,192,61835,1,0,0:0:0:0:
192,192,61934,1,2,0:0:0:0:
320,192,61934,1,0,0:0:0:0:
64,192,62131,1,8,0:0:0:0:
320,192,62131,1,0,0:0:0:0:
448,192,62131,1,0,0:0:0:0:
64,192,62328,1,2,0:0:0:0:
448,192,62328,128,0,62723:0:0:0:0:
192,192,62526,1,8,0:0:0:0:
320,192,62526,1,0,0:0:0:0:
64,192,62723,128,2,63118:0:0:0:0:
320,192,62723,1,0,0:0:0:0:
192,192,62921,1,8,0:0:0:0:
448,192,62921,1,0,0:0:0:0:
192,192,63118,1,2,0:0:0:0:
320,192,63118,128,0,63513:0:0:0:0:
64,192,63315,1,8,0:0:0:0:
448,192,63315,1,0,0:0:0:0:
192,192,63513,128,2,63907:0:0:0:0:
448,192,63513,1,0,0:0:0:0:
64,192,63710,1,8,0:0:0:0:
320,192,63710,1,0,0:0:0:0:
64,192,63907,1,2,0:0:0:0:
320,192,63907,1,4,0:0:0:0:
448,192,63907,128,0,64697:0:0:0:0:
64,192,64105,1,8,0:0:0:0:
192,192,64105,1,0,0:0:0:0:
192,192,64302,1,2,0:0:0:0:
320,192,64302,1,0,0:0:0:0:
64,192,64499,1,8,0:0:0:0:
320,192,64499,1,0,0:0:0:0:
64,192,64697,1,2,0:0:0:0:
192,192,64697,1,0,0:0:0:0:
192,192,64894,1,8,0:0:0:0:
320,192,64894,1,0,0:0:0:0:
448,192,64894,1,0,0:0:0:0:
64,192,65092,1,2,0:0:0:0:
448,192,65092,1,0,0:0:0:0:
320,192,65190,1,0,0:0:0:0:
64,192,65289,1,8,0:0:0:0:
192,192,65289,1,0,0:0:0:0:
320,192,65388,1,0,0:0:0:0:
64,192,65486,128,2,65881:0:0:0:0:
192,192,65486,1,4,0:0:0:0:
448,192,65486,1,0,0:0:0:0:
192,192,65881,1,2,0:0:0:0:
320,192,65881,1,0,0:0:0:0:
448,192,65881,128,0,66276:0:0:0:0:
64,192,66276,1,2,0:0:0:0:
192,192,66276,128,0,66868:0:0:0:0:
320,192,66276,1,0,0:0:0:0:
320,192,66671,128,2,66868:0:0:0:0:
448,192,66671,128,4,66868:0:0:0:0:
64,192,67065,1,2,0:0:0:0:
192,192,67065,1,4,0:0:0:0:
448,192,67065,1,0,0:0:0:0:
320,192,67164,1,0,0:0:0:0:
64,192,67263,1,2,0:0:0:0:
192,192,67263,1,0,0:0:0:0:
320,192,67361,1,0,0:0:0:0:
64,192,67460,1,8,0:0:0:0:
448,192,67460,1,0,0:0:0:0:
192,192,67559,1,0,0:0:0:0:
320,192,67657,1,0,0:0:0:0:
64,192,67756,1,8,0:0:0:0:
320,192,67855,1,2,0:0:0:0:
448,192,67855,1,0,0:0:0:0:
64,192,67953,1,8,0:0:0:0:
192,192,67953,1,0,0:0:0:0:
320,192,68052,1,2,0:0:0:0:
448,192,68052,1,0,0:0:0:0:
192,192,68151,1,0,0:0:0:0:
64,192,68249,1,8,0:0:0:0:
448,192,68249,1,0,0:0:0:0:
320,192,68348,1,0,0:0:0:0:
64,192,68447,1,8,0:0:0:0:
192,192,68447,1,0,0:0:0:0:
192,192,68644,1,2,0:0:0:0:
448,192,68644,128,0,69039:0:0:0:0:
320,192,68842,1,2,0:0:0:0:
64,192,69039,1,8,0:0:0:0:
192,192,69039,1,0,0:0:0:0:
320,192,69039,128,0,69434:0:0:0:0:
192,192,69335,1,8,0:0:0:0:
64,192,69434,128,2,69828:0:0:0:0:
448,192,69434,1,0,0:0:0:0:
192,192,69532,1,0,0:0:0:0:
320,192,69631,1,2,0:0:0:0:
448,192,69631,1,0,0:0:0:0:
192,192,69828,1,8,0:0:0:0:
320,192,69828,1,0,0:0:0:0:
448,192,69828,1,0,0:0:0:0:
64,192,70026,1,2,0:0:0:0:
192,192,70026,1,0,0:0:0:0:
64,192,70223,1,4,0:0:0:0:
320,192,70223,1,2,0:0:0:0:
448,192,70223,1,0,0:0:0:0:
64,192,70618,1,2,0:0:0:0:
192,192,70618,1,4,0:0:0:0:
320,192,70618,1,0,0:0:0:0:
192,192,71013,1,2,0:0:0:0:
320,192,71013,1,4,0:0:0:0:
448,192,71013,1,0,0:0:0:0:
64,192,71309,1,2,0:0:0:0:
192,192,71309,1,0,0:0:0:0:
320,192,71407,1,2,0:0:0:0:
448,192,71407,1,0,0:0:0:0:
64,192,71605,1,2,0:0:0:0:
192,192,71605,1,4,0:0:0:0:
448,192,71605,1,0,0:0:0:0:
64,192,71999,1,2,0:0:0:0:
320,192,71999,1,0,0:0:0:0:
64,192,72197,1,8,0:0:0:0:
192,192,72197,1,0,0:0:0:0:
448,192,72197,1,0,0:0:0:0:
320,192,72296,1,0,0:0:0:0:
192,192,72394,1,0,0:0:0:0:
64,192,72493,1,8,0:0:0:0:
320,192,72592,1,2,0:0:0:0:
448,192,72592,1,0,0:0:0:0:
192,192,72690,1,8,0:0:0:0:
64,192,72789,1,8,0:0:0:0:
448,192,72789,1,0,0:0:0:0:
320,192,72888,1,8,0:0:0:0:
64,192,72986,1,2,0:0:0:0:
192,192,72986,1,0,0:0:0:0:
320,192,73085,1,0,0:0:0:0:
448,192,73184,1,0,0:0:0:0:
192,192,73282,1,0,0:0:0:0:
64,192,73381,1,2,0:0:0:0:
320,192,73381,1,4,0:0:0:0:
448,192,73381,1,0,0:0:0:0:
64,192,73578,1,8,0:0:0:0:
192,192,73578,1,0,0:0:0:0:
320,192,73578,1,0,0:0:0:0:
192,192,73776,1,2,0:0:0:0:
448,192,73776,1,0,0:0:0:0:
64,192,73973,1,8,0:0:0:0:
320,192,73973,1,0,0:0:0:0:
448,192,73973,1,0,0:0:0:0:
64,192,74171,1,2,0:0:0:0:
192,192,74171,1,0,0:0:0:0:
192,192,74368,1,8,0:0:0:0:
320,192,74368,1,0,0:0:0:0:
448,192,74368,1,0,0:0:0:0:
64,192,74565,1,2,0:0:0:0:
320,192,74565,1,0,0:0:0:0:
64,192,74763,1,8,0:0:0:0:
192,192,74763,1,0,0:0:0:0:
448,192,74763,1,0,0:0:0:0:
320,192,74960,1,2,0:0:0:0:
448,192,74960,1,0,0:0:0:0:
64,192,75157,1,8,0:0:0:0:
192,192,75157,1,0,0:0:0:0:
448,192,75157,1,0,0:0:0:0:
192,192,75355,1,2,0:0:0:0:
320,192,75355,1,0,0:0:0:0:
64,192,75552,1,8,0:0:0:0:
320,192,75552,1,0,0:0:0:0:
448,192,75552,1,0,0:0:0:0:
192,192,75749,1,2,0:0:0:0:
448,192,75749,1,0,0:0:0:0:
64,192,75947,1,8,0:0:0:0:
192,192,75947,1,0,0:0:0:0:
320,192,75947,1,0,0:0:0:0:
192,192,76144,1,2,0:0:0:0:
448,192,76144,1,0,0:0:0:0:
320,192,76243,1,0,0:0:0:0:
64,192,76342,1,8,0:0:0:0:
448,192,76342,1,0,0:0:0:0:
192,192,76440,1,8,0:0:0:0:
64,192,76539,1,2,0:0:0:0:
320,192,76539,1,4,0:0:0:0:
448,192,76539,1,0,0:0:0:0:
192,192,76736,1,8,0:0:0:0:
64,192,76835,1,2,0:0:0:0:
320,192,76835,1,4,0:0:0:0:
448,192,76835,1,0,0:0:0:0:
192,192,77032,1,8,0:0:0:0:
64,192,77131,1,2,0:0:0:0:
320,192,77131,1,4,0:0:0:0:
448,192,77131,1,0,0:0:0:0:
320,192,77328,1,0,0:0:0:0:
64,192,77526,1,8,0:0:0:0:
192,192,77526,1,0,0:0:0:0:
448,192,77526,1,0,0:0:0:0:
192,192,77723,1,2,0:0:0:0:
320,192,77723,1,0,0:0:0:0:
64,192,77921,1,8,0:0:0:0:
320,192,77921,1,0,0:0:0:0:
448,192,77921,1,0,0:0:0:0:
64,192,78118,1,2,0:0:0:0:
192,192,78118,1,4,0:0:0:0:
448,192,78118,1,0,0:0:0:0:
320,192,78315,1,8,0:0:0:0:
64,192,78414,1,2,0:0:0:0:
192,192,78414,1,4,0:0:0:0:
448,192,78414,1,0,0:0:0:0:
320,192,78611,1,8,0:0:0:0:
64,192,78710,1,2,0:0:0:0:
192,192,78710,1,4,0:0:0:0:
448,192,78710,1,0,0:0:0:0:
192,192,79105,1,8,0:0:0:0:
320,192,79105,1,0,0:0:0:0:
448,192,79105,1,0,0:0:0:0:
64,192,79302,1,2,0:0:0:0:
192,192,79302,1,0,0:0:0:0:
64,192,79499,1,8,0:0:0:0:
320,192,79499,1,0,0:0:0:0:
448,192,79499,1,0,0:0:0:0:
192,192,79697,1,2,0:0:0:0:
320,192,79697,1,4,0:0:0:0:
448,192,79697,128,0,80092:0:0:0:0:
64,192,79894,1,8,0:0:0:0:
192,192,79894,1,0,0:0:0:0:
64,192,80092,1,2,0:0:0:0:
320,192,80092,1,0,0:0:0:0:
192,192,80289,1,8,0:0:0:0:
320,192,80289,1,0,0:0:0:0:
448,192,80289,1,0,0:0:0:0:
64,192,80486,128,2,80881:0:0:0:0:
448,192,80486,1,0,0:0:0:0:
192,192,80684,1,8,0:0:0:0:
320,192,80684,1,0,0:0:0:0:
320,192,80881,1,2,0:0:0:0:
448,192,80881,1,0,0:0:0:0:
64,192,81078,1,8,0:0:0:0:
192,192,81078,1,0,0:0:0:0:
448,192,81078,1,0,0:0:0:0:
64,192,81276,1,2,0:0:0:0:
320,192,81276,128,0,81671:0:0:0:0:
192,192,81473,1,8,0:0:0:0:
448,192,81473,1,0,0:0:0:0:
64,192,81671,128,2,82065:0:0:0:0:
448,192,81671,1,0,0:0:0:0:
192,192,81868,1,8,0:0:0:0:
320,192,81868,1,0,0:0:0:0:
320,192,82065,128,2,82164:0:0:0:0:
448,192,82065,128,0,82460:0:0:0:0:
64,192,82263,128,8,82361:0:0:0:0:
320,192,82263,128,0,82361:0:0:0:0:
192,192,82361,128,8,82460:0:0:0:0:
64,192,82460,128,2,82559:0:0:0:0:
448,192,82559,128,8,82657:0:0:0:0:
64,192,82657,128,8,82756:0:0:0:0:
320,192,82657,128,0,82756:0:0:0:0:
192,192,82756,128,8,82855:0:0:0:0:
64,192,82855,128,2,83151:0:0:0:0:
320,192,82855,128,4,83151:0:0:0:0:
448,192,82855,1,0,0:0:0:0:
64,192,83249,1,2,0:0:0:0:
192,192,83249,1,0,0:0:0:0:
320,192,83249,1,0,0:0:0:0:
320,192,83447,1,8,0:0:0:0:
448,192,83447,1,0,0:0:0:0:
192,192,83546,1,8,0:0:0:0:
64,192,83644,128,2,83940:0:0:0:0:
320,192,83644,128,4,83940:0:0:0:0:
448,192,83644,1,0,0:0:0:0:
64,192,84039,1,2,0:0:0:0:
192,192,84039,1,8,0:0:0:0:
320,192,84039,1,0,0:0:0:0:
320,192,84236,1,8,0:0:0:0:
448,192,84236,1,0,0:0:0:0:
192,192,84335,1,8,0:0:0:0:
64,192,84434,1,2,0:0:0:0:
320,192,84434,1,4,0:0:0:0:
448,192,84434,1,0,0:0:0:0:
64,192,84631,1,8,0:0:0:0:
192,192,84631,1,0,0:0:0:0:
448,192,84730,1,8,0:0:0:0:
192,192,84828,1,2,0:0:0:0:
320,192,84828,1,0,0:0:0:0:
64,192,84927,1,0,0:0:0:0:
320,192,85026,1,2,0:0:0:0:
448,192,85026,1,0,0:0:0:0:
64,192,85124,1,2,0:0:0:0:
192,192,85124,1,8,0:0:0:0:
320,192,85223,1,2,0:0:0:0:
448,192,85223,1,0,0:0:0:0:
192,192,85421,1,2,0:0:0:0:
448,192,85421,1,0,0:0:0:0:
64,192,85618,1,2,0:0:0:0:
320,192,85618,1,0,0:0:0:0:
64,192,85815,1,8,0:0:0:0:
448,192,85815,1,0,0:0:0:0:
192,192,85914,1,8,0:0:0:0:
64,192,86013,128,2,86309:0:0:0:0:
320,192,86013,128,4,86309:0:0:0:0:
448,192,86013,1,0,0:0:0:0:
64,192,86407,1,8,0:0:0:0:
192,192,86407,1,0,0:0:0:0:
320,192,86407,1,0,0:0:0:0:
64,192,86802,128,2,87098:0:0:0:0:
320,192,86802,128,4,87098:0:0:0:0:
448,192,86802,1,0,0:0:0:0:
64,192,87197,1,8,0:0:0:0:
192,192,87197,1,2,0:0:0:0:
320,192,87197,1,0,0:0:0:0:
192,192,87592,1,8,0:0:0:0:
320,192,87592,1,0,0:0:0:0:
64,192,87789,1,2,0:0:0:0:
192,192,87789,1,4,0:0:0:0:
448,192,87789,1,0,0:0:0:0:
64,192,88085,1,2,0:0:0:0:
192,192,88085,1,4,0:0:0:0:
448,192,88085,1,0,0:0:0:0:
64,192,88381,1,2,0:0:0:0:
192,192,88381,1,4,0:0:0:0:
448,192,88381,1,0,0:0:0:0:
