osu file format v14

[General]
AudioFilename: audio.mp3
AudioLeadIn: 0
PreviewTime: 46934
Countdown: 0
SampleSet: Soft
StackLeniency: 0.7
Mode: 3
LetterboxInBreaks: 0
SpecialStyle: 0
WidescreenStoryboard: 1

[Editor]
DistanceSpacing: 0.8
BeatDivisor: 4
GridSize: 32
TimelineZoom: 1.4

[Metadata]
Title:Blend W
TitleUnicode:Blend W
Artist:MowtenDoo
ArtistUnicode:MowtenDoo
Creator:Mirea
Version:Normal
Source:ブレンド・S
Tags:smoke weed everyday marijuana bon appetit s doggy meme blend a snoop dogg parody mashup soundclown electronic instrumental anime
BeatmapID:1693765
BeatmapSetID:806066

[Difficulty]
HPDrainRate:7
CircleSize:4
OverallDifficulty:7
ApproachRate:5
SliderMultiplier:1.4
SliderTickRate:1

[Events]
//Background and Video events
0,0,"BG.jpg",0,0
//Break Periods
//Storyboard Layer 0 (Background)
//Storyboard Layer 1 (Fail)
//Storyboard Layer 2 (Pass)
//Storyboard Layer 3 (Foreground)
//Storyboard Layer 4 (Overlay)
//Storyboard Sound Samples

[TimingPoints]
750,394.736842105263,4,2,1,40,1,0
48118,-100,4,2,1,40,0,1
59960,-100,4,2,1,40,0,0
60749,-100,4,2,1,40,0,1
67065,-100,4,2,1,40,0,0

[HitObjects]
192,192,750,5,2,0:0:0:0:
448,192,750,1,4,0:0:0:0:
320,192,1046,1,8,0:0:0:0:
448,192,1046,1,0,0:0:0:0:
64,192,1342,1,8,0:0:0:0:
320,192,1342,1,0,0:0:0:0:
64,192,1539,1,2,0:0:0:0:
192,192,1539,1,0,0:0:0:0:
448,192,1638,1,8,0:0:0:0:
192,192,1835,1,0,0:0:0:0:
320,192,1934,1,2,0:0:0:0:
192,192,2131,1,0,0:0:0:0:
64,192,2328,1,2,0:0:0:0:
320,192,2328,1,0,0:0:0:0:
192,192,2624,1,8,0:0:0:0:
320,192,2624,1,0,0:0:0:0:
192,192,2921,1,8,0:0:0:0:
448,192,2921,1,0,0:0:0:0:
320,192,3118,1,2,0:0:0:0:
448,192,3118,1,0,0:0:0:0:
64,192,3217,1,8,0:0:0:0:
320,192,3414,1,0,0:0:0:0:
64,192,3513,1,2,0:0:0:0:
192,192,3513,1,0,0:0:0:0:
320,192,3710,1,0,0:0:0:0:
64,192,3907,1,2,0:0:0:0:
192,192,3907,1,0,0:0:0:0:
64,192,4203,1,8,0:0:0:0:
320,192,4203,1,0,0:0:0:0:
320,192,4499,1,8,0:0:0:0:
448,192,4499,1,0,0:0:0:0:
64,192,4697,1,2,0:0:0:0:
192,192,4697,1,0,0:0:0:0:
320,192,4796,1,8,0:0:0:0:
64,192,4894,1,8,0:0:0:0:
448,192,5092,1,2,0:0:0:0:
320,192,5289,1,2,0:0:0:0:
64,192,5486,1,2,0:0:0:0:
192,192,5486,1,4,0:0:0:0:
320,192,5881,128,0,6276:0:0:0:0:
448,192,6276,128,0,6671:0:0:0:0:
192,192,6671,128,0,6868:0:0:0:0:
320,192,6868,128,0,7065:0:0:0:0:
64,192,7065,1,2,0:0:0:0:
448,192,7065,1,4,0:0:0:0:
320,192,7263,1,8,0:0:0:0:
192,192,7460,1,2,0:0:0:0:
448,192,7657,1,8,0:0:0:0:
64,192,7855,1,2,0:0:0:0:
320,192,8052,1,8,0:0:0:0:
192,192,8249,1,2,0:0:0:0:
64,192,8447,1,8,0:0:0:0:
448,192,8644,128,2,9039:0:0:0:0:
64,192,9039,128,2,9434:0:0:0:0:
192,192,9434,128,2,9828:0:0:0:0:
320,192,9828,128,2,10223:0:0:0:0:
64,192,10223,1,2,0:0:0:0:
448,192,10223,1,4,0:0:0:0:
192,192,10421,1,8,0:0:0:0:
448,192,10618,1,2,0:0:0:0:
320,192,10815,1,8,0:0:0:0:
64,192,11013,1,2,0:0:0:0:
448,192,11210,1,8,0:0:0:0:
192,192,11407,1,2,0:0:0:0:
448,192,11605,1,8,0:0:0:0:
64,192,11802,128,2,12197:0:0:0:0:
320,192,11802,1,4,0:0:0:0:
320,192,12197,128,2,12592:0:0:0:0:
448,192,12197,1,4,0:0:0:0:
192,192,12592,128,2,12789:0:0:0:0:
448,192,12592,1,4,0:0:0:0:
320,192,12789,128,8,12986:0:0:0:0:
64,192,12986,128,10,13184:0:0:0:0:
192,192,13184,128,8,13381:0:0:0:0:
320,192,13381,1,2,0:0:0:0:
448,192,13381,1,4,0:0:0:0:
192,192,13578,1,8,0:0:0:0:
448,192,13776,1,2,0:0:0:0:
64,192,13973,1,8,0:0:0:0:
192,192,14171,1,2,0:0:0:0:
448,192,14368,1,8,0:0:0:0:
64,192,14565,1,2,0:0:0:0:
320,192,14763,1,8,0:0:0:0:
64,192,14960,1,2,0:0:0:0:
192,192,14960,1,0,0:0:0:0:
320,192,15157,1,8,0:0:0:0:
448,192,15355,1,2,0:0:0:0:
192,192,15552,1,12,0:0:0:0:
320,192,15749,1,2,0:0:0:0:
448,192,15749,128,0,16144:0:0:0:0:
64,192,15947,1,2,0:0:0:0:
192,192,16144,1,2,0:0:0:0:
320,192,16342,1,4,0:0:0:0:
448,192,16342,1,8,0:0:0:0:
64,192,16539,1,2,0:0:0:0:
320,192,16736,1,2,0:0:0:0:
192,192,16934,1,2,0:0:0:0:
320,192,16934,128,4,17328:0:0:0:0:
448,192,17328,1,2,0:0:0:0:
192,192,17526,1,2,0:0:0:0:
192,192,17723,128,2,18118:0:0:0:0:
320,192,17723,1,4,0:0:0:0:
320,192,18118,1,2,0:0:0:0:
64,192,18315,1,2,0:0:0:0:
448,192,18315,1,8,0:0:0:0:
192,192,18611,1,2,0:0:0:0:
320,192,18611,1,8,0:0:0:0:
64,192,18907,128,10,19302:0:0:0:0:
448,192,18907,1,4,0:0:0:0:
64,192,19697,1,2,0:0:0:0:
448,192,19697,1,4,0:0:0:0:
192,192,21276,1,2,0:0:0:0:
448,192,21276,1,8,0:0:0:0:
192,192,22855,1,8,0:0:0:0:
448,192,22855,1,2,0:0:0:0:
192,192,24434,1,2,0:0:0:0:
448,192,24434,1,8,0:0:0:0:
192,192,25223,1,2,0:0:0:0:
448,192,25223,1,4,0:0:0:0:
64,192,25519,1,8,0:0:0:0:
320,192,25618,1,2,0:0:0:0:
192,192,25815,128,8,26013:0:0:0:0:
64,192,26013,1,2,0:0:0:0:
448,192,26013,1,4,0:0:0:0:
320,192,26210,128,8,26407:0:0:0:0:
64,192,26407,128,2,26605:0:0:0:0:
448,192,26605,1,8,0:0:0:0:
192,192,26802,128,2,26999:0:0:0:0:
448,192,26999,128,8,27197:0:0:0:0:
64,192,27197,1,2,0:0:0:0:
320,192,27394,128,8,27592:0:0:0:0:
64,192,27592,1,2,0:0:0:0:
448,192,27592,1,0,0:0:0:0:
192,192,27789,128,8,27986:0:0:0:0:
448,192,27986,1,2,0:0:0:0:
64,192,28184,128,8,28381:0:0:0:0:
320,192,28381,128,2,28578:0:0:0:0:
192,192,28578,1,8,0:0:0:0:
448,192,28776,128,2,28973:0:0:0:0:
192,192,28973,128,0,29171:0:0:0:0:
64,192,29171,1,2,0:0:0:0:
448,192,29171,1,0,0:0:0:0:
320,192,29368,128,8,29565:0:0:0:0:
192,192,29565,1,2,0:0:0:0:
64,192,29763,128,8,29960:0:0:0:0:
320,192,29960,1,2,0:0:0:0:
448,192,29960,128,0,30157:0:0:0:0:
64,192,30157,1,8,0:0:0:0:
320,192,30355,128,2,30552:0:0:0:0:
192,192,30552,128,8,30749:0:0:0:0:
448,192,30749,1,4,0:0:0:0:
64,192,30749,1,2,0:0:0:0:
192,192,31539,1,2,0:0:0:0:
448,192,31539,1,4,0:0:0:0:
192,192,31835,1,8,0:0:0:0:
320,192,31835,1,0,0:0:0:0:
448,192,32131,1,8,0:0:0:0:
320,192,32230,1,8,0:0:0:0:
64,192,32328,1,4,0:0:0:0:
192,192,32328,128,2,32723:0:0:0:0:
448,192,32723,1,2,0:0:0:0:
192,192,33118,128,2,33513:0:0:0:0:
448,192,33513,1,2,0:0:0:0:
64,192,33907,1,2,0:0:0:0:
320,192,34105,128,0,34302:0:0:0:0:
192,192,34302,1,2,0:0:0:0:
448,192,34697,128,2,34894:0:0:0:0:
64,192,34894,1,0,0:0:0:0:
320,192,35092,1,2,0:0:0:0:
192,192,35289,1,0,0:0:0:0:
320,192,35486,128,2,35881:0:0:0:0:
448,192,35486,1,4,0:0:0:0:
64,192,35881,1,2,0:0:0:0:
320,192,36276,128,2,36671:0:0:0:0:
64,192,36671,1,2,0:0:0:0:
448,192,37065,128,2,37263:0:0:0:0:
192,192,37263,128,0,37460:0:0:0:0:
320,192,37460,128,2,37657:0:0:0:0:
64,192,37657,128,0,37855:0:0:0:0:
320,192,37855,1,2,0:0:0:0:
448,192,37855,1,0,0:0:0:0:
64,192,38249,1,2,0:0:0:0:
192,192,38249,1,0,0:0:0:0:
64,192,38644,1,2,0:0:0:0:
448,192,38644,1,4,0:0:0:0:
320,192,38842,1,8,0:0:0:0:
192,192,39039,1,2,0:0:0:0:
448,192,39236,1,8,0:0:0:0:
192,192,39434,1,2,0:0:0:0:
320,192,39631,1,8,0:0:0:0:
64,192,39828,1,2,0:0:0:0:
192,192,40026,1,8,0:0:0:0:
448,192,40223,1,2,0:0:0:0:
320,192,40421,1,8,0:0:0:0:
192,192,40618,1,2,0:0:0:0:
448,192,40815,1,8,0:0:0:0:
64,192,41013,1,2,0:0:0:0:
320,192,41210,128,8,41407:0:0:0:0:
192,192,41407,128,2,41605:0:0:0:0:
448,192,41605,128,8,41802:0:0:0:0:
64,192,41802,1,2,0:0:0:0:
192,192,41802,1,4,0:0:0:0:
320,192,42197,1,2,0:0:0:0:
448,192,42197,1,4,0:0:0:0:
64,192,42592,1,2,0:0:0:0:
448,192,42592,1,4,0:0:0:0:
320,192,42789,1,10,0:0:0:0:
192,192,42986,1,8,0:0:0:0:
320,192,43184,1,4,0:0:0:0:
64,192,43184,1,2,0:0:0:0:
64,192,43578,1,6,0:0:0:0:
192,192,43776,1,4,0:0:0:0:
448,192,43776,1,8,0:0:0:0:
320,192,44171,1,2,0:0:0:0:
448,192,44171,1,0,0:0:0:0:
64,192,44467,1,8,0:0:0:0:
320,192,44565,1,2,0:0:0:0:
448,192,44763,1,2,0:0:0:0:
64,192,44960,1,2,0:0:0:0:
192,192,44960,1,4,0:0:0:0:
320,192,45157,1,2,0:0:0:0:
448,192,45355,1,2,0:0:0:0:
64,192,45552,1,2,0:0:0:0:
192,192,45749,1,2,0:0:0:0:
320,192,45749,128,8,46046:0:0:0:0:
64,192,46046,128,8,46342:0:0:0:0:
448,192,46046,1,2,0:0:0:0:
192,192,46342,128,10,46539:0:0:0:0:
320,192,46539,1,2,0:0:0:0:
448,192,46539,1,4,0:0:0:0:
448,192,46934,128,0,47131:0:0:0:0:
64,192,47328,128,0,47526:0:0:0:0:
320,192,47723,128,0,47921:0:0:0:0:
64,192,48118,1,4,0:0:0:0:
448,192,48118,1,2,0:0:0:0:
320,192,48315,1,8,0:0:0:0:
192,192,48513,1,2,0:0:0:0:
448,192,48710,1,8,0:0:0:0:
192,192,48907,1,2,0:0:0:0:
64,192,49105,1,8,0:0:0:0:
320,192,49302,1,2,0:0:0:0:
448,192,49499,1,8,0:0:0:0:
64,192,49697,128,2,50092:0:0:0:0:
320,192,50092,128,2,50486:0:0:0:0:
192,192,50486,128,2,50881:0:0:0:0:
448,192,50881,128,2,51276:0:0:0:0:
64,192,51276,1,4,0:0:0:0:
320,192,51276,1,2,0:0:0:0:
192,192,51473,1,8,0:0:0:0:
320,192,51671,1,2,0:0:0:0:
64,192,51868,1,8,0:0:0:0:
320,192,52065,1,2,0:0:0:0:
192,192,52263,1,8,0:0:0:0:
448,192,52460,1,2,0:0:0:0:
320,192,52657,1,8,0:0:0:0:
64,192,52855,1,4,0:0:0:0:
192,192,52855,128,2,53052:0:0:0:0:
320,192,53249,1,4,0:0:0:0:
448,192,53249,128,2,53447:0:0:0:0:
64,192,53644,128,4,53842:0:0:0:0:
192,192,53644,1,2,0:0:0:0:
448,192,53842,1,8,0:0:0:0:
320,192,54039,128,10,54236:0:0:0:0:
192,192,54236,1,8,0:0:0:0:
64,192,54434,1,4,0:0:0:0:
448,192,54434,1,2,0:0:0:0:
192,192,54631,1,8,0:0:0:0:
320,192,54828,1,2,0:0:0:0:
64,192,55026,1,8,0:0:0:0:
448,192,55223,1,2,0:0:0:0:
192,192,55421,1,8,0:0:0:0:
320,192,55618,1,2,0:0:0:0:
448,192,55815,1,8,0:0:0:0:
64,192,56013,1,2,0:0:0:0:
192,192,56013,1,0,0:0:0:0:
448,192,56210,1,8,0:0:0:0:
192,192,56407,1,2,0:0:0:0:
320,192,56407,1,0,0:0:0:0:
64,192,56605,1,8,0:0:0:0:
320,192,56802,1,2,0:0:0:0:
448,192,56802,1,0,0:0:0:0:
192,192,56999,1,8,0:0:0:0:
448,192,57197,1,2,0:0:0:0:
64,192,57394,1,8,0:0:0:0:
320,192,57592,1,2,0:0:0:0:
192,192,57789,1,2,0:0:0:0:
64,192,57986,1,6,0:0:0:0:
448,192,57986,1,8,0:0:0:0:
448,192,58381,1,2,0:0:0:0:
320,192,58578,1,2,0:0:0:0:
64,192,58776,1,6,0:0:0:0:
192,192,58776,1,8,0:0:0:0:
320,192,59171,1,2,0:0:0:0:
448,192,59171,1,4,0:0:0:0:
64,192,59467,1,2,0:0:0:0:
320,192,59763,1,2,0:0:0:0:
192,192,59960,128,6,60355:0:0:0:0:
320,192,60355,128,2,60749:0:0:0:0:
64,192,60749,1,2,0:0:0:0:
448,192,60749,1,4,0:0:0:0:
192,192,60947,1,8,0:0:0:0:
320,192,61144,1,2,0:0:0:0:
192,192,61342,1,8,0:0:0:0:
448,192,61539,1,2,0:0:0:0:
320,192,61736,1,8,0:0:0:0:
64,192,61934,1,2,0:0:0:0:
192,192,62131,1,8,0:0:0:0:
448,192,62328,128,2,62723:0:0:0:0:
192,192,62723,128,2,63118:0:0:0:0:
320,192,63118,128,2,63513:0:0:0:0:
64,192,63513,128,2,63907:0:0:0:0:
320,192,63907,1,2,0:0:0:0:
448,192,63907,1,4,0:0:0:0:
192,192,64105,1,8,0:0:0:0:
64,192,64302,1,2,0:0:0:0:
320,192,64499,1,8,0:0:0:0:
448,192,64697,1,2,0:0:0:0:
192,192,64894,1,8,0:0:0:0:
320,192,65092,1,2,0:0:0:0:
64,192,65289,1,8,0:0:0:0:
320,192,65486,1,2,0:0:0:0:
448,192,65486,1,4,0:0:0:0:
192,192,65881,1,2,0:0:0:0:
320,192,65881,1,0,0:0:0:0:
64,192,66276,1,2,0:0:0:0:
192,192,66276,1,0,0:0:0:0:
320,192,66671,1,2,0:0:0:0:
448,192,66671,1,4,0:0:0:0:
64,192,67065,1,2,0:0:0:0:
320,192,67065,1,4,0:0:0:0:
320,192,67263,1,2,0:0:0:0:
192,192,67460,1,8,0:0:0:0:
448,192,67657,1,0,0:0:0:0:
192,192,67855,1,2,0:0:0:0:
192,192,68052,1,2,0:0:0:0:
64,192,68249,1,8,0:0:0:0:
448,192,68447,1,8,0:0:0:0:
64,192,68644,1,2,0:0:0:0:
192,192,68644,128,0,69039:0:0:0:0:
320,192,69039,128,8,69434:0:0:0:0:
448,192,69434,128,2,69828:0:0:0:0:
64,192,69631,1,2,0:0:0:0:
192,192,69828,1,8,0:0:0:0:
320,192,69828,1,0,0:0:0:0:
64,192,70026,1,2,0:0:0:0:
320,192,70223,1,4,0:0:0:0:
448,192,70223,1,2,0:0:0:0:
64,192,70618,1,2,0:0:0:0:
192,192,70618,1,4,0:0:0:0:
64,192,71013,1,2,0:0:0:0:
448,192,71013,1,4,0:0:0:0:
448,192,71309,1,2,0:0:0:0:
64,192,71407,1,2,0:0:0:0:
192,192,71605,1,2,0:0:0:0:
320,192,71605,1,4,0:0:0:0:
448,192,71999,1,2,0:0:0:0:
192,192,72197,1,8,0:0:0:0:
320,192,72592,128,2,72789:0:0:0:0:
448,192,72789,128,8,72986:0:0:0:0:
64,192,72986,128,2,73184:0:0:0:0:
192,192,73184,128,0,73381:0:0:0:0:
320,192,73381,1,2,0:0:0:0:
448,192,73381,1,4,0:0:0:0:
64,192,73578,1,8,0:0:0:0:
448,192,73776,1,2,0:0:0:0:
192,192,73973,1,8,0:0:0:0:
320,192,74171,1,2,0:0:0:0:
448,192,74368,1,8,0:0:0:0:
192,192,74565,1,2,0:0:0:0:
64,192,74763,1,8,0:0:0:0:
320,192,74960,1,2,0:0:0:0:
192,192,75157,1,8,0:0:0:0:
448,192,75355,1,2,0:0:0:0:
320,192,75552,1,8,0:0:0:0:
64,192,75749,1,2,0:0:0:0:
320,192,75947,1,8,0:0:0:0:
192,192,76144,1,2,0:0:0:0:
448,192,76342,1,8,0:0:0:0:
64,192,76539,1,2,0:0:0:0:
192,192,76539,1,4,0:0:0:0:
320,192,76835,1,2,0:0:0:0:
448,192,76835,1,4,0:0:0:0:
64,192,77131,1,2,0:0:0:0:
192,192,77131,1,4,0:0:0:0:
320,192,77526,1,8,0:0:0:0:
448,192,77723,1,2,0:0:0:0:
192,192,77921,1,8,0:0:0:0:
64,192,78118,1,2,0:0:0:0:
448,192,78118,1,4,0:0:0:0:
192,192,78414,1,2,0:0:0:0:
320,192,78414,1,4,0:0:0:0:
64,192,78710,1,2,0:0:0:0:
448,192,78710,1,4,0:0:0:0:
320,192,79105,1,8,0:0:0:0:
192,192,79302,1,2,0:0:0:0:
320,192,79499,1,8,0:0:0:0:
64,192,79697,1,2,0:0:0:0:
448,192,79697,1,4,0:0:0:0:
192,192,79894,1,8,0:0:0:0:
448,192,80092,1,2,0:0:0:0:
320,192,80289,1,8,0:0:0:0:
192,192,80486,1,2,0:0:0:0:
448,192,80684,1,8,0:0:0:0:
64,192,80881,1,2,0:0:0:0:
320,192,81078,1,8,0:0:0:0:
192,192,81276,1,2,0:0:0:0:
64,192,81473,1,8,0:0:0:0:
448,192,81671,1,2,0:0:0:0:
320,192,81868,1,8,0:0:0:0:
64,192,82065,128,2,82263:0:0:0:0:
192,192,82263,128,8,82460:0:0:0:0:
320,192,82460,128,2,82657:0:0:0:0:
448,192,82657,128,8,82855:0:0:0:0:
64,192,82855,1,2,0:0:0:0:
192,192,82855,1,4,0:0:0:0:
320,192,83249,1,2,0:0:0:0:
448,192,83249,1,0,0:0:0:0:
192,192,83447,1,8,0:0:0:0:
320,192,83546,1,8,0:0:0:0:
64,192,83644,1,2,0:0:0:0:
448,192,83644,1,4,0:0:0:0:
192,192,84039,1,2,0:0:0:0:
320,192,84039,1,8,0:0:0:0:
64,192,84434,128,2,84631:0:0:0:0:
320,192,84434,1,4,0:0:0:0:
448,192,84631,128,8,85223:0:0:0:0:
192,192,84828,1,2,0:0:0:0:
320,192,85026,1,2,0:0:0:0:
64,192,85223,1,2,0:0:0:0:
192,192,85223,1,0,0:0:0:0:
320,192,85421,1,2,0:0:0:0:
448,192,85618,1,2,0:0:0:0:
192,192,85815,1,8,0:0:0:0:
320,192,85914,1,8,0:0:0:0:
64,192,86013,1,2,0:0:0:0:
448,192,86013,1,4,0:0:0:0:
192,192,86407,1,8,0:0:0:0:
320,192,86407,1,0,0:0:0:0:
64,192,86802,1,2,0:0:0:0:
448,192,86802,1,4,0:0:0:0:
192,192,87197,1,8,0:0:0:0:
320,192,87197,1,2,0:0:0:0:
64,192,87592,1,8,0:0:0:0:
192,192,87789,1,2,0:0:0:0:
448,192,87789,1,4,0:0:0:0:
192,192,88085,1,2,0:0:0:0:
448,192,88085,1,4,0:0:0:0:
192,192,88381,1,2,0:0:0:0:
448,192,88381,1,4,0:0:0:0:
