osu file format v14

[General]
AudioFilename: audio.mp3
AudioLeadIn: 0
PreviewTime: 203309
Countdown: 0
SampleSet: Normal
StackLeniency: 0.7
Mode: 1
LetterboxInBreaks: 0
WidescreenStoryboard: 0

[Editor]
DistanceSpacing: 1.6
BeatDivisor: 4
GridSize: 4
TimelineZoom: 1.6

[Metadata]
Title:Romeo ja Julia
TitleUnicode:Romeo ja Julia
Artist:Movetron
ArtistUnicode:Movetron
Creator:Karee Pan
Version:Movetroni
Source:
Tags:Suomi, Finnish
BeatmapID:1567570
BeatmapSetID:743327

[Difficulty]
HPDrainRate:4
CircleSize:5
OverallDifficulty:6
ApproachRate:5
SliderMultiplier:1.4
SliderTickRate:1

[Events]
//Background and Video events
0,0,"8f342cfb.jpg",0,0
//Break Periods
//Storyboard Layer 0 (Background)
//Storyboard Layer 1 (Fail)
//Storyboard Layer 2 (Pass)
//Storyboard Layer 3 (Foreground)
//Storyboard Sound Samples

[TimingPoints]
339,353.606789250354,4,1,0,60,1,0
339,-125,4,1,0,60,0,0
22969,-111.111111111111,4,1,0,70,0,0
47015,-100,4,1,0,70,0,0
119150,-90.9090909090909,4,1,0,80,0,1
130466,-100,4,1,0,70,0,0
157340,-90.9090909090909,4,1,0,80,0,1
179971,-100,4,1,0,70,0,0
180324,-111.111111111111,4,1,0,70,0,0
180678,-125,4,1,0,70,0,0
191286,-111.111111111111,4,1,0,70,0,0
204016,-90.9090909090909,4,1,0,80,0,1
226824,-90.9090909090909,4,1,0,70,0,0

[HitObjects]
256,200,339,5,8,0:0:0:0:
248,204,692,1,0,0:0:0:0:
256,200,1046,1,0,0:0:0:0:
256,200,1223,1,0,0:0:0:0:
256,200,1399,1,8,0:0:0:0:
160,176,1576,1,0,0:0:0:0:
256,200,1753,1,8,0:0:0:0:
256,200,2107,1,0,0:0:0:0:
256,200,2460,1,8,0:0:0:0:
256,200,2637,1,0,0:0:0:0:
256,200,2814,1,8,0:0:0:0:
244,208,2991,1,8,0:0:0:0:
256,200,3167,1,0,0:0:0:0:
192,196,3521,1,0,0:0:0:0:
256,200,3875,1,0,0:0:0:0:
256,200,4051,1,8,0:0:0:0:
256,200,4405,1,8,0:0:0:0:
256,192,4582,1,0,0:0:0:0:
256,192,4935,1,0,0:0:0:0:
256,200,5289,1,8,0:0:0:0:
256,192,5466,1,0,0:0:0:0:
256,200,5643,1,8,0:0:0:0:
236,208,5819,1,8,0:0:0:0:
236,208,5996,1,0,0:0:0:0:
260,216,6350,1,0,0:0:0:0:
260,216,6703,1,8,0:0:0:0:
260,216,6880,1,0,0:0:0:0:
260,216,7057,1,8,0:0:0:0:
260,216,7234,1,0,0:0:0:0:
248,216,7411,1,8,0:0:0:0:
248,216,7764,1,8,0:0:0:0:
248,216,7941,1,0,0:0:0:0:
248,216,8295,1,0,0:0:0:0:
364,192,8471,1,8,0:0:0:0:
276,212,8648,1,0,0:0:0:0:
248,216,8825,1,8,0:0:0:0:
300,224,9179,1,0,0:0:0:0:
284,224,9532,1,8,0:0:0:0:
284,224,9886,1,0,0:0:0:0:
284,224,10239,1,8,0:0:0:0:
284,224,10593,1,0,0:0:0:0:
284,224,10947,1,8,0:0:0:0:
308,220,11124,1,0,0:0:0:0:
308,220,11300,1,8,0:0:0:0:
308,224,11654,1,8,0:0:0:0:
268,228,12008,1,0,0:0:0:0:
248,216,12184,1,0,0:0:0:0:
248,216,12361,1,8,0:0:0:0:
224,200,12538,1,0,0:0:0:0:
212,172,12715,1,8,0:0:0:0:
224,200,12892,1,0,0:0:0:0:
232,188,13068,1,8,0:0:0:0:
228,192,13422,1,0,0:0:0:0:
228,192,13776,1,8,0:0:0:0:
232,200,13952,1,0,0:0:0:0:
232,200,14129,1,8,0:0:0:0:
232,200,14306,1,8,0:0:0:0:
232,200,14483,1,0,0:0:0:0:
232,200,14836,1,0,0:0:0:0:
236,192,15190,1,0,0:0:0:0:
232,200,15367,1,8,0:0:0:0:
232,200,15544,1,0,0:0:0:0:
236,192,15720,1,0,0:0:0:0:
236,192,15897,1,8,0:0:0:0:
232,192,16251,1,0,0:0:0:0:
232,196,16604,1,8,0:0:0:0:
232,196,16781,1,0,0:0:0:0:
232,192,16958,1,8,0:0:0:0:
240,200,17135,1,8,0:0:0:0:
232,196,17312,1,0,0:0:0:0:
288,196,17665,1,0,0:0:0:0:
288,228,18019,1,0,0:0:0:0:
256,220,18196,1,8,0:0:0:0:
280,228,18372,1,0,0:0:0:0:
280,228,18726,1,8,0:0:0:0:
280,228,19080,1,8,0:0:0:0:
280,228,19256,1,0,0:0:0:0:
504,192,19433,1,8,0:0:0:0:
220,204,19610,1,0,0:0:0:0:
224,208,19964,1,0,0:0:0:0:
228,204,20140,1,8,0:0:0:0:
224,208,20494,1,0,0:0:0:0:
224,208,20848,1,8,0:0:0:0:
228,204,21201,1,0,0:0:0:0:
224,208,21555,1,8,0:0:0:0:
224,208,21909,1,0,0:0:0:0:
228,204,22262,1,8,0:0:0:0:
224,208,22439,1,0,0:0:0:0:
224,208,22616,1,8,0:0:0:0:
228,204,22969,1,8,0:0:0:0:
168,192,23235,1,0,0:0:0:0:
248,200,23500,1,8,0:0:0:0:
248,200,23853,1,8,0:0:0:0:
248,200,24030,1,0,0:0:0:0:
248,200,24207,1,0,0:0:0:0:
248,200,24384,1,8,0:0:0:0:
248,200,24649,1,8,0:0:0:0:
248,200,24914,1,0,0:0:0:0:
248,200,25268,1,8,0:0:0:0:
248,200,25445,1,0,0:0:0:0:
248,200,25621,1,8,0:0:0:0:
248,200,25798,1,0,0:0:0:0:
248,200,26063,1,8,0:0:0:0:
248,200,26329,1,0,0:0:0:0:
248,200,26682,1,8,0:0:0:0:
248,200,26859,1,0,0:0:0:0:
248,200,27036,1,0,0:0:0:0:
248,200,27213,1,8,0:0:0:0:
248,200,27478,1,8,0:0:0:0:
248,200,27743,1,0,0:0:0:0:
244,204,28097,1,0,0:0:0:0:
244,204,28273,1,8,0:0:0:0:
244,204,28450,1,0,0:0:0:0:
244,204,28627,1,8,0:0:0:0:
252,232,28804,1,8,0:0:0:0:
244,204,28892,1,0,0:0:0:0:
244,204,29157,1,8,0:0:0:0:
240,216,29511,1,8,0:0:0:0:
240,216,29688,1,0,0:0:0:0:
240,216,29865,1,0,0:0:0:0:
240,216,30041,1,8,0:0:0:0:
240,216,30218,1,0,0:0:0:0:
240,216,30307,1,8,0:0:0:0:
240,216,30572,1,0,0:0:0:0:
240,216,30925,1,8,0:0:0:0:
240,216,31102,1,0,0:0:0:0:
240,216,31279,1,8,0:0:0:0:
240,216,31456,1,0,0:0:0:0:
240,216,31633,1,0,0:0:0:0:
240,216,31721,1,8,0:0:0:0:
240,216,31986,1,0,0:0:0:0:
240,216,32340,1,8,0:0:0:0:
240,216,32517,1,0,0:0:0:0:
240,216,32694,1,0,0:0:0:0:
240,216,32870,1,8,0:0:0:0:
240,216,33047,1,0,0:0:0:0:
240,216,33136,1,8,0:0:0:0:
240,216,33401,1,0,0:0:0:0:
240,216,33754,1,0,0:0:0:0:
240,216,33931,1,8,0:0:0:0:
264,216,34108,1,0,0:0:0:0:
264,216,34285,1,8,0:0:0:0:
252,204,34462,1,8,0:0:0:0:
252,204,34550,1,0,0:0:0:0:
240,164,34638,1,0,0:0:0:0:
252,204,34815,1,8,0:0:0:0:
252,204,35169,1,8,0:0:0:0:
252,204,35346,1,0,0:0:0:0:
252,204,35522,1,0,0:0:0:0:
252,204,35699,1,8,0:0:0:0:
252,204,35876,1,0,0:0:0:0:
252,204,35964,1,8,0:0:0:0:
216,164,36053,1,8,0:0:0:0:
252,204,36230,1,0,0:0:0:0:
252,204,36583,1,8,0:0:0:0:
252,204,36760,1,0,0:0:0:0:
252,204,36937,1,8,0:0:0:0:
252,204,37114,1,0,0:0:0:0:
252,204,37290,1,8,0:0:0:0:
252,204,37379,1,0,0:0:0:0:
192,96,37467,1,0,0:0:0:0:
252,204,37644,1,8,0:0:0:0:
252,204,37998,1,8,0:0:0:0:
252,204,38174,1,0,0:0:0:0:
252,204,38351,1,0,0:0:0:0:
252,204,38528,1,8,0:0:0:0:
252,204,38705,1,0,0:0:0:0:
252,204,38793,1,8,0:0:0:0:
216,116,38882,1,8,0:0:0:0:
252,204,39058,1,0,0:0:0:0:
252,204,39412,1,8,0:0:0:0:
252,204,39589,1,0,0:0:0:0:
252,204,39766,1,0,0:0:0:0:
252,204,39942,1,0,0:0:0:0:
252,204,40119,1,8,0:0:0:0:
272,208,40208,1,8,0:0:0:0:
252,204,40296,1,0,0:0:0:0:
252,204,40473,1,8,0:0:0:0:
252,204,40650,1,0,0:0:0:0:
252,204,40826,1,8,0:0:0:0:
252,204,40915,1,8,0:0:0:0:
252,204,41003,1,0,0:0:0:0:
252,204,41180,1,0,0:0:0:0:
252,204,41357,1,8,0:0:0:0:
252,216,41534,1,0,0:0:0:0:
252,216,41622,1,0,0:0:0:0:
252,216,41710,1,8,0:0:0:0:
252,216,41887,1,0,0:0:0:0:
252,216,42064,1,0,0:0:0:0:
252,216,42241,1,8,0:0:0:0:
212,124,42329,1,8,0:0:0:0:
252,216,42418,1,0,0:0:0:0:
252,216,42595,1,8,0:0:0:0:
252,216,42771,1,0,0:0:0:0:
212,124,42948,1,0,0:0:0:0:
252,216,43037,1,0,0:0:0:0:
252,216,43125,1,8,0:0:0:0:
252,216,43302,1,0,0:0:0:0:
252,216,43479,1,0,0:0:0:0:
252,216,43655,1,8,0:0:0:0:
212,112,43744,1,8,0:0:0:0:
252,216,43832,1,0,0:0:0:0:
252,216,44009,1,8,0:0:0:0:
252,216,44186,1,4,0:0:0:0:
228,204,47015,1,8,0:0:0:0:
252,216,47192,1,8,0:0:0:0:
168,192,47281,1,0,0:0:0:0:
232,200,47457,1,0,0:0:0:0:
248,200,47546,1,8,0:0:0:0:
276,216,47722,1,0,0:0:0:0:
248,200,47899,1,8,0:0:0:0:
260,200,47987,1,8,0:0:0:0:
276,216,48075,1,0,0:0:0:0:
248,200,48253,1,0,0:0:0:0:
248,200,48430,1,8,0:0:0:0:
264,200,48606,1,0,0:0:0:0:
248,200,48695,1,8,0:0:0:0:
248,200,48871,1,8,0:0:0:0:
264,200,48960,1,0,0:0:0:0:
264,200,49136,1,0,0:0:0:0:
264,200,49225,1,0,0:0:0:0:
248,200,49314,1,8,0:0:0:0:
248,200,49491,1,0,0:0:0:0:
248,200,49667,1,8,0:0:0:0:
248,200,49844,1,0,0:0:0:0:
272,208,50020,1,8,0:0:0:0:
248,200,50109,1,0,0:0:0:0:
248,200,50286,1,0,0:0:0:0:
280,192,50375,1,8,0:0:0:0:
280,192,50551,1,0,0:0:0:0:
248,200,50728,1,8,0:0:0:0:
260,200,50816,1,8,0:0:0:0:
248,200,50905,1,0,0:0:0:0:
248,200,51082,1,0,0:0:0:0:
248,200,51259,1,8,0:0:0:0:
264,200,51435,1,0,0:0:0:0:
248,200,51524,1,8,0:0:0:0:
272,192,51700,1,8,0:0:0:0:
248,200,51789,1,0,0:0:0:0:
276,184,51965,1,0,0:0:0:0:
276,184,52053,1,0,0:0:0:0:
244,204,52143,1,8,0:0:0:0:
244,204,52319,1,0,0:0:0:0:
244,204,52496,1,0,0:0:0:0:
228,204,52672,1,8,0:0:0:0:
252,216,52849,1,8,0:0:0:0:
168,192,52938,1,0,0:0:0:0:
232,200,53114,1,0,0:0:0:0:
248,200,53203,1,8,0:0:0:0:
276,216,53379,1,0,0:0:0:0:
248,200,53556,1,8,0:0:0:0:
260,200,53645,1,8,0:0:0:0:
276,216,53732,1,0,0:0:0:0:
248,200,53910,1,0,0:0:0:0:
248,200,54087,1,8,0:0:0:0:
264,200,54263,1,0,0:0:0:0:
248,200,54352,1,8,0:0:0:0:
248,200,54528,1,8,0:0:0:0:
264,200,54617,1,0,0:0:0:0:
264,200,54793,1,0,0:0:0:0:
264,200,54882,1,0,0:0:0:0:
248,200,54971,1,8,0:0:0:0:
248,200,55148,1,0,0:0:0:0:
248,200,55324,1,8,0:0:0:0:
248,200,55501,1,0,0:0:0:0:
272,208,55677,1,8,0:0:0:0:
248,200,55766,1,0,0:0:0:0:
248,200,55943,1,0,0:0:0:0:
280,192,56032,1,8,0:0:0:0:
280,192,56208,1,0,0:0:0:0:
248,200,56385,1,8,0:0:0:0:
260,200,56474,1,8,0:0:0:0:
248,200,56562,1,0,0:0:0:0:
248,200,56739,1,0,0:0:0:0:
248,200,56916,1,8,0:0:0:0:
264,200,57092,1,0,0:0:0:0:
248,200,57181,1,8,0:0:0:0:
272,192,57357,1,8,0:0:0:0:
248,200,57446,1,0,0:0:0:0:
276,184,57622,1,0,0:0:0:0:
244,204,57800,1,8,0:0:0:0:
276,184,57887,1,0,0:0:0:0:
244,204,57976,1,8,0:0:0:0:
244,204,58153,1,8,0:0:0:0:
216,192,58330,1,0,0:0:0:0:
224,192,58507,1,0,0:0:0:0:
224,192,58595,1,0,0:0:0:0:
224,192,58684,1,8,0:0:0:0:
224,192,59037,1,0,0:0:0:0:
224,192,59214,1,0,0:0:0:0:
224,192,59302,1,0,0:0:0:0:
224,192,59391,1,8,0:0:0:0:
224,192,59744,1,0,0:0:0:0:
224,192,59921,1,0,0:0:0:0:
224,192,60010,1,0,0:0:0:0:
224,192,60098,1,8,0:0:0:0:
224,192,60452,1,0,0:0:0:0:
224,192,60540,1,0,0:0:0:0:
224,192,60628,1,0,0:0:0:0:
224,192,60805,1,8,0:0:0:0:
224,192,60982,1,0,0:0:0:0:
196,192,61159,1,0,0:0:0:0:
196,192,61336,1,0,0:0:0:0:
212,208,61424,1,0,0:0:0:0:
196,192,61512,1,8,0:0:0:0:
196,192,61689,1,8,0:0:0:0:
196,192,61866,1,0,0:0:0:0:
196,192,62043,1,8,0:0:0:0:
236,192,62131,1,8,0:0:0:0:
196,192,62220,1,0,0:0:0:0:
196,192,62396,1,8,0:0:0:0:
196,192,62573,1,0,0:0:0:0:
196,192,62927,1,0,0:0:0:0:
196,192,63104,1,8,0:0:0:0:
196,192,63192,1,8,0:0:0:0:
196,192,63280,1,0,0:0:0:0:
196,192,63457,1,8,0:0:0:0:
196,192,63634,1,0,0:0:0:0:
196,192,63811,1,8,0:0:0:0:
196,192,63988,1,0,0:0:0:0:
216,176,64341,1,0,0:0:0:0:
196,192,64518,1,8,0:0:0:0:
216,176,64695,1,8,0:0:0:0:
216,176,64872,1,0,0:0:0:0:
224,176,64960,1,0,0:0:0:0:
216,176,65049,1,8,0:0:0:0:
216,176,65225,1,8,0:0:0:0:
216,176,65402,1,0,0:0:0:0:
216,176,65756,1,0,0:0:0:0:
216,176,65933,1,8,0:0:0:0:
216,176,66109,1,0,0:0:0:0:
216,176,66286,1,0,0:0:0:0:
216,176,66375,1,0,0:0:0:0:
216,176,66463,1,8,0:0:0:0:
216,176,66640,1,0,0:0:0:0:
216,176,66817,1,8,0:0:0:0:
216,176,67170,1,0,0:0:0:0:
216,176,67347,1,8,0:0:0:0:
216,176,67435,1,8,0:0:0:0:
216,176,67524,1,0,0:0:0:0:
216,176,67701,1,8,0:0:0:0:
216,176,67877,1,0,0:0:0:0:
216,176,68054,1,8,0:0:0:0:
216,176,68231,1,0,0:0:0:0:
216,176,68585,1,0,0:0:0:0:
216,176,68761,1,8,0:0:0:0:
216,176,68850,1,8,0:0:0:0:
216,176,68938,1,0,0:0:0:0:
216,176,69115,1,8,0:0:0:0:
216,176,69292,1,0,0:0:0:0:
216,176,69469,1,8,0:0:0:0:
184,224,69557,1,8,0:0:0:0:
216,176,69645,1,0,0:0:0:0:
216,176,69822,1,8,0:0:0:0:
216,176,69999,1,0,0:0:0:0:
216,200,70176,1,8,0:0:0:0:
216,176,70353,1,8,0:0:0:0:
216,176,70706,1,8,0:0:0:0:
216,176,70883,1,8,0:0:0:0:
232,180,71237,1,0,0:0:0:0:
216,188,71413,1,8,0:0:0:0:
220,176,71590,1,0,0:0:0:0:
220,176,71679,1,0,0:0:0:0:
220,176,71767,1,8,0:0:0:0:
220,176,71944,1,0,0:0:0:0:
220,176,72121,1,8,0:0:0:0:
220,176,72297,1,0,0:0:0:0:
228,204,72474,1,8,0:0:0:0:
252,216,72651,1,8,0:0:0:0:
168,192,72740,1,0,0:0:0:0:
232,200,72916,1,0,0:0:0:0:
248,200,73005,1,8,0:0:0:0:
276,216,73181,1,0,0:0:0:0:
248,200,73358,1,8,0:0:0:0:
260,200,73447,1,8,0:0:0:0:
276,216,73534,1,0,0:0:0:0:
248,200,73712,1,0,0:0:0:0:
248,200,73889,1,8,0:0:0:0:
264,200,74065,1,0,0:0:0:0:
248,200,74154,1,8,0:0:0:0:
248,200,74330,1,8,0:0:0:0:
264,200,74419,1,0,0:0:0:0:
220,164,74596,1,0,0:0:0:0:
264,200,74684,1,0,0:0:0:0:
248,200,74773,1,8,0:0:0:0:
248,200,74950,1,0,0:0:0:0:
248,200,75126,1,8,0:0:0:0:
248,200,75303,1,0,0:0:0:0:
272,208,75479,1,8,0:0:0:0:
248,200,75568,1,0,0:0:0:0:
248,200,75745,1,0,0:0:0:0:
280,192,75834,1,8,0:0:0:0:
280,192,76010,1,0,0:0:0:0:
248,200,76187,1,8,0:0:0:0:
260,200,76276,1,8,0:0:0:0:
248,200,76364,1,0,0:0:0:0:
248,200,76541,1,0,0:0:0:0:
248,200,76718,1,8,0:0:0:0:
264,200,76894,1,0,0:0:0:0:
248,200,76983,1,8,0:0:0:0:
272,192,77159,1,8,0:0:0:0:
248,200,77248,1,0,0:0:0:0:
276,184,77424,1,0,0:0:0:0:
244,204,77513,1,0,0:0:0:0:
276,184,77602,1,0,0:0:0:0:
244,204,77778,1,8,0:0:0:0:
244,204,77955,1,8,0:0:0:0:
216,192,78132,1,0,0:0:0:0:
224,192,78309,1,0,0:0:0:0:
224,192,78397,1,0,0:0:0:0:
224,192,78486,1,8,0:0:0:0:
224,192,78839,1,0,0:0:0:0:
224,192,79016,1,0,0:0:0:0:
224,192,79104,1,0,0:0:0:0:
224,192,79193,1,8,0:0:0:0:
224,192,79546,1,0,0:0:0:0:
224,192,79723,1,0,0:0:0:0:
224,192,79812,1,0,0:0:0:0:
224,192,79900,1,8,0:0:0:0:
224,192,80254,1,0,0:0:0:0:
224,192,80607,1,8,0:0:0:0:
224,192,80784,1,8,0:0:0:0:
196,192,80961,1,0,0:0:0:0:
196,192,81138,1,0,0:0:0:0:
212,208,81226,1,0,0:0:0:0:
196,192,81314,1,8,0:0:0:0:
196,192,81491,1,8,0:0:0:0:
196,192,81668,1,0,0:0:0:0:
196,192,81845,1,8,0:0:0:0:
236,192,81933,1,8,0:0:0:0:
196,192,82022,1,0,0:0:0:0:
196,192,82198,1,8,0:0:0:0:
196,192,82375,1,0,0:0:0:0:
196,192,82729,1,0,0:0:0:0:
196,192,82906,1,8,0:0:0:0:
196,192,82994,1,8,0:0:0:0:
196,192,83082,1,0,0:0:0:0:
196,192,83259,1,8,0:0:0:0:
196,192,83436,1,0,0:0:0:0:
196,192,83613,1,8,0:0:0:0:
196,192,83790,1,0,0:0:0:0:
216,176,84143,1,0,0:0:0:0:
196,192,84320,1,8,0:0:0:0:
216,176,84497,1,8,0:0:0:0:
216,176,84674,1,0,0:0:0:0:
224,176,84762,1,0,0:0:0:0:
216,176,84851,1,8,0:0:0:0:
216,176,85027,1,0,0:0:0:0:
216,176,85204,1,8,0:0:0:0:
216,176,85381,1,0,0:0:0:0:
216,176,85469,1,8,0:0:0:0:
216,176,85558,1,0,0:0:0:0:
216,176,85735,1,8,0:0:0:0:
216,176,85911,1,0,0:0:0:0:
216,176,86088,1,0,0:0:0:0:
216,176,86177,1,0,0:0:0:0:
216,176,86265,1,8,0:0:0:0:
216,176,86442,1,8,0:0:0:0:
216,176,86619,1,0,0:0:0:0:
216,176,86972,1,0,0:0:0:0:
216,176,87149,1,8,0:0:0:0:
216,176,87237,1,8,0:0:0:0:
216,176,87326,1,0,0:0:0:0:
216,176,87503,1,8,0:0:0:0:
216,176,87679,1,0,0:0:0:0:
204,172,87768,1,0,0:0:0:0:
216,176,87856,1,8,0:0:0:0:
216,176,88033,1,0,0:0:0:0:
216,176,88387,1,0,0:0:0:0:
216,176,88563,1,8,0:0:0:0:
216,176,88652,1,8,0:0:0:0:
216,176,88740,1,0,0:0:0:0:
216,176,88917,1,8,0:0:0:0:
216,176,89094,1,0,0:0:0:0:
216,176,89271,1,8,0:0:0:0:
184,224,89359,1,8,0:0:0:0:
216,176,89447,1,0,0:0:0:0:
216,176,89624,1,8,0:0:0:0:
216,176,89801,1,0,0:0:0:0:
216,176,89978,1,0,0:0:0:0:
216,176,90155,1,8,0:0:0:0:
216,176,90508,1,8,0:0:0:0:
216,176,90685,1,8,0:0:0:0:
220,188,91039,1,0,0:0:0:0:
236,192,91215,1,8,0:0:0:0:
216,176,91392,1,8,0:0:0:0:
216,176,91569,1,0,0:0:0:0:
216,176,91657,1,0,0:0:0:0:
216,176,91746,1,0,0:0:0:0:
216,176,91923,1,0,0:0:0:0:
216,176,92099,1,0,0:0:0:0:
228,204,92276,1,8,0:0:0:0:
252,216,92453,1,8,0:0:0:0:
168,192,92542,1,0,0:0:0:0:
232,200,92718,1,0,0:0:0:0:
248,200,92807,1,8,0:0:0:0:
276,216,92983,1,0,0:0:0:0:
248,200,93160,1,8,0:0:0:0:
260,200,93249,1,8,0:0:0:0:
276,216,93336,1,0,0:0:0:0:
308,216,93426,1,8,0:0:0:0:
248,200,93514,1,0,0:0:0:0:
248,200,93691,1,8,0:0:0:0:
264,200,93867,1,0,0:0:0:0:
248,200,93956,1,8,0:0:0:0:
248,200,94132,1,8,0:0:0:0:
264,200,94221,1,0,0:0:0:0:
264,200,94397,1,0,0:0:0:0:
240,200,94486,1,0,0:0:0:0:
248,200,94575,1,8,0:0:0:0:
264,200,94663,1,8,0:0:0:0:
248,200,94752,1,0,0:0:0:0:
248,200,94928,1,8,0:0:0:0:
248,200,95105,1,0,0:0:0:0:
272,208,95281,1,8,0:0:0:0:
248,200,95370,1,0,0:0:0:0:
248,200,95547,1,0,0:0:0:0:
280,192,95636,1,8,0:0:0:0:
280,192,95812,1,0,0:0:0:0:
248,200,95989,1,8,0:0:0:0:
260,200,96078,1,8,0:0:0:0:
248,200,96166,1,0,0:0:0:0:
280,204,96254,1,8,0:0:0:0:
248,200,96343,1,0,0:0:0:0:
248,200,96520,1,8,0:0:0:0:
248,200,96696,1,8,0:0:0:0:
264,200,96785,1,0,0:0:0:0:
280,208,96873,1,8,0:0:0:0:
248,200,97050,1,0,0:0:0:0:
240,192,97227,1,8,0:0:0:0:
240,192,97404,1,0,0:0:0:0:
276,200,97492,1,8,0:0:0:0:
240,192,97580,1,0,0:0:0:0:
240,192,97757,1,0,0:0:0:0:
240,192,97934,1,8,0:0:0:0:
240,192,98111,1,8,0:0:0:0:
240,192,98199,1,0,0:0:0:0:
240,192,98376,1,0,0:0:0:0:
240,192,98464,1,8,0:0:0:0:
276,216,98641,1,0,0:0:0:0:
248,200,98818,1,8,0:0:0:0:
260,200,98907,1,8,0:0:0:0:
276,216,98994,1,0,0:0:0:0:
308,216,99084,1,8,0:0:0:0:
248,200,99172,1,0,0:0:0:0:
248,200,99349,1,8,0:0:0:0:
264,200,99525,1,0,0:0:0:0:
248,200,99614,1,8,0:0:0:0:
248,200,99790,1,8,0:0:0:0:
264,200,99879,1,0,0:0:0:0:
264,200,100055,1,0,0:0:0:0:
264,200,100144,1,0,0:0:0:0:
248,200,100233,1,8,0:0:0:0:
208,200,100321,1,8,0:0:0:0:
248,200,100410,1,0,0:0:0:0:
248,200,100586,1,8,0:0:0:0:
248,200,100763,1,0,0:0:0:0:
272,208,100939,1,8,0:0:0:0:
248,200,101028,1,0,0:0:0:0:
248,200,101205,1,0,0:0:0:0:
280,192,101294,1,8,0:0:0:0:
280,192,101470,1,0,0:0:0:0:
248,200,101647,1,8,0:0:0:0:
260,200,101736,1,8,0:0:0:0:
248,200,101824,1,0,0:0:0:0:
280,204,101912,1,8,0:0:0:0:
248,200,102001,1,0,0:0:0:0:
248,200,102178,1,8,0:0:0:0:
264,200,102354,1,0,0:0:0:0:
248,200,102443,1,8,0:0:0:0:
272,192,102619,1,8,0:0:0:0:
248,200,102708,1,0,0:0:0:0:
240,192,102885,1,0,0:0:0:0:
240,192,102973,1,0,0:0:0:0:
240,192,103061,1,0,0:0:0:0:
240,192,103238,1,8,0:0:0:0:
240,192,103415,1,8,0:0:0:0:
216,192,103592,1,0,0:0:0:0:
224,192,103769,1,0,0:0:0:0:
224,192,103857,1,0,0:0:0:0:
224,192,103946,1,8,0:0:0:0:
224,192,104122,1,0,0:0:0:0:
224,192,104299,1,0,0:0:0:0:
224,192,104476,1,0,0:0:0:0:
224,192,104564,1,0,0:0:0:0:
224,192,104653,1,8,0:0:0:0:
224,192,104830,1,0,0:0:0:0:
224,192,105006,1,0,0:0:0:0:
224,192,105183,1,0,0:0:0:0:
224,192,105272,1,0,0:0:0:0:
224,192,105360,1,8,0:0:0:0:
224,192,105537,1,0,0:0:0:0:
220,180,105713,1,0,0:0:0:0:
224,192,105802,1,0,0:0:0:0:
224,192,105890,1,0,0:0:0:0:
224,192,106067,1,8,0:0:0:0:
228,232,106244,1,0,0:0:0:0:
176,212,106421,1,0,0:0:0:0:
236,264,106509,1,0,0:0:0:0:
236,264,106597,1,8,0:0:0:0:
236,264,106774,1,0,0:0:0:0:
236,264,106951,1,8,0:0:0:0:
236,264,107039,1,8,0:0:0:0:
236,264,107128,1,0,0:0:0:0:
236,264,107305,1,8,0:0:0:0:
236,264,107481,1,0,0:0:0:0:
236,264,107658,1,8,0:0:0:0:
196,212,107747,1,8,0:0:0:0:
236,264,107835,1,0,0:0:0:0:
236,264,108189,1,0,0:0:0:0:
236,264,108365,1,8,0:0:0:0:
236,264,108454,1,8,0:0:0:0:
236,264,108542,1,0,0:0:0:0:
236,264,108719,1,8,0:0:0:0:
236,264,108896,1,0,0:0:0:0:
236,264,109073,1,8,0:0:0:0:
236,264,109249,1,0,0:0:0:0:
236,264,109338,1,0,0:0:0:0:
236,264,109426,1,8,0:0:0:0:
236,264,109603,1,0,0:0:0:0:
236,264,109780,1,8,0:0:0:0:
236,264,109868,1,8,0:0:0:0:
236,264,109957,1,0,0:0:0:0:
236,264,110133,1,8,0:0:0:0:
240,216,110310,1,0,0:0:0:0:
192,136,110399,1,0,0:0:0:0:
240,216,110487,1,8,0:0:0:0:
240,216,110664,1,0,0:0:0:0:
240,216,110841,1,8,0:0:0:0:
240,216,111017,1,0,0:0:0:0:
264,232,111194,1,8,0:0:0:0:
252,240,111283,1,8,0:0:0:0:
264,232,111371,1,0,0:0:0:0:
264,232,111548,1,8,0:0:0:0:
264,232,111725,1,0,0:0:0:0:
264,232,111901,1,8,0:0:0:0:
264,232,112078,1,0,0:0:0:0:
248,232,112432,1,0,0:0:0:0:
264,232,112609,1,8,0:0:0:0:
264,232,112785,1,0,0:0:0:0:
264,232,112874,1,0,0:0:0:0:
264,232,112962,1,8,0:0:0:0:
264,232,113139,1,0,0:0:0:0:
264,232,113316,1,8,0:0:0:0:
252,224,113404,1,8,0:0:0:0:
264,232,113493,1,0,0:0:0:0:
264,232,113846,1,0,0:0:0:0:
268,224,114023,1,8,0:0:0:0:
264,232,114200,1,0,0:0:0:0:
268,224,114288,1,0,0:0:0:0:
264,232,114377,1,8,0:0:0:0:
264,232,114553,1,0,0:0:0:0:
292,236,114730,1,8,0:0:0:0:
264,232,114907,1,0,0:0:0:0:
292,236,115084,1,8,0:0:0:0:
280,236,115172,1,8,0:0:0:0:
264,232,115261,1,0,0:0:0:0:
292,236,115438,1,8,0:0:0:0:
264,232,115614,1,0,0:0:0:0:
292,236,115703,1,0,0:0:0:0:
292,236,115791,1,8,0:0:0:0:
264,232,115968,1,0,0:0:0:0:
292,236,116145,1,8,0:0:0:0:
276,228,116322,1,4,0:0:0:0:
268,220,117029,1,0,0:0:0:0:
268,220,117117,1,0,0:0:0:0:
268,220,117206,1,0,0:0:0:0:
268,220,117382,1,0,0:0:0:0:
268,220,117559,1,0,0:0:0:0:
268,220,117736,1,0,0:0:0:0:
272,232,118090,1,0,0:0:0:0:
272,232,118443,1,0,0:0:0:0:
272,232,118797,1,0,0:0:0:0:
264,192,119150,1,8,0:0:0:0:
264,192,119327,1,8,0:0:0:0:
264,192,119416,1,0,0:0:0:0:
264,192,119592,1,0,0:0:0:0:
264,192,119681,1,8,0:0:0:0:
264,192,119769,1,0,0:0:0:0:
264,192,119858,1,8,0:0:0:0:
264,192,120034,1,0,0:0:0:0:
264,192,120211,1,8,0:0:0:0:
264,192,120388,1,0,0:0:0:0:
264,192,120564,1,8,0:0:0:0:
264,192,120742,1,8,0:0:0:0:
264,192,120830,1,0,0:0:0:0:
264,192,121007,1,0,0:0:0:0:
264,192,121095,1,8,0:0:0:0:
264,192,121184,1,0,0:0:0:0:
264,192,121272,1,8,0:0:0:0:
264,192,121449,1,0,0:0:0:0:
268,192,121537,1,0,0:0:0:0:
264,192,121626,1,8,0:0:0:0:
256,176,121802,1,0,0:0:0:0:
256,176,121979,1,8,0:0:0:0:
256,176,122156,1,8,0:0:0:0:
256,176,122244,1,0,0:0:0:0:
256,176,122421,1,0,0:0:0:0:
256,176,122510,1,8,0:0:0:0:
256,176,122598,1,0,0:0:0:0:
256,176,122686,1,8,0:0:0:0:
256,180,122863,1,0,0:0:0:0:
280,184,122952,1,0,0:0:0:0:
268,192,123040,1,8,0:0:0:0:
256,192,123217,1,0,0:0:0:0:
256,176,123394,1,8,0:0:0:0:
256,176,123570,1,8,0:0:0:0:
256,176,123659,1,0,0:0:0:0:
256,176,123836,1,0,0:0:0:0:
256,176,123924,1,8,0:0:0:0:
256,176,124012,1,0,0:0:0:0:
256,176,124101,1,8,0:0:0:0:
256,176,124278,1,0,0:0:0:0:
256,176,124454,1,8,0:0:0:0:
240,192,124631,1,0,0:0:0:0:
256,176,124808,1,8,0:0:0:0:
256,176,124985,1,8,0:0:0:0:
256,176,125073,1,0,0:0:0:0:
256,176,125250,1,0,0:0:0:0:
256,176,125339,1,8,0:0:0:0:
256,176,125427,1,0,0:0:0:0:
256,176,125515,1,8,0:0:0:0:
256,176,125692,1,0,0:0:0:0:
256,176,125869,1,8,0:0:0:0:
256,176,126046,1,0,0:0:0:0:
256,176,126223,1,8,0:0:0:0:
256,176,126399,1,8,0:0:0:0:
256,176,126488,1,0,0:0:0:0:
256,176,126665,1,0,0:0:0:0:
256,176,126753,1,8,0:0:0:0:
256,176,126841,1,0,0:0:0:0:
256,176,126930,1,8,0:0:0:0:
256,176,127107,1,0,0:0:0:0:
256,176,127194,1,0,0:0:0:0:
264,184,127283,1,8,0:0:0:0:
272,192,127460,1,0,0:0:0:0:
272,192,127637,1,8,0:0:0:0:
256,176,127814,1,8,0:0:0:0:
256,176,127902,1,0,0:0:0:0:
256,176,128079,1,0,0:0:0:0:
256,176,128167,1,8,0:0:0:0:
240,188,128256,1,0,0:0:0:0:
272,192,128344,1,8,0:0:0:0:
256,176,128521,1,0,0:0:0:0:
272,192,128697,1,8,0:0:0:0:
256,176,128874,1,0,0:0:0:0:
272,192,128963,1,0,0:0:0:0:
256,176,129051,1,8,0:0:0:0:
256,176,129228,1,8,0:0:0:0:
256,176,129317,1,0,0:0:0:0:
256,176,129493,1,0,0:0:0:0:
256,176,129582,1,8,0:0:0:0:
256,176,129670,1,0,0:0:0:0:
256,176,129759,1,8,0:0:0:0:
256,176,129935,1,0,0:0:0:0:
256,176,130024,1,0,0:0:0:0:
256,176,130112,1,8,0:0:0:0:
256,176,130289,1,0,0:0:0:0:
228,204,130466,1,8,0:0:0:0:
252,216,130643,1,8,0:0:0:0:
168,192,130732,1,0,0:0:0:0:
232,200,130908,1,0,0:0:0:0:
248,200,130997,1,8,0:0:0:0:
240,224,131173,1,0,0:0:0:0:
248,200,131350,1,8,0:0:0:0:
260,204,131438,1,8,0:0:0:0:
248,200,131527,1,0,0:0:0:0:
280,208,131615,1,8,0:0:0:0:
248,200,131704,1,0,0:0:0:0:
260,200,131881,1,8,0:0:0:0:
264,200,132057,1,0,0:0:0:0:
248,200,132146,1,8,0:0:0:0:
216,184,132322,1,8,0:0:0:0:
264,200,132411,1,0,0:0:0:0:
264,200,132587,1,0,0:0:0:0:
304,200,132676,1,0,0:0:0:0:
248,200,132765,1,8,0:0:0:0:
288,192,132853,1,8,0:0:0:0:
248,200,132942,1,0,0:0:0:0:
248,200,133118,1,8,0:0:0:0:
248,200,133295,1,0,0:0:0:0:
272,208,133471,1,8,0:0:0:0:
248,200,133560,1,0,0:0:0:0:
248,200,133737,1,0,0:0:0:0:
280,192,133826,1,8,0:0:0:0:
280,192,134002,1,0,0:0:0:0:
248,200,134179,1,8,0:0:0:0:
260,192,134267,1,8,0:0:0:0:
248,200,134356,1,0,0:0:0:0:
248,200,134444,1,8,0:0:0:0:
212,196,134533,1,0,0:0:0:0:
248,200,134710,1,8,0:0:0:0:
248,200,134886,1,8,0:0:0:0:
264,200,134975,1,0,0:0:0:0:
276,184,135063,1,8,0:0:0:0:
272,192,135240,1,8,0:0:0:0:
276,184,135416,1,0,0:0:0:0:
244,204,135594,1,8,0:0:0:0:
244,204,135770,1,0,0:0:0:0:
248,184,135858,1,8,0:0:0:0:
244,204,135947,1,0,0:0:0:0:
228,204,136124,1,8,0:0:0:0:
252,216,136301,1,8,0:0:0:0:
168,192,136390,1,0,0:0:0:0:
232,200,136566,1,0,0:0:0:0:
248,200,136655,1,8,0:0:0:0:
276,216,136831,1,0,0:0:0:0:
248,200,137008,1,8,0:0:0:0:
288,204,137096,1,8,0:0:0:0:
248,200,137185,1,0,0:0:0:0:
256,224,137273,1,8,0:0:0:0:
260,200,137362,1,0,0:0:0:0:
248,200,137539,1,8,0:0:0:0:
264,200,137715,1,0,0:0:0:0:
248,200,137804,1,8,0:0:0:0:
264,200,137980,1,8,0:0:0:0:
248,200,138069,1,0,0:0:0:0:
264,200,138245,1,0,0:0:0:0:
264,224,138334,1,0,0:0:0:0:
248,200,138423,1,8,0:0:0:0:
248,192,138510,1,8,0:0:0:0:
248,200,138600,1,0,0:0:0:0:
248,200,138776,1,8,0:0:0:0:
248,200,138953,1,0,0:0:0:0:
272,208,139129,1,8,0:0:0:0:
248,200,139218,1,0,0:0:0:0:
264,200,139395,1,0,0:0:0:0:
232,192,139484,1,8,0:0:0:0:
280,192,139660,1,0,0:0:0:0:
248,200,139837,1,8,0:0:0:0:
248,192,139925,1,8,0:0:0:0:
248,200,140014,1,0,0:0:0:0:
264,224,140102,1,8,0:0:0:0:
248,200,140191,1,0,0:0:0:0:
248,200,140367,1,8,0:0:0:0:
248,200,140544,1,8,0:0:0:0:
264,200,140633,1,0,0:0:0:0:
248,200,140809,1,0,0:0:0:0:
272,192,140898,1,8,0:0:0:0:
276,184,141074,1,0,0:0:0:0:
248,192,141251,1,8,0:0:0:0:
244,204,141428,1,0,0:0:0:0:
244,204,141605,1,0,0:0:0:0:
264,200,141781,1,0,0:0:0:0:
224,192,141958,1,0,0:0:0:0:
224,192,142046,1,0,0:0:0:0:
224,192,142135,1,8,0:0:0:0:
224,192,142311,1,0,0:0:0:0:
224,192,142400,1,8,0:0:0:0:
224,192,142488,1,0,0:0:0:0:
224,192,142665,1,0,0:0:0:0:
224,192,142753,1,0,0:0:0:0:
224,192,142842,1,8,0:0:0:0:
224,192,143019,1,0,0:0:0:0:
224,192,143107,1,8,0:0:0:0:
224,192,143195,1,0,0:0:0:0:
224,192,143372,1,0,0:0:0:0:
224,192,143461,1,0,0:0:0:0:
224,192,143549,1,8,0:0:0:0:
224,192,143726,1,0,0:0:0:0:
224,192,143814,1,8,0:0:0:0:
224,192,143903,1,0,0:0:0:0:
224,192,143991,1,0,0:0:0:0:
224,192,144079,1,0,0:0:0:0:
224,192,144256,1,8,0:0:0:0:
224,192,144433,1,0,0:0:0:0:
176,212,144610,1,0,0:0:0:0:
236,264,144698,1,0,0:0:0:0:
236,264,144786,1,8,0:0:0:0:
236,264,144963,1,0,0:0:0:0:
236,264,145140,1,8,0:0:0:0:
236,264,145228,1,8,0:0:0:0:
236,264,145317,1,0,0:0:0:0:
236,264,145494,1,8,0:0:0:0:
236,264,145670,1,0,0:0:0:0:
236,264,145847,1,8,0:0:0:0:
196,212,145936,1,8,0:0:0:0:
236,264,146024,1,0,0:0:0:0:
236,264,146378,1,0,0:0:0:0:
236,264,146554,1,8,0:0:0:0:
236,264,146643,1,8,0:0:0:0:
236,264,146731,1,0,0:0:0:0:
236,264,146908,1,8,0:0:0:0:
236,264,147085,1,0,0:0:0:0:
236,264,147262,1,8,0:0:0:0:
236,264,147615,1,8,0:0:0:0:
236,264,147792,1,0,0:0:0:0:
236,264,147969,1,8,0:0:0:0:
236,264,148057,1,8,0:0:0:0:
236,264,148146,1,0,0:0:0:0:
236,264,148322,1,8,0:0:0:0:
240,216,148499,1,0,0:0:0:0:
240,216,148676,1,8,0:0:0:0:
240,216,148853,1,0,0:0:0:0:
240,216,148941,1,0,0:0:0:0:
240,216,149030,1,8,0:0:0:0:
240,216,149206,1,0,0:0:0:0:
264,232,149383,1,8,0:0:0:0:
252,240,149472,1,8,0:0:0:0:
264,232,149560,1,0,0:0:0:0:
264,232,149737,1,8,0:0:0:0:
264,232,149914,1,0,0:0:0:0:
264,232,150090,1,8,0:0:0:0:
264,232,150267,1,0,0:0:0:0:
264,232,150621,1,0,0:0:0:0:
264,232,150798,1,8,0:0:0:0:
264,232,150974,1,0,0:0:0:0:
264,232,151063,1,0,0:0:0:0:
264,232,151151,1,8,0:0:0:0:
264,232,151328,1,0,0:0:0:0:
264,232,151505,1,8,0:0:0:0:
264,232,151593,1,8,0:0:0:0:
264,232,151682,1,0,0:0:0:0:
264,232,152035,1,0,0:0:0:0:
268,224,152212,1,8,0:0:0:0:
268,224,152301,1,8,0:0:0:0:
264,232,152389,1,0,0:0:0:0:
264,232,152566,1,8,0:0:0:0:
264,232,152742,1,0,0:0:0:0:
272,224,152920,1,8,0:0:0:0:
272,224,153008,1,8,0:0:0:0:
292,236,153097,1,0,0:0:0:0:
264,232,153273,1,8,0:0:0:0:
252,220,153450,1,0,0:0:0:0:
256,208,153538,1,0,0:0:0:0:
264,232,153627,1,8,0:0:0:0:
264,232,153803,1,0,0:0:0:0:
292,236,153980,1,8,0:0:0:0:
268,228,154069,1,8,0:0:0:0:
264,232,154157,1,0,0:0:0:0:
292,236,154334,1,8,0:0:0:0:
260,216,154511,1,4,0:0:0:0:
248,208,155218,1,0,0:0:0:0:
252,216,155307,1,0,0:0:0:0:
252,216,155395,1,0,0:0:0:0:
252,216,155572,1,0,0:0:0:0:
252,216,155749,1,0,0:0:0:0:
252,216,155925,1,0,0:0:0:0:
252,216,156279,1,0,0:0:0:0:
252,216,156633,1,0,0:0:0:0:
252,216,156721,1,0,0:0:0:0:
252,216,156810,1,0,0:0:0:0:
252,216,156986,1,0,0:0:0:0:
252,216,157163,1,0,0:0:0:0:
264,192,157340,1,8,0:0:0:0:
264,192,157517,1,8,0:0:0:0:
264,192,157606,1,0,0:0:0:0:
264,192,157782,1,0,0:0:0:0:
264,192,157871,1,8,0:0:0:0:
264,192,157959,1,0,0:0:0:0:
264,192,158048,1,8,0:0:0:0:
276,188,158136,1,8,0:0:0:0:
264,192,158224,1,0,0:0:0:0:
264,192,158401,1,8,0:0:0:0:
264,192,158578,1,0,0:0:0:0:
264,192,158754,1,8,0:0:0:0:
264,192,158932,1,8,0:0:0:0:
264,192,159020,1,0,0:0:0:0:
264,192,159197,1,0,0:0:0:0:
264,192,159285,1,8,0:0:0:0:
264,192,159374,1,0,0:0:0:0:
264,192,159462,1,8,0:0:0:0:
264,192,159639,1,0,0:0:0:0:
268,192,159727,1,0,0:0:0:0:
264,192,159816,1,8,0:0:0:0:
256,176,159992,1,0,0:0:0:0:
256,176,160169,1,8,0:0:0:0:
256,176,160346,1,8,0:0:0:0:
256,176,160434,1,0,0:0:0:0:
256,176,160611,1,0,0:0:0:0:
256,176,160700,1,8,0:0:0:0:
256,176,160788,1,0,0:0:0:0:
256,176,160876,1,8,0:0:0:0:
256,180,161053,1,0,0:0:0:0:
264,176,161141,1,0,0:0:0:0:
268,192,161230,1,8,0:0:0:0:
256,192,161406,1,0,0:0:0:0:
256,176,161584,1,8,0:0:0:0:
256,176,161760,1,8,0:0:0:0:
256,176,161849,1,0,0:0:0:0:
256,176,162026,1,0,0:0:0:0:
256,176,162114,1,8,0:0:0:0:
256,176,162202,1,0,0:0:0:0:
256,176,162291,1,8,0:0:0:0:
272,188,162379,1,0,0:0:0:0:
256,176,162468,1,0,0:0:0:0:
256,176,162644,1,8,0:0:0:0:
252,180,162821,5,0,0:0:0:0:
256,176,162998,1,8,0:0:0:0:
256,176,163175,1,8,0:0:0:0:
256,176,163263,1,0,0:0:0:0:
256,176,163440,1,0,0:0:0:0:
256,176,163529,1,8,0:0:0:0:
256,176,163617,1,0,0:0:0:0:
256,176,163705,1,8,0:0:0:0:
268,192,163793,1,8,0:0:0:0:
256,176,163882,1,0,0:0:0:0:
256,176,164059,1,8,0:0:0:0:
256,176,164236,1,0,0:0:0:0:
256,176,164413,1,8,0:0:0:0:
256,176,164589,1,8,0:0:0:0:
256,176,164678,1,0,0:0:0:0:
256,176,164855,1,0,0:0:0:0:
256,176,164943,1,8,0:0:0:0:
256,176,165031,1,0,0:0:0:0:
256,176,165120,1,8,0:0:0:0:
256,176,165297,1,0,0:0:0:0:
256,176,165384,1,0,0:0:0:0:
264,184,165473,1,8,0:0:0:0:
272,192,165650,1,0,0:0:0:0:
272,192,165827,1,8,0:0:0:0:
256,176,166004,1,8,0:0:0:0:
256,176,166092,1,0,0:0:0:0:
256,176,166269,1,0,0:0:0:0:
256,176,166357,1,8,0:0:0:0:
240,188,166446,1,0,0:0:0:0:
272,192,166534,1,8,0:0:0:0:
256,176,166711,1,0,0:0:0:0:
272,192,166887,1,8,0:0:0:0:
256,176,167064,1,0,0:0:0:0:
272,192,167153,1,0,0:0:0:0:
256,176,167241,1,8,0:0:0:0:
256,176,167418,1,8,0:0:0:0:
256,176,167507,1,0,0:0:0:0:
256,176,167683,1,0,0:0:0:0:
256,176,167772,1,8,0:0:0:0:
256,176,167860,1,0,0:0:0:0:
256,176,167949,1,8,0:0:0:0:
268,192,168125,1,0,0:0:0:0:
256,176,168302,1,8,0:0:0:0:
264,192,168655,1,8,0:0:0:0:
264,192,168832,1,8,0:0:0:0:
264,192,168921,1,0,0:0:0:0:
264,192,169097,1,0,0:0:0:0:
264,192,169186,1,8,0:0:0:0:
264,192,169274,1,0,0:0:0:0:
264,192,169363,1,8,0:0:0:0:
276,188,169451,1,8,0:0:0:0:
264,192,169539,1,0,0:0:0:0:
264,192,169716,1,8,0:0:0:0:
264,192,169893,1,0,0:0:0:0:
264,192,170069,1,8,0:0:0:0:
264,192,170247,1,8,0:0:0:0:
264,192,170335,1,0,0:0:0:0:
264,192,170512,1,0,0:0:0:0:
264,192,170600,1,8,0:0:0:0:
264,192,170689,1,0,0:0:0:0:
264,192,170777,1,8,0:0:0:0:
264,192,170954,1,0,0:0:0:0:
268,192,171042,1,0,0:0:0:0:
264,192,171131,1,8,0:0:0:0:
256,176,171307,1,0,0:0:0:0:
256,176,171484,1,8,0:0:0:0:
256,176,171661,1,8,0:0:0:0:
256,176,171749,1,0,0:0:0:0:
256,176,171926,1,0,0:0:0:0:
256,176,172015,1,8,0:0:0:0:
256,176,172103,1,0,0:0:0:0:
256,176,172191,1,8,0:0:0:0:
256,176,172368,1,0,0:0:0:0:
232,180,172457,1,0,0:0:0:0:
240,168,172545,1,8,0:0:0:0:
256,192,172721,1,0,0:0:0:0:
256,176,172899,1,8,0:0:0:0:
256,176,173075,1,8,0:0:0:0:
256,176,173164,1,0,0:0:0:0:
256,176,173341,1,0,0:0:0:0:
256,176,173429,1,8,0:0:0:0:
256,176,173517,1,0,0:0:0:0:
256,176,173606,1,8,0:0:0:0:
272,188,173694,1,0,0:0:0:0:
256,176,173783,1,0,0:0:0:0:
256,176,173959,1,8,0:0:0:0:
264,184,174136,1,0,0:0:0:0:
256,176,174313,1,8,0:0:0:0:
256,176,174490,1,8,0:0:0:0:
256,176,174578,1,0,0:0:0:0:
256,176,174755,1,0,0:0:0:0:
256,176,174844,1,8,0:0:0:0:
256,176,174932,1,0,0:0:0:0:
256,176,175020,1,8,0:0:0:0:
268,192,175108,1,8,0:0:0:0:
256,176,175197,1,0,0:0:0:0:
256,176,175374,1,8,0:0:0:0:
256,176,175551,1,0,0:0:0:0:
256,176,175728,1,8,0:0:0:0:
256,176,175904,1,8,0:0:0:0:
256,176,175993,1,0,0:0:0:0:
256,176,176170,1,0,0:0:0:0:
256,176,176258,1,8,0:0:0:0:
256,176,176346,1,0,0:0:0:0:
256,176,176435,1,8,0:0:0:0:
256,176,176612,1,0,0:0:0:0:
256,176,176700,1,0,0:0:0:0:
264,184,176788,1,8,0:0:0:0:
272,192,176965,1,0,0:0:0:0:
272,192,177142,1,8,0:0:0:0:
256,176,177319,1,8,0:0:0:0:
256,176,177407,1,0,0:0:0:0:
256,176,177584,1,0,0:0:0:0:
256,176,177672,1,8,0:0:0:0:
240,188,177761,1,0,0:0:0:0:
272,192,177849,1,8,0:0:0:0:
256,176,178026,1,0,0:0:0:0:
248,192,178114,1,0,0:0:0:0:
256,176,178203,1,8,0:0:0:0:
256,176,178379,1,0,0:0:0:0:
256,176,178556,1,8,0:0:0:0:
256,176,178733,1,8,0:0:0:0:
256,176,178822,1,0,0:0:0:0:
256,176,178998,1,0,0:0:0:0:
256,176,179087,1,8,0:0:0:0:
256,176,179175,1,0,0:0:0:0:
256,176,179264,1,8,0:0:0:0:
256,176,179352,1,8,0:0:0:0:
268,192,179440,1,8,0:0:0:0:
256,176,179617,1,0,0:0:0:0:
256,176,179794,1,8,0:0:0:0:
252,200,179971,1,0,0:0:0:0:
252,200,180324,1,0,0:0:0:0:
252,200,180678,1,8,0:0:0:0:
252,200,180855,1,0,0:0:0:0:
252,200,181032,1,8,0:0:0:0:
252,200,181208,1,8,0:0:0:0:
252,200,181385,1,8,0:0:0:0:
252,200,181739,1,0,0:0:0:0:
252,200,182092,1,8,0:0:0:0:
252,200,182269,1,0,0:0:0:0:
252,200,182446,1,8,0:0:0:0:
252,200,182800,1,0,0:0:0:0:
252,200,183153,1,0,0:0:0:0:
252,200,183507,1,8,0:0:0:0:
252,200,183684,1,0,0:0:0:0:
252,200,183860,1,8,0:0:0:0:
252,200,184037,1,8,0:0:0:0:
252,200,184214,1,0,0:0:0:0:
248,112,184568,1,0,0:0:0:0:
272,192,184921,1,8,0:0:0:0:
272,192,185098,1,8,0:0:0:0:
272,192,185275,1,0,0:0:0:0:
272,192,185452,1,0,0:0:0:0:
256,188,185628,1,8,0:0:0:0:
256,188,185982,1,0,0:0:0:0:
256,188,186336,1,8,0:0:0:0:
256,188,186512,1,0,0:0:0:0:
256,188,186689,1,8,0:0:0:0:
256,188,186866,1,0,0:0:0:0:
256,188,187043,1,8,0:0:0:0:
256,188,187396,1,0,0:0:0:0:
256,188,187750,1,8,0:0:0:0:
256,188,187927,1,0,0:0:0:0:
256,188,188104,1,8,0:0:0:0:
252,192,188281,1,0,0:0:0:0:
256,188,188457,1,0,0:0:0:0:
256,188,188811,1,0,0:0:0:0:
236,192,189165,1,8,0:0:0:0:
256,188,189518,1,0,0:0:0:0:
236,192,189872,1,8,0:0:0:0:
256,188,190225,1,0,0:0:0:0:
236,192,190579,1,8,0:0:0:0:
256,188,190756,1,0,0:0:0:0:
236,192,190933,1,8,0:0:0:0:
264,216,191286,1,8,0:0:0:0:
252,204,191463,1,8,0:0:0:0:
252,204,191551,1,0,0:0:0:0:
252,204,191816,1,8,0:0:0:0:
252,204,192170,1,8,0:0:0:0:
252,204,192347,1,0,0:0:0:0:
252,204,192523,1,0,0:0:0:0:
252,204,192700,1,8,0:0:0:0:
252,204,192877,1,0,0:0:0:0:
252,204,192965,1,8,0:0:0:0:
252,204,193231,1,0,0:0:0:0:
252,204,193584,1,8,0:0:0:0:
252,204,193761,1,0,0:0:0:0:
252,204,193938,1,8,0:0:0:0:
252,204,194115,1,0,0:0:0:0:
252,204,194291,1,8,0:0:0:0:
252,204,194380,1,0,0:0:0:0:
252,204,194645,1,8,0:0:0:0:
252,204,194999,1,8,0:0:0:0:
252,204,195175,1,0,0:0:0:0:
252,204,195352,1,0,0:0:0:0:
252,204,195529,1,8,0:0:0:0:
252,204,195706,1,0,0:0:0:0:
252,204,195794,1,8,0:0:0:0:
252,204,196059,1,0,0:0:0:0:
252,204,196413,1,8,0:0:0:0:
252,204,196590,1,0,0:0:0:0:
252,204,196767,1,0,0:0:0:0:
252,204,196943,1,8,0:0:0:0:
252,204,197120,1,8,0:0:0:0:
252,204,197209,1,0,0:0:0:0:
252,204,197474,1,8,0:0:0:0:
252,204,197651,1,0,0:0:0:0:
252,204,197827,1,8,0:0:0:0:
252,204,197916,1,8,0:0:0:0:
252,204,198004,1,0,0:0:0:0:
252,204,198181,1,0,0:0:0:0:
252,204,198358,1,8,0:0:0:0:
252,216,198535,1,0,0:0:0:0:
252,216,198624,1,8,0:0:0:0:
252,216,198888,1,0,0:0:0:0:
252,216,199065,1,0,0:0:0:0:
252,216,199242,1,8,0:0:0:0:
212,124,199330,1,8,0:0:0:0:
252,216,199419,1,0,0:0:0:0:
252,216,199596,1,8,0:0:0:0:
252,216,199772,1,0,0:0:0:0:
212,124,199949,1,0,0:0:0:0:
252,216,200038,1,8,0:0:0:0:
252,216,200303,1,0,0:0:0:0:
252,216,200480,1,0,0:0:0:0:
252,216,200656,1,8,0:0:0:0:
212,112,200745,1,8,0:0:0:0:
252,216,200833,1,0,0:0:0:0:
252,216,201010,1,8,0:0:0:0:
272,192,201187,1,4,0:0:0:0:
168,188,201894,1,0,0:0:0:0:
168,188,201983,1,0,0:0:0:0:
168,188,202071,1,0,0:0:0:0:
168,188,202248,1,0,0:0:0:0:
168,188,202425,1,0,0:0:0:0:
256,192,204016,1,8,0:0:0:0:
256,192,204193,1,8,0:0:0:0:
256,192,204281,1,0,0:0:0:0:
256,192,204458,1,0,0:0:0:0:
256,192,204546,1,8,0:0:0:0:
256,192,204635,1,8,0:0:0:0:
256,192,204723,1,0,0:0:0:0:
256,192,204900,1,8,0:0:0:0:
256,192,204988,1,8,0:0:0:0:
256,192,205077,1,0,0:0:0:0:
256,192,205254,1,0,0:0:0:0:
256,192,205430,1,8,0:0:0:0:
256,192,205607,1,0,0:0:0:0:
256,192,205696,1,8,0:0:0:0:
256,192,205872,1,0,0:0:0:0:
256,192,205961,1,8,0:0:0:0:
256,192,206049,1,0,0:0:0:0:
256,192,206138,1,8,0:0:0:0:
256,192,206314,1,8,0:0:0:0:
256,192,206403,1,8,0:0:0:0:
256,192,206491,1,0,0:0:0:0:
256,192,206668,1,8,0:0:0:0:
256,192,206845,1,0,0:0:0:0:
260,192,207022,1,0,0:0:0:0:
260,192,207110,1,8,0:0:0:0:
260,192,207198,1,0,0:0:0:0:
260,192,207287,1,0,0:0:0:0:
260,192,207375,1,8,0:0:0:0:
264,192,207552,1,0,0:0:0:0:
264,192,207729,1,8,0:0:0:0:
264,192,207817,1,8,0:0:0:0:
260,192,207906,1,0,0:0:0:0:
240,168,207994,1,0,0:0:0:0:
264,192,208082,1,8,0:0:0:0:
260,192,208259,1,8,0:0:0:0:
260,192,208436,1,0,0:0:0:0:
264,192,208524,1,8,0:0:0:0:
264,192,208701,1,0,0:0:0:0:
264,192,208790,1,8,0:0:0:0:
272,192,208878,1,0,0:0:0:0:
264,192,208967,1,8,0:0:0:0:
272,192,209143,1,8,0:0:0:0:
272,192,209232,1,8,0:0:0:0:
272,192,209320,1,0,0:0:0:0:
272,192,209497,1,0,0:0:0:0:
272,192,209674,1,8,0:0:0:0:
272,192,209851,1,0,0:0:0:0:
272,192,209939,1,8,0:0:0:0:
272,192,210116,1,0,0:0:0:0:
272,192,210204,1,8,0:0:0:0:
272,192,210293,1,8,0:0:0:0:
276,192,210381,1,0,0:0:0:0:
276,192,210558,1,8,0:0:0:0:
276,192,210646,1,8,0:0:0:0:
276,192,210735,1,0,0:0:0:0:
284,188,210911,1,0,0:0:0:0:
284,188,211088,1,8,0:0:0:0:
284,188,211265,1,0,0:0:0:0:
284,188,211353,1,8,0:0:0:0:
284,188,211530,1,0,0:0:0:0:
284,188,211619,1,8,0:0:0:0:
284,188,211707,1,0,0:0:0:0:
284,188,211795,1,8,0:0:0:0:
228,188,211972,1,8,0:0:0:0:
228,188,212060,1,8,0:0:0:0:
228,188,212149,1,0,0:0:0:0:
284,188,212326,1,8,0:0:0:0:
284,188,212503,1,0,0:0:0:0:
284,188,212679,1,0,0:0:0:0:
284,188,212768,1,0,0:0:0:0:
284,188,212856,1,8,0:0:0:0:
284,188,212945,1,0,0:0:0:0:
284,188,213033,1,8,0:0:0:0:
284,188,213210,1,0,0:0:0:0:
284,188,213387,1,8,0:0:0:0:
284,188,213475,1,8,0:0:0:0:
284,188,213563,1,0,0:0:0:0:
228,168,213652,1,0,0:0:0:0:
280,184,213740,1,8,0:0:0:0:
284,188,213917,1,0,0:0:0:0:
284,188,214094,1,8,0:0:0:0:
284,188,214182,1,0,0:0:0:0:
284,188,214359,1,0,0:0:0:0:
284,188,214447,1,8,0:0:0:0:
284,188,214624,1,0,0:0:0:0:
284,188,214713,1,0,0:0:0:0:
284,188,214801,1,0,0:0:0:0:
284,188,214978,1,0,0:0:0:0:
284,184,215155,1,0,0:0:0:0:
284,184,215331,1,8,0:0:0:0:
284,188,215508,1,8,0:0:0:0:
284,188,215597,1,0,0:0:0:0:
288,204,215773,1,0,0:0:0:0:
284,188,215862,1,8,0:0:0:0:
284,188,215950,1,0,0:0:0:0:
288,204,216039,1,8,0:0:0:0:
280,188,216215,1,0,0:0:0:0:
280,188,216304,1,0,0:0:0:0:
280,188,216392,1,8,0:0:0:0:
284,188,216569,1,0,0:0:0:0:
284,188,216746,1,8,0:0:0:0:
284,188,216923,1,8,0:0:0:0:
284,188,217011,1,0,0:0:0:0:
288,188,217188,1,0,0:0:0:0:
288,188,217276,1,8,0:0:0:0:
288,188,217365,1,0,0:0:0:0:
284,188,217453,1,8,0:0:0:0:
284,188,217541,1,8,0:0:0:0:
284,188,217630,1,0,0:0:0:0:
284,188,217807,1,8,0:0:0:0:
284,188,217983,1,0,0:0:0:0:
288,188,218072,1,8,0:0:0:0:
220,84,218160,1,0,0:0:0:0:
288,188,218337,1,8,0:0:0:0:
288,188,218425,1,0,0:0:0:0:
284,188,218602,1,0,0:0:0:0:
284,188,218691,1,8,0:0:0:0:
284,188,218779,1,0,0:0:0:0:
284,188,218867,1,8,0:0:0:0:
284,188,219044,1,0,0:0:0:0:
238,148,219133,1,0,0:0:0:0:
288,188,219221,1,8,0:0:0:0:
288,188,219398,1,0,0:0:0:0:
284,188,219575,1,8,0:0:0:0:
284,188,219752,1,8,0:0:0:0:
284,188,219840,1,0,0:0:0:0:
284,188,220017,1,0,0:0:0:0:
284,188,220105,1,8,0:0:0:0:
288,188,220194,1,0,0:0:0:0:
288,188,220282,1,8,0:0:0:0:
288,188,220459,1,0,0:0:0:0:
284,188,220636,1,8,0:0:0:0:
284,188,220812,1,0,0:0:0:0:
284,188,220989,1,8,0:0:0:0:
284,188,221166,1,8,0:0:0:0:
288,188,221254,1,0,0:0:0:0:
288,188,221431,1,0,0:0:0:0:
288,188,221520,1,8,0:0:0:0:
284,188,221608,1,0,0:0:0:0:
284,188,221696,1,8,0:0:0:0:
272,192,221785,1,8,0:0:0:0:
284,188,221873,1,0,0:0:0:0:
284,188,222050,1,8,0:0:0:0:
284,188,222227,1,0,0:0:0:0:
270,196,222315,1,0,0:0:0:0:
288,188,222404,1,8,0:0:0:0:
284,188,222580,1,8,0:0:0:0:
284,188,222669,1,0,0:0:0:0:
284,188,222846,1,0,0:0:0:0:
284,188,222934,1,8,0:0:0:0:
284,188,223022,1,0,0:0:0:0:
284,188,223111,1,8,0:0:0:0:
288,188,223288,1,0,0:0:0:0:
288,188,223376,1,0,0:0:0:0:
284,188,223464,1,8,0:0:0:0:
284,188,223641,1,0,0:0:0:0:
268,180,223730,1,8,0:0:0:0:
284,188,223818,1,0,0:0:0:0:
284,188,223995,1,8,0:0:0:0:
284,188,224083,1,0,0:0:0:0:
288,188,224260,1,0,0:0:0:0:
288,188,224348,1,8,0:0:0:0:
284,188,224437,1,0,0:0:0:0:
284,188,224525,1,8,0:0:0:0:
284,188,224702,1,0,0:0:0:0:
263,195,224790,1,0,0:0:0:0:
284,188,224879,1,8,0:0:0:0:
284,188,225056,1,0,0:0:0:0:
288,188,225232,1,8,0:0:0:0:
276,192,225409,1,8,0:0:0:0:
284,188,225498,1,0,0:0:0:0:
284,188,225674,1,0,0:0:0:0:
284,188,225763,1,8,0:0:0:0:
284,188,225851,1,0,0:0:0:0:
284,188,225940,1,8,0:0:0:0:
287,184,226028,1,8,0:0:0:0:
284,188,226116,1,0,0:0:0:0:
288,188,226205,1,0,0:0:0:0:
288,188,226293,1,8,0:0:0:0:
284,188,226470,1,0,0:0:0:0:
260,196,226558,1,0,0:0:0:0:
284,188,226647,1,8,0:0:0:0:
292,200,226824,1,8,0:0:0:0:
260,188,226912,1,0,0:0:0:0:
288,180,227089,1,0,0:0:0:0:
284,188,227177,1,8,0:0:0:0:
288,188,227266,1,0,0:0:0:0:
284,188,227354,1,8,0:0:0:0:
284,188,227531,1,0,0:0:0:0:
284,188,227708,1,8,0:0:0:0:
284,188,227796,1,8,0:0:0:0:
284,188,227884,1,0,0:0:0:0:
284,188,227973,1,0,0:0:0:0:
284,188,228061,1,8,0:0:0:0:
268,204,228238,1,8,0:0:0:0:
268,180,228326,1,0,0:0:0:0:
264,196,228503,1,0,0:0:0:0:
284,188,228592,1,8,0:0:0:0:
284,188,228680,1,0,0:0:0:0:
284,188,228768,1,8,0:0:0:0:
284,188,228945,1,0,0:0:0:0:
262,190,229034,1,0,0:0:0:0:
284,188,229122,1,8,0:0:0:0:
328,192,229210,1,8,0:0:0:0:
284,188,229299,1,0,0:0:0:0:
284,188,229476,1,8,0:0:0:0:
320,188,229653,1,8,0:0:0:0:
336,204,229741,1,0,0:0:0:0:
284,184,229918,1,0,0:0:0:0:
284,188,230006,1,8,0:0:0:0:
288,188,230095,1,0,0:0:0:0:
284,188,230183,1,8,0:0:0:0:
284,188,230360,1,0,0:0:0:0:
284,188,230537,1,8,0:0:0:0:
284,188,230625,1,0,0:0:0:0:
284,188,230713,1,0,0:0:0:0:
284,188,230802,1,0,0:0:0:0:
284,188,230890,1,8,0:0:0:0:
272,192,231067,1,8,0:0:0:0:
268,180,231155,1,0,0:0:0:0:
268,192,231332,1,0,0:0:0:0:
276,192,231421,1,8,0:0:0:0:
284,188,231509,1,0,0:0:0:0:
284,188,231597,1,8,0:0:0:0:
284,188,231774,1,0,0:0:0:0:
262,190,231863,1,0,0:0:0:0:
284,188,231951,1,8,0:0:0:0:
256,168,232039,1,8,0:0:0:0:
284,188,232128,1,0,0:0:0:0:
284,188,232305,1,8,0:0:0:0:
296,200,232481,1,8,0:0:0:0:
296,200,232570,1,0,0:0:0:0:
296,200,232747,1,0,0:0:0:0:
296,200,232835,1,8,0:0:0:0:
296,200,232923,1,0,0:0:0:0:
296,200,233012,1,8,0:0:0:0:
296,200,233189,1,0,0:0:0:0:
296,200,233365,1,8,0:0:0:0:
296,200,233542,1,0,0:0:0:0:
296,200,233719,1,8,0:0:0:0:
296,200,233896,1,8,0:0:0:0:
296,200,233984,1,0,0:0:0:0:
296,200,234161,1,0,0:0:0:0:
296,200,234249,1,8,0:0:0:0:
296,200,234338,1,0,0:0:0:0:
296,200,234426,1,8,0:0:0:0:
296,200,234603,1,0,0:0:0:0:
296,200,234780,1,8,0:0:0:0:
296,200,234957,1,0,0:0:0:0:
296,200,235133,1,8,0:0:0:0:
296,200,235310,1,8,0:0:0:0:
296,200,235399,1,0,0:0:0:0:
296,200,235575,1,0,0:0:0:0:
296,200,235664,1,8,0:0:0:0:
296,200,235752,1,0,0:0:0:0:
296,200,235841,1,8,0:0:0:0:
296,200,236017,1,0,0:0:0:0:
296,200,236194,1,8,0:0:0:0:
296,200,236371,1,0,0:0:0:0:
296,200,236548,1,8,0:0:0:0:
296,200,236725,1,8,0:0:0:0:
296,200,236813,1,0,0:0:0:0:
296,200,236990,1,0,0:0:0:0:
296,200,237078,1,8,0:0:0:0:
296,200,237167,1,0,0:0:0:0:
296,200,237255,1,8,0:0:0:0:
296,200,237432,1,0,0:0:0:0:
296,200,237609,1,8,0:0:0:0:
296,200,237785,1,0,0:0:0:0:
296,200,237962,1,4,0:0:0:0:
256,192,238051,8,8,239907,0:0:0:0:
