osu file format v14

[General]
AudioFilename: audio.mp3
AudioLeadIn: 0
PreviewTime: 38298
Countdown: 1
SampleSet: None
StackLeniency: 0.7
Mode: 0
LetterboxInBreaks: 0
WidescreenStoryboard: 1

[Editor]
Bookmarks: 11298,12898,62498,64098,67298
DistanceSpacing: 1
BeatDivisor: 4
GridSize: 4
TimelineZoom: 1

[Metadata]
Title:Cut My Hair (feat. Cavetown)
TitleUnicode:Cut My Hair (feat. Cavetown)
Artist:Mounika.
ArtistUnicode:Mounika.
Creator:-Space-
Version:easy.
Source:
Tags:lofi chill vapor relax 90 vaporwave chillstep
BeatmapID:1777142
BeatmapSetID:849944

[Difficulty]
HPDrainRate:3
CircleSize:2.5
OverallDifficulty:2
ApproachRate:3
SliderMultiplier:1
SliderTickRate:1

[Events]
//Background and Video events
0,0,"bg1001.png",0,0
//Break Periods
//Storyboard Layer 0 (Background)
//Storyboard Layer 1 (Fail)
//Storyboard Layer 2 (Pass)
//Storyboard Layer 3 (Foreground)
//Storyboard Sound Samples

[TimingPoints]
98,800,4,2,1,15,1,0
11298,-100,4,2,1,5,0,0
12498,-100,4,2,1,10,0,0
12698,-100,4,2,1,20,0,0
12898,-100,4,2,1,30,0,0
22498,-100,4,2,1,15,0,0
25298,-100,4,2,1,22,0,0
25698,-100,4,2,1,30,0,0
35298,-100,4,2,1,15,0,0
36898,-100,4,2,1,5,0,0
38498,-100,4,2,1,30,0,1
43498,-100,4,2,1,30,0,0
44898,-100,4,2,1,30,0,1
49498,-100,4,2,1,30,0,0
51298,-100,4,2,1,30,0,1
56298,-100,4,2,1,30,0,0
64098,-100,4,2,1,20,0,0
67298,-100,4,2,1,30,0,0
73698,-100,4,2,1,15,0,0
76898,-100,4,2,1,30,0,0
86498,-100,4,2,1,15,0,0
88098,-100,4,2,1,5,0,0
89698,-100,4,2,1,30,0,1
94698,-100,4,2,1,30,0,0
96098,-100,4,2,1,30,0,1
100698,-100,4,2,1,30,0,0
102498,-100,4,2,1,30,0,1
107498,-100,4,2,1,30,0,0
115298,-100,4,2,1,15,0,0

[Colours]
Combo1 : 239,236,171
Combo2 : 255,145,224
Combo3 : 150,201,216
Combo4 : 191,233,167

[HitObjects]
256,192,11298,12,0,12898,0:0:0:0:
400,136,14498,6,0,L|288:116,1,100,2|0,0:0|0:0,0:0:0:0:
208,148,16098,5,2,0:0:0:0:
176,244,16898,1,0,0:0:0:0:
248,316,17698,2,0,P|336:308|360:292,1,100,2|0,0:0|0:0,0:0:0:0:
392,216,19298,5,0,0:0:0:0:
324,144,20098,2,0,P|284:140|216:168,2,100,2|0|0,0:0|0:0|0:0,0:0:0:0:
348,48,22498,6,0,B|396:60|428:104|440:168|392:212|392:212|448:216|448:216|484:248|484:248|500:224|508:160,1,400,0|2,0:0|0:0,0:0:0:0:
492,64,26498,5,8,0:0:0:0:
412,124,27298,1,0,0:0:0:0:
460,212,28098,1,0,0:0:0:0:
392,284,28898,6,0,P|342:286|293:274,1,100,2|0,0:0|0:0,0:0:0:0:
196,260,30498,2,0,P|146:262|97:250,1,100,2|0,0:0|0:0,0:0:0:0:
12,200,32098,5,2,0:0:0:0:
52,108,32898,1,0,0:0:0:0:
144,68,33698,2,0,B|200:60|236:96|236:96|248:72|280:60,1,150,2|0,0:0|0:0,0:0:0:0:
256,192,35298,12,0,38498,0:0:0:0:
256,192,40098,5,2,0:0:0:0:
256,192,41698,5,2,0:0:0:0:
340,248,42498,1,0,0:0:0:0:
344,148,43298,2,0,P|296:104|168:144,1,200,2|2,0:0|0:0,0:0:0:0:
175,133,46498,5,2,0:0:0:0:
175,133,48098,5,2,0:0:0:0:
264,92,48898,1,0,0:0:0:0:
344,152,49698,2,0,B|372:208|348:252|348:252|320:300|352:356,1,200,2|2,0:0|0:0,0:0:0:0:
345,343,52898,5,2,0:0:0:0:
252,308,53698,1,0,0:0:0:0:
160,348,54498,2,0,P|104:292|100:260,1,100,2|0,0:0|0:0,0:0:0:0:
164,196,56098,6,0,B|216:180|256:208|256:208|248:144|288:108,1,200,2|2,0:0|0:0,0:0:0:0:
352,184,58498,5,0,0:0:0:0:
256,208,59298,2,0,P|216:192|152:200,1,100,2|0,0:0|0:0,0:0:0:0:
196,288,60898,6,0,P|236:304|300:296,2,100,2|0|2,0:0|0:0|0:0,0:0:0:0:
160,196,63298,1,0,0:0:0:0:
216,116,64098,5,2,0:0:0:0:
216,116,65698,1,2,0:0:0:0:
216,116,67298,6,0,L|204:224,1,100,2|0,0:0|0:0,0:0:0:0:
304,192,68898,2,0,L|315:291,1,100,2|0,0:0|0:0,0:0:0:0:
396,232,70498,5,2,0:0:0:0:
304,192,71298,1,0,0:0:0:0:
208,172,72098,2,0,P|224:128|280:96,1,100,2|0,0:0|0:0,0:0:0:0:
364,112,73698,6,0,P|408:88|328:24,1,200,2|2,0:0|0:0,0:0:0:0:
266,98,76098,1,0,0:0:0:0:
304,192,76898,6,0,L|292:304,1,100,2|8,0:0|0:0,0:0:0:0:
200,324,78498,2,0,L|212:204,1,100,2|0,0:0|0:0,0:0:0:0:
228,128,80098,5,2,0:0:0:0:
304,192,80898,1,0,0:0:0:0:
404,176,81698,2,0,P|444:132|456:88,1,100,2|0,0:0|0:0,0:0:0:0:
356,88,83298,5,2,0:0:0:0:
308,176,84098,1,0,0:0:0:0:
220,124,84898,2,0,B|120:116|120:116|64:140,1,150,2|0,0:0|0:0,0:0:0:0:
256,192,86498,12,0,89698,0:0:0:0:
256,192,91298,5,2,0:0:0:0:
256,192,92898,1,2,0:0:0:0:
256,292,93698,1,0,0:0:0:0:
172,236,94498,6,0,P|240:192|348:252,1,200,2|2,0:0|0:0,0:0:0:0:
340,237,97698,5,2,0:0:0:0:
340,237,99298,5,2,0:0:0:0:
248,196,100098,1,0,0:0:0:0:
156,236,100898,2,0,B|136:184|168:136|168:136|200:92|176:28,1,200,2|2,0:0|0:0,0:0:0:0:
181,45,104098,5,2,0:0:0:0:
181,45,105698,5,2,0:0:0:0:
240,124,106498,1,0,0:0:0:0:
340,112,107298,2,0,B|336:164|388:196|388:196|372:248|412:296,1,200,2|2,0:0|0:0,0:0:0:0:
484,224,109698,5,0,0:0:0:0:
405,288,110498,2,0,L|293:280,1,100,2|0,0:0|0:0,0:0:0:0:
204,272,112098,5,2,0:0:0:0:
124,332,112898,1,0,0:0:0:0:
52,260,113698,2,0,P|44:216|64:152,2,100,2|0|2,0:0|0:0|0:0,0:0:0:0:
