osu file format v14

[General]
AudioFilename: audio.mp3
AudioLeadIn: 0
PreviewTime: 38298
Countdown: 1
SampleSet: Soft
StackLeniency: 0.7
Mode: 0
LetterboxInBreaks: 0
WidescreenStoryboard: 0

[Editor]
Bookmarks: 11298,12898,62498,64098,67298
DistanceSpacing: 1.4
BeatDivisor: 4
GridSize: 4
TimelineZoom: 1

[Metadata]
Title:Cut My Hair (feat. Cavetown)
TitleUnicode:Cut My Hair (feat. Cavetown)
Artist:Mounika.
ArtistUnicode:Mounika.
Creator:-Space-
Version:drowning in my own curious emotions.
Source:
Tags:lofi chill vapor relax 90 vaporwave chillstep
BeatmapID:1777141
BeatmapSetID:849944

[Difficulty]
HPDrainRate:6
CircleSize:4.5
OverallDifficulty:6
ApproachRate:6
SliderMultiplier:1.6
SliderTickRate:1

[Events]
//Background and Video events
0,0,"bg1001.png",0,0
//Break Periods
//Storyboard Layer 0 (Background)
//Storyboard Layer 1 (Fail)
//Storyboard Layer 2 (Pass)
//Storyboard Layer 3 (Foreground)
//Storyboard Layer 4 (Overlay)
//Storyboard Sound Samples

[TimingPoints]
98,800,4,2,1,15,1,0
11298,-100,4,2,1,5,0,0
12498,-100,4,2,1,10,0,0
12698,-100,4,2,1,20,0,0
12898,-100,4,2,1,30,0,0
22498,-100,4,2,1,15,0,0
25298,-100,4,2,1,22,0,0
25698,-100,4,2,1,30,0,0
26698,-100,4,2,1,5,0,0
26898,-100,4,2,1,30,0,0
27098,-100,4,2,1,5,0,0
27298,-100,4,2,1,30,0,0
35298,-100,4,2,1,15,0,0
36898,-100,4,2,1,5,0,0
38498,-100,4,2,1,30,0,1
43298,-100,4,2,1,5,0,0
43498,-100,4,2,1,30,0,0
43698,-100,4,2,1,5,0,0
43898,-100,4,2,1,30,0,0
44298,-100,4,2,1,5,0,0
44498,-100,4,2,1,30,0,0
44898,-100,4,2,1,30,0,1
49498,-100,4,2,1,30,0,0
51298,-100,4,2,1,30,0,1
56098,-100,4,2,1,5,0,0
56298,-100,4,2,1,30,0,0
56498,-100,4,2,1,5,0,0
56698,-100,4,2,1,30,0,0
57098,-100,4,2,1,5,0,0
57298,-100,4,2,1,30,0,0
64098,-100,4,2,1,20,0,0
67298,-100,4,2,1,30,0,0
77898,-100,4,2,1,5,0,0
78098,-100,4,2,1,30,0,0
78298,-100,4,2,1,5,0,0
78498,-100,4,2,1,30,0,0
86498,-100,4,2,1,15,0,0
88098,-100,4,2,1,5,0,0
89698,-100,4,2,1,30,0,1
94498,-100,4,2,1,5,0,0
94698,-100,4,2,1,30,0,0
94898,-100,4,2,1,5,0,0
95098,-100,4,2,1,30,0,0
95498,-100,4,2,1,5,0,0
95698,-100,4,2,1,30,0,0
96098,-100,4,2,1,30,0,1
100698,-100,4,2,1,30,0,0
102498,-100,4,2,1,30,0,1
107298,-100,4,2,1,5,0,0
107498,-100,4,2,1,30,0,0
107698,-100,4,2,1,5,0,0
107898,-100,4,2,1,30,0,0
108298,-100,4,2,1,5,0,0
108498,-100,4,2,1,30,0,0
115298,-100,4,2,1,15,0,0

[Colours]
Combo1 : 239,236,171
Combo2 : 255,145,224
Combo3 : 150,201,216
Combo4 : 191,233,167

[HitObjects]
256,192,11298,12,2,12898,0:0:0:0:
312,128,13298,5,0,0:0:0:0:
244,204,13698,2,0,L|140:212,1,80
68,172,14498,2,0,P|140:176|176:104,1,160,2|0,0:0|0:0,0:0:0:0:
80,68,15698,1,0,0:0:0:0:
68,172,16098,6,0,B|64:232|64:232|92:272|92:272|88:348,1,160,2|0,0:0|0:0,0:0:0:0:
188,356,17298,1,0,0:0:0:0:
288,324,17698,2,0,P|296:276|288:240,1,80,2|0,0:0|0:0,0:0:0:0:
396,248,18498,2,0,P|384:200|356:164,1,80
272,136,19298,5,2,0:0:0:0:
260,144,20098,1,0,0:0:0:0:
168,188,20498,1,0,0:0:0:0:
68,156,20898,2,0,P|84:124|136:88,1,80,2|0,0:0|0:0,0:0:0:0:
216,60,21698,2,0,L|304:64,1,80
396,92,22498,6,0,B|432:176|360:168|400:252,1,160,2|0,0:0|0:0,0:0:0:0:
236,332,24098,2,0,B|200:248|272:256|232:172,1,160,2|0,0:0|0:0,0:0:0:0:
144,132,25298,1,0,0:0:0:0:
212,52,25698,5,2,0:0:0:0:
296,112,26098,1,0,0:0:0:0:
276,216,26498,2,0,L|328:224,1,40,8|0,0:0|0:0,0:0:0:0:
264,224,26898,2,0,L|316:232,1,40,8|0,0:0|0:0,0:0:0:0:
256,232,27298,1,2,0:0:0:0:
168,276,27698,2,0,P|96:272|68:248,1,80
32,184,28498,1,0,0:0:0:0:
92,100,28898,5,2,0:0:0:0:
100,108,29698,1,0,0:0:0:0:
164,188,30098,1,0,0:0:0:0:
264,156,30498,2,0,L|368:164,1,80,2|0,0:0|0:0,0:0:0:0:
376,260,31298,2,0,L|296:253,1,80
343,162,32098,5,2,0:0:0:0:
332,168,32898,1,0,0:0:0:0:
248,104,33298,1,0,0:0:0:0:
148,136,33698,2,0,P|130:189|150:237,1,80,2|0,0:0|0:0,0:0:0:0:
180,304,34498,2,0,P|183:343|166:379,1,80
256,192,35298,12,2,38498,0:0:0:0:
436,80,39298,6,0,P|404:104|276:76,1,160,0|2,0:0|0:0,0:0:0:0:
120,208,40898,2,0,P|152:232|280:204,1,160,0|2,0:0|0:0,0:0:0:0:
200,136,42098,1,0,0:0:0:0:
96,132,42498,2,0,P|52:168|40:204,1,80,2|0,0:0|0:0,0:0:0:0:
52,208,43098,2,0,L|40:256,1,40,8|0,0:0|0:0,0:0:0:0:
60,228,43498,2,0,L|48:276,1,40,8|0,0:0|0:0,0:0:0:0:
68,248,43898,2,0,L|44:344,1,80,2|0,0:0|0:0,0:0:0:0:
60,348,44498,1,2,0:0:0:0:
156,308,44898,6,0,B|232:280|232:280|328:320,1,160,2|0,0:0|0:0,0:0:0:0:
448,160,46498,2,0,B|372:188|372:188|276:148,1,160,2|0,0:0|0:0,0:0:0:0:
208,104,47698,1,0,0:0:0:0:
108,140,48098,6,0,L|120:240,1,80,2|0,0:0|0:0,0:0:0:0:
208,272,48898,1,0,0:0:0:0:
292,212,49298,1,0,0:0:0:0:
316,232,49498,2,0,P|360:240|416:228,1,80,8|0,0:0|0:0,0:0:0:0:
440,140,50298,2,0,P|396:148|340:136,1,80,2|0,0:0|0:0,0:0:0:0:
336,124,50898,1,2,0:0:0:0:
236,96,51298,6,0,B|200:120|200:164|200:164|152:152|120:188,1,160,2|0,0:0|0:0,0:0:0:0:
252,348,52898,2,0,B|288:324|288:280|288:280|336:292|368:256,1,160,2|0,0:0|0:0,0:0:0:0:
212,284,54098,1,0,0:0:0:0:
312,208,54498,5,2,0:0:0:0:
304,192,55298,2,0,L|216:196,1,80
208,184,55898,2,0,L|132:188,1,40,8|0,0:0|0:0,0:0:0:0:
184,164,56298,2,0,L|108:168,1,40,8|0,0:0|0:0,0:0:0:0:
160,144,56698,2,0,L|72:148,1,80,2|0,0:0|0:0,0:0:0:0:
60,128,57298,1,2,0:0:0:0:
120,40,57698,5,2,0:0:0:0:
128,48,58498,1,0,0:0:0:0:
216,104,58898,1,0,0:0:0:0:
312,64,59298,2,0,L|400:68,1,80,2|0,0:0|0:0,0:0:0:0:
456,148,60098,2,0,L|452:236,1,80
400,316,60898,5,2,0:0:0:0:
304,356,61298,1,0,0:0:0:0:
212,308,61698,2,0,P|200:264|220:220,1,80
268,148,62498,2,0,P|278:109|266:72,1,80,2|0,0:0|0:0,0:0:0:0:
168,112,63298,1,0,0:0:0:0:
188,216,63698,1,0,0:0:0:0:
268,148,64098,5,2,0:0:0:0:
280,156,64898,1,0,0:0:0:0:
292,164,65698,1,2,0:0:0:0:
304,172,66498,1,0,0:0:0:0:
316,180,67298,5,2,0:0:0:0:
356,276,67698,1,0,0:0:0:0:
296,360,68098,2,0,P|248:368|184:344,1,80
176,268,68898,2,0,P|224:260|288:284,1,80,2|0,0:0|0:0,0:0:0:0:
296,360,69698,1,0,0:0:0:0:
356,276,70098,1,0,0:0:0:0:
316,180,70498,5,2,0:0:0:0:
332,172,71298,1,0,0:0:0:0:
248,108,71698,1,0,0:0:0:0:
148,132,72098,2,0,P|128:184|136:228,1,80,2|0,0:0|0:0,0:0:0:0:
176,300,72898,2,0,P|174:339|157:375,1,80
76,312,73698,6,0,L|48:136,1,160,2|0,0:0|0:0,0:0:0:0:
244,228,75298,2,0,L|272:52,1,160,2|0,0:0|0:0,0:0:0:0:
368,40,76498,1,0,0:0:0:0:
460,88,76898,5,2,0:0:0:0:
484,188,77298,1,0,0:0:0:0:
428,276,77698,2,0,L|384:268,1,40,8|0,0:0|0:0,0:0:0:0:
416,292,78098,2,0,L|372:284,1,40,8|0,0:0|0:0,0:0:0:0:
404,304,78498,1,2,0:0:0:0:
316,360,78898,1,0,0:0:0:0:
228,308,79298,2,0,P|216:256|232:216,1,80
280,144,80098,5,2,0:0:0:0:
264,148,80898,1,0,0:0:0:0:
336,224,81298,1,0,0:0:0:0:
424,168,81698,2,0,P|432:108|408:64,1,80,2|0,0:0|0:0,0:0:0:0:
332,48,82498,2,0,P|324:108|348:152,1,80
424,168,83298,5,2,0:0:0:0:
412,180,84098,1,0,0:0:0:0:
456,272,84498,1,0,0:0:0:0:
400,360,84898,2,0,L|312:352,1,80,2|0,0:0|0:0,0:0:0:0:
244,280,85698,2,0,L|156:272,1,80
256,192,86498,12,2,89698,0:0:0:0:
400,60,90498,6,0,B|416:112|416:112|400:160|400:160|416:224,1,160,0|2,0:0|0:0,0:0:0:0:
244,332,92098,2,0,B|257:278|257:278|241:230|241:230|257:178,1,160,0|2,0:0|0:0,0:0:0:0:
348,124,93298,1,0,0:0:0:0:
428,192,93698,2,0,P|432:236|416:280,1,80,2|0,0:0|0:0,0:0:0:0:
400,272,94298,2,0,P|392:304|360:332,1,40,8|0,0:0|0:0,0:0:0:0:
372,300,94698,2,0,P|364:332|332:360,1,40,8|0,0:0|0:0,0:0:0:0:
344,348,95098,2,0,P|300:364|248:352,1,80,2|0,0:0|0:0,0:0:0:0:
248,352,95698,1,2,0:0:0:0:
160,296,96098,6,0,P|192:232|132:176,1,160,2|0,0:0|0:0,0:0:0:0:
344,196,97698,2,0,P|289:144|320:76,1,160,2|0,0:0|0:0,0:0:0:0:
416,120,98898,1,0,0:0:0:0:
432,224,99298,6,0,P|416:256|368:284,1,80,2|0,0:0|0:0,0:0:0:0:
276,264,100098,1,0,0:0:0:0:
192,328,100498,1,0,0:0:0:0:
172,320,100698,2,0,L|152:228,1,80,8|0,0:0|0:0,0:0:0:0:
252,208,101498,2,0,L|268:129,1,80,2|0,0:0|0:0,0:0:0:0:
288,121,102096,1,2,0:0:0:0:
384,164,102498,6,0,B|424:232|360:240|408:320,1,160,2|0,0:0|0:0,0:0:0:0:
200,320,104098,2,0,B|240:252|176:244|224:164,1,160,2|0,0:0|0:0,0:0:0:0:
304,104,105298,1,0,0:0:0:0:
384,164,105698,5,2,0:0:0:0:
376,176,106498,2,0,L|472:172,1,80
468,188,107098,2,0,L|392:192,1,40,8|0,0:0|0:0,0:0:0:0:
480,208,107498,2,0,L|404:212,1,40,8|0,0:0|0:0,0:0:0:0:
492,228,107898,2,0,L|412:231,1,80,2|0,0:0|0:0,0:0:0:0:
420,248,108498,1,2,0:0:0:0:
336,312,108898,6,0,P|272:304|240:272,1,80,2|0,0:0|0:0,0:0:0:0:
184,224,109698,2,0,P|248:216|280:184,1,80
328,132,110498,2,0,B|283:128|283:128|235:83,1,80,2|0,0:0|0:0,0:0:0:0:
196,20,111298,2,0,B|240:24|240:24|296:-12,1,80
364,52,112098,5,2,0:0:0:0:
376,56,112898,1,0,0:0:0:0:
392,60,113698,1,2,0:0:0:0:
408,64,114498,1,0,0:0:0:0:
424,68,115298,5,2,0:0:0:0:
