osu file format v14

[General]
AudioFilename: Baten Kaitos - The True Mirror.mp3
AudioLeadIn: 0
PreviewTime: 27916
Countdown: 1
SampleSet: Normal
StackLeniency: 0.5
Mode: 0
LetterboxInBreaks: 0
WidescreenStoryboard: 0

[Editor]
Bookmarks: 60700,67504
DistanceSpacing: 1
BeatDivisor: 4
GridSize: 4
TimelineZoom: 1

[Metadata]
Title:The True Mirror
TitleUnicode:The True Mirror
Artist:Motoi Sakuraba
ArtistUnicode:Motoi Sakuraba
Creator:JuanCR2912
Version:Ultimate Magnus
Source:Baten Kaitos: Eternal Wings and the Lost Ocean
Tags:videogame instrumental soundtrack battle cards
BeatmapID:718054
BeatmapSetID:323014

[Difficulty]
HPDrainRate:7
CircleSize:5
OverallDifficulty:8
ApproachRate:7
SliderMultiplier:1.2
SliderTickRate:1

[Events]
//Background and Video events
0,0,"baten_kaitos_22288.jpg",0,0
//Break Periods
//Storyboard Layer 0 (Background)
//Storyboard Layer 1 (Fail)
//Storyboard Layer 2 (Pass)
//Storyboard Layer 3 (Foreground)
//Storyboard Sound Samples

[TimingPoints]
700,618.556701030928,4,1,0,25,1,0
27916,-100,4,1,0,25,0,1
40906,-100,4,1,0,25,0,0
134308,-100,4,1,0,25,0,1
146524,-100,4,1,0,25,0,0

[Colours]
Combo1 : 191,0,96
Combo2 : 44,162,233
Combo3 : 255,255,128
Combo4 : 137,66,22
Combo5 : 255,9,9
Combo6 : 40,40,40

[HitObjects]
224,56,5647,6,0,L|304:56,1,60
256,116,6111,1,0,0:0:0:0:
284,56,6266,2,0,L|224:56,1,60
108,180,6884,2,0,L|152:116,1,60
180,184,7348,1,0,0:0:0:0:
141,130,7503,2,0,L|105:183,1,60
216,304,8122,2,0,L|144:268,1,60
216,236,8585,1,0,0:0:0:0:
162,277,8740,2,0,L|215:303,1,60
352,280,9359,2,0,L|298:306,1,60
298,239,9823,1,0,0:0:0:0:
298,307,9977,2,0,L|351:280,1,60
368,128,10596,2,0,L|402:178,1,60
330,182,11060,1,0,0:0:0:0:
402,177,11214,2,0,L|369:128,1,60
256,88,11834,6,0,L|256:152,1,60
104,232,12452,2,0,L|232:232,1,120
408,232,13380,2,0,L|280:232,1,120
256,192,14308,5,0,0:0:0:0:
280,172,14462,1,0,0:0:0:0:
300,192,14617,1,0,0:0:0:0:
256,192,14926,1,0,0:0:0:0:
232,172,15081,1,0,0:0:0:0:
212,192,15236,1,0,0:0:0:0:
256,192,15545,1,0,0:0:0:0:
280,212,15700,1,0,0:0:0:0:
300,192,15854,1,0,0:0:0:0:
256,192,16163,1,0,0:0:0:0:
232,212,16318,1,0,0:0:0:0:
212,192,16473,1,0,0:0:0:0:
256,152,16782,6,0,L|256:232,1,60
256,272,17401,1,0,0:0:0:0:
256,212,17710,1,0,0:0:0:0:
256,152,18019,2,0,L|256:64,1,60
380,76,18638,5,0,0:0:0:0:
476,192,18947,1,0,0:0:0:0:
436,320,19256,1,0,0:0:0:0:
324,320,19565,1,0,0:0:0:0:
288,192,19875,1,0,0:0:0:0:
132,76,20184,1,0,0:0:0:0:
36,192,20493,1,0,0:0:0:0:
76,320,20803,1,0,0:0:0:0:
188,320,21112,1,0,0:0:0:0:
224,192,21421,1,0,0:0:0:0:
136,192,21730,6,0,L|192:248,1,60
256,192,22349,1,0,0:0:0:0:
376,192,22658,2,0,L|316:132,1,60
256,192,23277,1,0,0:0:0:0:
256,92,23586,2,0,P|220:104|196:136,1,60
176,172,24205,1,0,0:0:0:0:
156,192,24514,2,0,P|168:228|200:252,1,60
236,272,25132,1,0,0:0:0:0:
256,292,25442,2,0,P|292:280|316:248,1,60
336,212,26060,1,0,0:0:0:0:
356,192,26370,2,0,P|344:156|312:132,1,60
276,112,26988,1,0,0:0:0:0:
256,192,27297,1,0,0:0:0:0:
316,72,27916,6,0,L|316:136,1,60
316,252,28535,2,0,L|316:312,1,60
196,132,29153,2,0,L|196:72,1,60
196,312,29772,2,0,L|196:252,1,60
216,244,30390,5,0,0:0:0:0:
140,244,30545,1,0,0:0:0:0:
140,324,30700,1,0,0:0:0:0:
216,324,30854,1,0,0:0:0:0:
296,324,31009,1,0,0:0:0:0:
372,324,31163,1,0,0:0:0:0:
372,244,31318,1,0,0:0:0:0:
296,244,31473,1,0,0:0:0:0:
296,140,31627,1,0,0:0:0:0:
372,140,31781,1,0,0:0:0:0:
372,60,31936,1,0,0:0:0:0:
296,60,32091,1,0,0:0:0:0:
216,60,32246,1,0,0:0:0:0:
140,60,32401,1,0,0:0:0:0:
140,140,32555,1,0,0:0:0:0:
216,140,32710,1,0,0:0:0:0:
256,96,32864,5,0,0:0:0:0:
256,128,33174,1,0,0:0:0:0:
256,164,33483,1,0,0:0:0:0:
256,220,33792,1,0,0:0:0:0:
256,256,34102,1,0,0:0:0:0:
256,288,34411,1,0,0:0:0:0:
256,220,34720,2,0,B|312:244|312:244,1,60
256,144,35339,2,0,B|312:168,1,60
256,72,35957,2,0,B|312:96|312:96,1,60
256,48,36576,5,0,0:0:0:0:
304,92,36885,1,0,0:0:0:0:
352,136,37194,1,0,0:0:0:0:
400,180,37504,1,0,0:0:0:0:
444,228,37813,1,0,0:0:0:0:
256,48,38122,1,0,0:0:0:0:
208,92,38431,1,0,0:0:0:0:
160,136,38741,1,0,0:0:0:0:
112,180,39050,1,0,0:0:0:0:
68,228,39359,1,0,0:0:0:0:
256,164,39669,6,0,B|204:192|204:192,1,60
255,222,40287,2,0,B|308:192|308:192,1,60
224,136,40906,1,0,0:0:0:0:
288,136,41215,1,0,0:0:0:0:
360,116,41524,2,0,P|305:73|232:76,1,120
256,132,42452,1,0,0:0:0:0:
153,115,42761,2,0,P|208:72|277:75,1,120
256,192,43689,1,0,0:0:0:0:
320,176,43998,6,0,P|332:113|276:116,1,120
192,208,45236,2,0,P|180:271|236:268,1,120
256,192,46163,1,0,0:0:0:0:
323,227,46473,2,0,B|303:203|303:203|283:171|283:171|263:203|263:203|241:169,1,120
189,227,47710,2,0,B|209:203|209:203|229:171|229:171|249:203|249:203|271:169,1,120
256,192,48638,1,0,0:0:0:0:
376,228,48947,6,0,B|408:204|408:204|376:184|376:184|340:160|340:160,1,120
136,228,50184,2,0,B|104:204|104:204|136:184|136:184|172:160|172:160,1,120
88,100,51112,5,0,0:0:0:0:
256,100,51421,1,0,0:0:0:0:
424,100,51730,1,0,0:0:0:0:
424,192,52040,1,0,0:0:0:0:
256,192,52349,1,0,0:0:0:0:
88,192,52658,1,0,0:0:0:0:
88,284,52968,1,0,0:0:0:0:
256,284,53277,1,0,0:0:0:0:
424,284,53586,1,0,0:0:0:0:
424,192,53895,2,0,L|364:192,1,60
364,192,54514,2,0,L|304:192,1,60
88,192,55132,2,0,L|148:192,1,60
148,192,55751,2,0,L|208:192,1,60
360,128,56370,5,0,0:0:0:0:
256,64,56679,1,0,0:0:0:0:
152,128,56988,1,0,0:0:0:0:
152,256,57297,1,0,0:0:0:0:
256,320,57607,1,0,0:0:0:0:
360,256,57916,1,0,0:0:0:0:
420,192,58225,1,0,0:0:0:0:
92,192,58535,1,0,0:0:0:0:
468,256,58844,5,0,0:0:0:0:
256,128,59462,1,0,0:0:0:0:
44,256,60081,1,0,0:0:0:0:
256,192,60700,12,0,62555,0:0:0:0:
256,192,63174,12,0,65029,0:0:0:0:
256,192,65648,12,0,67504,0:0:0:0:
284,156,68741,5,0,0:0:0:0:
320,204,69050,1,0,0:0:0:0:
288,256,69359,1,0,0:0:0:0:
224,256,69669,1,0,0:0:0:0:
192,204,69978,1,0,0:0:0:0:
228,156,70287,1,0,0:0:0:0:
116,160,70596,6,0,L|116:220,1,60
184,160,71215,2,0,L|184:220,1,60
256,160,71834,2,0,L|256:220,1,60
328,160,72452,2,0,L|328:220,1,60
352,296,73071,1,0,0:0:0:0:
432,192,73380,1,0,0:0:0:0:
352,88,73689,1,0,0:0:0:0:
160,296,73998,1,0,0:0:0:0:
80,192,74308,1,0,0:0:0:0:
160,88,74617,1,0,0:0:0:0:
184,36,74926,6,0,L|184:100,1,60
72,108,75545,2,0,L|72:172,1,60
72,216,76163,2,0,L|72:276,1,60
184,288,76782,2,0,L|184:348,1,60
328,348,77401,2,0,L|328:284,1,60
440,276,78019,2,0,L|440:212,1,60
440,168,78638,2,0,L|440:108,1,60
328,96,79256,2,0,L|328:36,1,60
404,77,79875,5,0,0:0:0:0:
404,153,80184,1,0,0:0:0:0:
404,230,80493,1,0,0:0:0:0:
404,306,80803,1,0,0:0:0:0:
336,268,81112,1,0,0:0:0:0:
336,192,81421,1,0,0:0:0:0:
336,115,81730,1,0,0:0:0:0:
256,192,82040,1,0,0:0:0:0:
107,306,82349,5,0,0:0:0:0:
107,230,82658,1,0,0:0:0:0:
107,153,82968,1,0,0:0:0:0:
107,77,83277,1,0,0:0:0:0:
175,115,83586,1,0,0:0:0:0:
175,192,83895,1,0,0:0:0:0:
175,268,84205,1,0,0:0:0:0:
256,192,84514,1,0,0:0:0:0:
141,340,84823,5,0,0:0:0:0:
217,340,85132,1,0,0:0:0:0:
294,340,85442,1,0,0:0:0:0:
370,340,85751,1,0,0:0:0:0:
332,272,86060,1,0,0:0:0:0:
256,272,86370,1,0,0:0:0:0:
179,272,86679,1,0,0:0:0:0:
256,192,86988,1,0,0:0:0:0:
370,43,87297,5,0,0:0:0:0:
294,43,87607,1,0,0:0:0:0:
217,43,87916,1,0,0:0:0:0:
141,43,88225,1,0,0:0:0:0:
179,111,88535,1,0,0:0:0:0:
256,111,88844,1,0,0:0:0:0:
332,111,89153,1,0,0:0:0:0:
256,192,89462,1,0,0:0:0:0:
340,132,89772,6,0,L|340:72,1,60
196,108,90390,2,0,L|136:108,1,60
172,252,91009,2,0,L|172:312,1,60
316,276,91627,2,0,L|376:276,1,60
340,216,92246,6,0,L|310:216,1,30
288,192,92555,2,0,L|336:192,1,30
336,168,92864,2,0,L|306:168,1,30
288,144,93174,2,0,L|336:144,1,30
336,120,93483,2,0,L|306:120,1,30
268,120,93792,1,0,0:0:0:0:
244,120,93947,1,0,0:0:0:0:
212,120,94102,2,0,L|164:120,1,30
200,144,94411,2,0,L|230:144,1,30
208,168,94720,2,0,L|160:168,1,30
192,192,95029,2,0,L|222:192,1,30
204,216,95339,2,0,L|156:216,1,30
128,332,95957,6,0,L|196:332,1,60
324,332,96576,2,0,L|384:332,1,60
384,260,97194,2,0,L|316:260,1,60
188,260,97813,2,0,L|120:260,1,60
128,124,98431,2,0,L|188:124,1,60
324,124,99050,2,0,L|384:124,1,60
384,52,99669,2,0,L|324:52,1,60
188,52,100287,2,0,L|128:52,1,60
192,128,100906,5,0,0:0:0:0:
320,128,101215,1,0,0:0:0:0:
320,256,101524,1,0,0:0:0:0:
192,256,101834,1,0,0:0:0:0:
256,191,102143,5,0,0:0:0:0:
172,88,102452,1,0,0:0:0:0:
340,88,102761,1,0,0:0:0:0:
340,296,103071,1,0,0:0:0:0:
172,296,103380,1,0,0:0:0:0:
256,191,103689,1,0,0:0:0:0:
36,192,103998,6,0,L|96:192,1,60
160,192,104617,2,0,L|220:192,1,60
292,192,105236,2,0,L|352:192,1,60
416,192,105854,2,0,L|476:192,1,60
476,192,106473,2,0,L|416:192,1,60
352,192,107091,2,0,L|292:192,1,60
220,192,107710,2,0,L|152:192,1,60
96,192,108328,2,0,L|28:192,1,60
84,192,108947,6,0,B|84:224|84:224|112:224,1,60
200,192,109565,2,0,B|200:224|200:224|172:224,1,60
312,192,110184,2,0,B|312:224|312:224|340:224,1,60
428,192,110803,2,0,B|428:224|428:224|372:224,1,60
256,192,111421,1,0,0:0:0:0:
256,320,112040,6,0,L|256:232,1,60
256,68,112658,2,0,L|256:156,1,60
256,192,113277,1,0,0:0:0:0:
164,192,113895,2,0,L|80:192,1,60
348,192,114514,2,0,L|432:192,1,60
256,192,115132,1,0,0:0:0:0:
86,248,115751,6,0,L|174:248,1,60
146,248,116370,2,0,L|232:248,1,60
256,248,116988,1,0,0:0:0:0:
256,192,117297,1,0,0:0:0:0:
256,192,117607,1,0,0:0:0:0:
256,136,117916,1,0,0:0:0:0:
306,136,118225,2,0,L|394:136,1,60
366,136,118844,2,0,L|448:136,1,60
392,52,119462,5,0,0:0:0:0:
328,112,119772,1,0,0:0:0:0:
288,164,120081,2,0,L|288:232,1,60
224,224,120700,2,0,L|224:164,1,60
184,112,121318,1,0,0:0:0:0:
120,52,121627,1,0,0:0:0:0:
56,96,121937,6,0,L|56:164,1,60
192,96,122555,2,0,L|192:164,1,60
56,228,123174,2,0,L|56:288,1,60
192,228,123792,2,0,L|192:288,1,60
320,288,124411,6,0,L|320:228,1,60
456,288,125029,2,0,L|456:228,1,60
320,156,125648,2,0,L|320:96,1,60
456,156,126267,2,0,L|456:96,1,60
368,168,126885,6,0,B|348:192|348:192|368:220,1,60
304,168,127504,2,0,B|284:192|284:192|304:220,1,60
208,168,128122,2,0,B|228:192|228:192|208:220,1,60
144,168,128741,2,0,B|164:192|164:192|147:215,1,60
256,192,129359,1,0,0:0:0:0:
144,216,129978,6,0,B|162:193|162:193|140:168,1,60
232,140,130596,2,0,B|255:122|255:122|278:142,1,60
370,169,131215,2,0,B|350:193|350:193|368:216,1,60
278,242,131834,2,0,B|255:260|255:260|231:239,1,60
256,192,132452,1,0,0:0:0:0:
336,192,133071,5,0,0:0:0:0:
176,192,133689,1,0,0:0:0:0:
216,324,134308,5,0,0:0:0:0:
166,274,134462,1,0,0:0:0:0:
124,232,134617,1,0,0:0:0:0:
83,191,134772,1,0,0:0:0:0:
124,155,134926,1,0,0:0:0:0:
172,114,135081,1,0,0:0:0:0:
222,78,135236,1,0,0:0:0:0:
222,149,135390,1,0,0:0:0:0:
172,191,135545,1,0,0:0:0:0:
222,232,135700,1,0,0:0:0:0:
291,232,135854,5,0,0:0:0:0:
341,191,136009,1,0,0:0:0:0:
291,149,136163,1,0,0:0:0:0:
291,78,136318,1,0,0:0:0:0:
341,114,136473,1,0,0:0:0:0:
389,155,136627,1,0,0:0:0:0:
431,191,136782,1,0,0:0:0:0:
389,232,136937,1,0,0:0:0:0:
347,274,137091,1,0,0:0:0:0:
299,324,137246,1,0,0:0:0:0:
352,352,137401,5,0,0:0:0:0:
352,292,137710,1,0,0:0:0:0:
352,236,138019,1,0,0:0:0:0:
352,180,138328,1,0,0:0:0:0:
352,124,138638,1,0,0:0:0:0:
160,124,138947,5,0,0:0:0:0:
160,180,139256,1,0,0:0:0:0:
160,236,139565,1,0,0:0:0:0:
160,292,139875,1,0,0:0:0:0:
160,352,140184,1,0,0:0:0:0:
216,352,140493,6,0,L|216:264,1,60
164,260,141112,2,0,L|164:172,1,60
184,144,141730,2,0,L|184:56,1,60
256,32,142349,2,0,L|256:92,1,60
328,84,142968,2,0,L|328:144,1,60
348,200,143586,2,0,L|348:260,1,60
296,292,144205,2,0,L|296:352,1,60
256,328,144823,5,0,0:0:0:0:
324,228,145442,1,0,0:0:0:0:
188,228,146060,1,0,0:0:0:0:
72,192,146679,5,0,0:0:0:0:
96,176,146834,1,0,0:0:0:0:
120,156,146988,1,0,0:0:0:0:
140,180,147143,1,0,0:0:0:0:
164,200,147297,1,0,0:0:0:0:
188,220,147452,1,0,0:0:0:0:
212,240,147607,1,0,0:0:0:0:
236,260,147761,1,0,0:0:0:0:
276,260,147916,1,0,0:0:0:0:
300,240,148071,1,0,0:0:0:0:
324,220,148225,1,0,0:0:0:0:
348,200,148380,1,0,0:0:0:0:
372,180,148535,1,0,0:0:0:0:
392,156,148689,1,0,0:0:0:0:
416,176,148844,1,0,0:0:0:0:
440,192,148998,1,0,0:0:0:0:
256,192,149153,12,0,154720,0:0:0:0:
