osu file format v14

[General]
AudioFilename: Baten Kaitos - The True Mirror.mp3
AudioLeadIn: 0
PreviewTime: 27916
Countdown: 1
SampleSet: Normal
StackLeniency: 0.4
Mode: 0
LetterboxInBreaks: 0
WidescreenStoryboard: 0

[Editor]
Bookmarks: 60700,67504
DistanceSpacing: 1
BeatDivisor: 4
GridSize: 4
TimelineZoom: 1

[Metadata]
Title:The True Mirror
TitleUnicode:The True Mirror
Artist:Motoi Sakuraba
ArtistUnicode:Motoi Sakuraba
Creator:JuanCR2912
Version:Standard
Source:Baten Kaitos: Eternal Wings and the Lost Ocean
Tags:videogame instrumental soundtrack battle cards
BeatmapID:727702
BeatmapSetID:323014

[Difficulty]
HPDrainRate:4
CircleSize:3
OverallDifficulty:5
ApproachRate:4
SliderMultiplier:1.2
SliderTickRate:2

[Events]
//Background and Video events
0,0,"baten_kaitos_22288.jpg",0,0
//Break Periods
//Storyboard Layer 0 (Background)
//Storyboard Layer 1 (Fail)
//Storyboard Layer 2 (Pass)
//Storyboard Layer 3 (Foreground)
//Storyboard Sound Samples

[TimingPoints]
700,618.556701030928,4,1,0,30,1,0
27761,-100,4,1,0,30,0,1
40906,-100,4,1,0,30,0,0
134308,-100,4,1,0,30,0,1
146524,-100,4,1,0,30,0,0

[Colours]
Combo1 : 191,0,96
Combo2 : 44,162,233
Combo3 : 255,255,128
Combo4 : 137,66,22
Combo5 : 255,9,9
Combo6 : 40,40,40

[HitObjects]
40,192,5647,5,0,0:0:0:0:
104,292,6266,1,0,0:0:0:0:
172,192,6884,1,0,0:0:0:0:
256,104,7503,1,0,0:0:0:0:
336,192,8122,1,0,0:0:0:0:
392,296,8740,1,0,0:0:0:0:
460,196,9359,1,0,0:0:0:0:
392,296,9977,1,0,0:0:0:0:
336,192,10596,1,0,0:0:0:0:
256,104,11215,6,0,L|256:224,1,120
356,160,12452,2,0,L|112:160,1,240
163,192,14308,5,0,0:0:0:0:
256,192,14926,1,0,0:0:0:0:
348,192,15545,1,0,0:0:0:0:
256,192,16163,1,0,0:0:0:0:
136,192,16782,2,0,L|396:192,1,240
356,248,18638,5,0,0:0:0:0:
152,252,19256,1,0,0:0:0:0:
152,132,19875,1,0,0:0:0:0:
356,136,20493,1,0,0:0:0:0:
256,192,21112,1,0,0:0:0:0:
316,192,21730,6,0,L|168:192,2,120
392,160,23586,6,0,P|459:151|387:211,1,240
336,192,25132,2,0,L|256:192,2,60
391,224,26060,2,0,P|460:232|387:173,1,240
464,52,27916,5,0,0:0:0:0:
376,136,28535,1,0,0:0:0:0:
452,228,29153,1,0,0:0:0:0:
360,304,29772,1,0,0:0:0:0:
256,244,30390,6,0,B|256:192|256:120,2,120
256,192,32246,5,0,0:0:0:0:
256,48,32864,1,0,0:0:0:0:
256,192,33483,1,0,0:0:0:0:
256,328,34102,1,0,0:0:0:0:
188,80,34720,2,0,B|232:144|232:144|172:184|172:184|232:280,1,240
256,192,36576,5,0,0:0:0:0:
328,360,37194,1,0,0:0:0:0:
328,252,37813,1,0,0:0:0:0:
184,132,38431,1,0,0:0:0:0:
184,24,39050,1,0,0:0:0:0:
324,80,39669,6,0,B|280:144|280:144|340:184|340:184|280:280,1,240
172,118,41524,2,0,B|255:280|255:280|347:104,1,360
256,256,43998,5,0,0:0:0:0:
256,100,44617,1,0,0:0:0:0:
308,216,45236,2,0,P|256:192|188:228,1,120
172,266,46473,2,0,B|255:104|255:104|347:280,1,360
340,266,48947,6,0,B|257:104|257:104|165:280,1,360
108,193,51421,5,0,0:0:0:0:
190,99,52040,1,0,0:0:0:0:
322,99,52658,1,0,0:0:0:0:
404,193,53277,1,0,0:0:0:0:
436,192,53895,2,0,L|76:192,1,360
52,192,56370,5,0,0:0:0:0:
176,320,56988,1,0,0:0:0:0:
344,324,57607,1,0,0:0:0:0:
456,196,58225,1,0,0:0:0:0:
256,240,58844,5,0,0:0:0:0:
256,200,59462,1,0,0:0:0:0:
256,160,60081,1,0,0:0:0:0:
256,192,60700,12,0,67504,0:0:0:0:
256,292,68741,5,0,0:0:0:0:
364,192,69359,1,0,0:0:0:0:
148,192,69978,1,0,0:0:0:0:
76,192,70596,6,0,L|452:192,1,360
256,92,73071,1,0,0:0:0:0:
148,192,73689,1,0,0:0:0:0:
364,192,74308,1,0,0:0:0:0:
392,308,74926,6,0,L|108:68,1,360
120,308,77401,2,0,L|404:68,1,360
420,192,79875,5,0,0:0:0:0:
312,192,80493,1,0,0:0:0:0:
200,118,81112,1,0,0:0:0:0:
200,265,81421,1,0,0:0:0:0:
92,192,81730,1,0,0:0:0:0:
92,192,82349,1,0,0:0:0:0:
200,192,82968,1,0,0:0:0:0:
420,192,83586,1,0,0:0:0:0:
312,118,83895,1,0,0:0:0:0:
312,265,84204,1,0,0:0:0:0:
256,344,84823,5,0,0:0:0:0:
256,300,85442,1,0,0:0:0:0:
256,256,86060,1,0,0:0:0:0:
322,258,86370,1,0,0:0:0:0:
350,192,86679,1,0,0:0:0:0:
256,40,87297,1,0,0:0:0:0:
256,80,87916,1,0,0:0:0:0:
256,120,88535,1,0,0:0:0:0:
190,126,88844,1,0,0:0:0:0:
162,192,89153,1,0,0:0:0:0:
72,192,89772,5,0,0:0:0:0:
224,192,90390,1,0,0:0:0:0:
356,132,91009,2,0,L|356:260,1,120
472,208,92246,6,0,L|276:348,1,240
40,176,94102,2,0,L|236:36,1,240
380,144,95957,6,0,L|380:188,8,30
376,232,97504,1,0,0:0:0:0:
292,284,97813,1,0,0:0:0:0:
208,276,98122,1,0,0:0:0:0:
132,240,98431,2,0,L|132:196,8,30
136,152,99978,1,0,0:0:0:0:
220,100,100287,1,0,0:0:0:0:
304,108,100596,1,0,0:0:0:0:
348,192,100906,1,0,0:0:0:0:
164,192,101524,1,0,0:0:0:0:
164,92,102143,5,0,0:0:0:0:
256,192,102761,1,0,0:0:0:0:
348,292,103380,1,0,0:0:0:0:
48,232,103998,6,0,L|176:232,3,120
464,152,106473,2,0,L|344:152,3,120
196,192,108947,2,0,L|316:192,4,120
464,272,112040,6,0,L|324:48,1,240
176,68,113895,2,0,L|40:280,1,240
144,124,115751,6,0,L|384:124,1,240
256,192,117607,1,0,0:0:0:0:
376,264,118225,2,0,L|108:264,1,240
256,192,120081,5,0,0:0:0:0:
208,136,120390,1,0,0:0:0:0:
152,80,120700,1,0,0:0:0:0:
360,304,121318,1,0,0:0:0:0:
112,312,121937,6,0,L|400:80,1,360
400,312,124411,2,0,L|112:80,1,360
231,248,126885,6,0,P|256:192|307:159,4,120
280,248,129978,6,0,P|256:192|203:159,4,120
336,192,133071,5,0,0:0:0:0:
176,192,133689,1,0,0:0:0:0:
92,112,134308,5,0,0:0:0:0:
92,272,134926,1,0,0:0:0:0:
256,192,135545,1,0,0:0:0:0:
420,112,136163,1,0,0:0:0:0:
420,272,136782,1,0,0:0:0:0:
256,324,137401,5,0,0:0:0:0:
188,248,138019,1,0,0:0:0:0:
324,248,138638,1,0,0:0:0:0:
392,148,139256,1,0,0:0:0:0:
120,148,139875,1,0,0:0:0:0:
200,148,140493,6,0,B|256:40|256:40|320:168,1,240
252,192,142349,1,0,0:0:0:0:
200,236,142968,2,0,B|256:344|256:344|320:216,1,240
352,192,144823,5,0,0:0:0:0:
252,192,145442,1,0,0:0:0:0:
152,192,146060,1,0,0:0:0:0:
196,148,146679,5,0,0:0:0:0:
300,132,147297,1,0,0:0:0:0:
316,236,147916,1,0,0:0:0:0:
212,252,148535,1,0,0:0:0:0:
256,192,149153,12,0,154720,0:0:0:0:
