osu file format v14

[General]
AudioFilename: Toumei Datta Sekai.mp3
AudioLeadIn: 0
PreviewTime: 49430
Countdown: 1
SampleSet: None
StackLeniency: 0.7
Mode: 0
LetterboxInBreaks: 0
WidescreenStoryboard: 1

[Editor]
Bookmarks: 6737,12272,13165,17649,18899,19078,19792,22292,22649,23006,23721,24703,28899,32292,36399,38006,38363,41221,41578,41935,42113,43721,59078,63542,64256,66578,67292,68002,71578
DistanceSpacing: 1.7
BeatDivisor: 4
GridSize: 4
TimelineZoom: 2.899999

[Metadata]
Title:Toumei Datta Sekai (TV Size)
TitleUnicode:透明だった世界 - Tv版
Artist:Motohiro Hata
ArtistUnicode:秦基博
Creator:Supy
Version:Hard
Source:Naruto Shippuden
Tags:supy naruto shippuden tv motohiro hata toumei datta sekai
BeatmapID:656899
BeatmapSetID:284353

[Difficulty]
HPDrainRate:5
CircleSize:4
OverallDifficulty:7
ApproachRate:8
SliderMultiplier:1.7
SliderTickRate:1

[Events]
//Background and Video events
0,0,"pain1.jpg",0,0
//Break Periods
//Storyboard Layer 0 (Background)
//Storyboard Layer 1 (Fail)
//Storyboard Layer 2 (Pass)
//Storyboard Layer 3 (Foreground)
//Storyboard Sound Samples

[TimingPoints]
-569,357.142857142857,4,1,0,70,1,0
-100,-100,4,2,1,80,0,0

[Colours]
Combo1 : 134,134,196
Combo2 : 94,0,0
Combo3 : 222,209,209

[HitObjects]
64,88,145,5,0,0:0:0:0:
64,88,234,1,0,0:0:0:0:
64,88,323,1,0,0:0:0:0:
64,88,413,1,0,0:0:0:0:
64,88,502,2,0,L|164:88,1,75
220,92,859,2,0,L|320:92,1,85
220,92,1216,2,0,L|320:92,1,85
220,92,1573,2,0,L|320:92,1,85
220,92,1930,2,0,L|320:92,1,85
220,92,2288,1,0,0:0:0:0:
220,92,2466,1,0,0:0:0:0:
220,92,2645,1,0,0:0:0:0:
220,92,2824,1,0,0:0:0:0:
220,92,3002,2,0,L|324:92,1,85
220,92,3359,1,0,0:0:0:0:
220,92,3538,1,0,0:0:0:0:
220,92,3716,2,0,L|312:92,2,85
220,92,4252,1,0,0:0:0:0:
220,92,4430,2,0,L|320:92,1,85
220,92,4788,2,0,L|320:92,1,85
220,92,5145,2,0,L|320:92,1,85
220,92,5502,2,0,L|320:92,1,85
220,92,5859,1,0,0:0:0:0:
220,92,6038,1,0,0:0:0:0:
220,92,6216,1,0,0:0:0:0:
220,92,6395,1,0,0:0:0:0:
220,92,6484,1,0,0:0:0:0:
220,92,6573,2,0,L|316:92,1,85
220,92,6930,2,0,L|320:92,1,85
220,92,7287,2,0,L|320:92,1,85
220,92,7644,2,0,L|320:92,1,85
220,92,8001,2,0,L|320:92,1,85
220,92,8359,1,0,0:0:0:0:
220,92,8537,1,0,0:0:0:0:
220,92,8716,1,0,0:0:0:0:
220,92,8895,1,0,0:0:0:0:
220,92,9073,2,0,L|324:92,1,85
220,92,9430,1,0,0:0:0:0:
220,92,9609,1,0,0:0:0:0:
220,92,9787,2,0,L|312:92,2,85
220,92,10323,1,0,0:0:0:0:
220,92,10501,2,0,L|320:92,1,85
220,92,10859,2,0,L|320:92,1,85
220,92,11216,2,0,L|320:92,1,85
220,92,11573,2,0,L|320:92,1,85
216,92,11930,2,0,L|140:92,2,42.5
220,92,12287,1,0,0:0:0:0:
36,32,13180,1,0,0:0:0:0:
36,32,13359,2,0,L|128:32,1,85
36,112,13716,1,0,0:0:0:0:
36,112,13895,1,0,0:0:0:0:
36,112,14073,2,0,L|136:112,1,85
36,112,14430,1,0,0:0:0:0:
36,112,14609,1,0,0:0:0:0:
36,112,14788,2,0,L|140:112,1,85
32,212,15145,1,0,0:0:0:0:
32,212,15323,2,0,L|100:212,2,42.5
32,212,15680,1,0,0:0:0:0:
32,300,15859,2,0,L|120:304,1,85
32,300,16216,2,0,L|120:304,1,85
204,304,16573,2,0,L|288:304,1,85
204,304,16930,2,0,L|288:304,1,85
289,304,17198,1,0,0:0:0:0:
289,304,17288,1,0,0:0:0:0:
384,304,17466,1,0,0:0:0:0:
472,304,17645,1,0,0:0:0:0:
60,56,18002,1,0,0:0:0:0:
60,56,18180,1,0,0:0:0:0:
60,56,18359,2,0,L|164:56,1,85
56,152,18716,1,0,0:0:0:0:
136,156,18895,1,0,0:0:0:0:
136,156,18984,1,0,0:0:0:0:
136,156,19073,2,0,L|232:160,1,85
64,232,19430,1,0,0:0:0:0:
64,232,19609,1,0,0:0:0:0:
60,228,19788,2,0,L|160:236,1,85
240,160,20145,1,0,0:0:0:0:
240,160,20323,1,0,0:0:0:0:
0,280,20502,2,0,L|76:316,1,85
68,328,20770,1,0,0:0:0:0:
68,328,20859,2,0,L|232:320,1,127.5
195,321,21216,1,0,0:0:0:0:
216,80,21395,1,0,0:0:0:0:
216,80,21573,1,0,0:0:0:0:
208,80,21752,1,0,0:0:0:0:
216,80,21930,2,0,L|324:92,1,85
208,168,22288,1,0,0:0:0:0:
208,168,22466,2,0,L|260:168,2,42.5
208,168,22823,1,0,0:0:0:0:
208,168,23002,2,0,L|324:172,1,85
208,168,23359,2,0,L|324:172,1,85
292,170,23627,1,0,0:0:0:0:
292,170,23716,1,0,0:0:0:0:
36,32,24073,1,0,0:0:0:0:
36,32,24252,1,0,0:0:0:0:
36,32,24431,2,0,L|128:32,1,85
36,112,24788,1,0,0:0:0:0:
36,112,24967,1,0,0:0:0:0:
36,112,25145,2,0,L|136:112,1,85
36,112,25502,1,0,0:0:0:0:
36,112,25681,1,0,0:0:0:0:
36,112,25860,2,0,L|140:112,1,85
32,212,26216,2,0,L|100:212,2,42.5
32,212,26573,1,0,0:0:0:0:
32,212,26752,1,0,0:0:0:0:
32,212,26930,1,0,0:0:0:0:
32,212,27109,1,0,0:0:0:0:
32,300,27288,2,0,L|120:304,1,85
204,304,27645,2,0,L|288:304,1,85
140,208,28002,1,0,0:0:0:0:
236,208,28180,1,0,0:0:0:0:
236,208,28270,1,0,0:0:0:0:
236,208,28359,1,0,0:0:0:0:
384,304,28538,1,0,0:0:0:0:
32,292,28716,2,0,L|140:296,1,85
60,56,29074,1,0,0:0:0:0:
60,56,29252,1,0,0:0:0:0:
60,56,29431,2,0,L|164:56,1,85
56,152,29788,1,0,0:0:0:0:
136,156,29967,1,0,0:0:0:0:
136,156,30055,1,0,0:0:0:0:
136,156,30145,2,0,L|232:160,1,85
64,232,30502,1,0,0:0:0:0:
64,232,30681,1,0,0:0:0:0:
60,228,30860,2,0,L|160:236,1,85
64,320,31216,1,0,0:0:0:0:
64,320,31395,1,0,0:0:0:0:
60,228,31573,2,0,L|160:236,1,85
64,328,31930,1,0,0:0:0:0:
64,328,32109,1,0,0:0:0:0:
164,316,32288,2,0,L|312:316,1,127.5
288,316,32645,1,0,0:0:0:0:
376,308,32823,1,0,0:0:0:0:
164,316,33002,2,0,L|312:316,1,127.5
288,316,33359,1,0,0:0:0:0:
376,308,33537,1,0,0:0:0:0:
216,88,33716,2,0,L|328:92,1,85
220,168,34074,1,0,0:0:0:0:
220,168,34252,1,0,0:0:0:0:
208,168,34431,2,0,L|324:172,1,85
296,168,34698,1,0,0:0:0:0:
292,170,34788,1,0,0:0:0:0:
300,168,34966,1,0,0:0:0:0:
300,168,35145,1,0,0:0:0:0:
56,56,35502,1,0,0:0:0:0:
56,56,35680,1,0,0:0:0:0:
56,56,35859,2,0,L|152:60,1,85
164,56,36216,2,0,L|208:56,1,42.5
228,64,36395,1,0,0:0:0:0:
56,56,36573,2,0,L|152:60,1,85
224,68,36930,1,0,0:0:0:0:
224,68,37109,1,0,0:0:0:0:
64,60,37288,2,0,L|168:68,1,85
228,64,37645,1,0,0:0:0:0:
124,168,38002,1,0,0:0:0:0:
124,168,38180,1,0,0:0:0:0:
124,168,38270,1,0,0:0:0:0:
124,168,38359,2,0,L|268:172,1,127.5
264,176,38716,1,0,0:0:0:0:
236,168,38895,1,0,0:0:0:0:
132,256,39073,1,0,0:0:0:0:
240,264,39252,2,0,L|436:272,1,170
100,56,39788,1,0,0:0:0:0:
192,60,39966,1,0,0:0:0:0:
100,144,40145,1,0,0:0:0:0:
208,164,40323,2,0,L|256:168,4,42.5
208,164,40859,1,0,0:0:0:0:
208,80,41038,1,0,0:0:0:0:
300,88,41216,2,0,L|400:92,1,85
300,88,41573,2,0,L|400:92,1,85
168,252,41930,2,0,L|244:256,1,42.5
400,336,42109,1,0,0:0:0:0:
116,144,42288,2,0,L|208:144,1,85
300,160,42645,1,0,0:0:0:0:
300,160,42823,1,0,0:0:0:0:
80,60,43002,2,0,L|176:56,1,85
272,64,43359,1,0,0:0:0:0:
272,64,43538,1,0,0:0:0:0:
88,144,43716,2,0,L|192:148,1,85
172,147,44073,1,0,0:0:0:0:
144,228,44252,1,0,0:0:0:0:
232,236,44430,2,0,L|324:228,2,85
140,248,44966,1,0,0:0:0:0:
140,248,45055,1,0,0:0:0:0:
140,248,45145,1,0,0:0:0:0:
136,76,45502,1,0,0:0:0:0:
136,76,45681,1,0,0:0:0:0:
64,160,45859,2,0,L|168:156,1,85
136,76,46216,1,0,0:0:0:0:
136,76,46395,1,0,0:0:0:0:
64,160,46573,2,0,L|168:156,1,85
64,160,46930,2,0,L|168:156,1,85
140,72,47288,1,0,0:0:0:0:
140,72,47466,1,0,0:0:0:0:
100,276,47645,2,0,L|248:280,1,127.5
227,279,48002,2,0,L|332:268,1,85
316,168,48359,1,0,0:0:0:0:
316,168,48538,1,0,0:0:0:0:
220,96,48716,2,0,L|264:92,2,42.5
220,96,49073,2,0,L|177:99,2,42.5
436,60,49430,2,0,L|500:208,1,127.5
480,196,49788,1,0,0:0:0:0:
416,292,49966,1,0,0:0:0:0:
312,324,50145,2,0,L|216:324,1,85
128,316,50502,1,0,0:0:0:0:
56,232,50680,1,0,0:0:0:0:
312,324,50859,2,0,L|216:324,1,85
227,324,51127,1,0,0:0:0:0:
227,324,51216,1,0,0:0:0:0:
164,160,51395,1,0,0:0:0:0:
164,160,51573,2,0,L|268:144,1,85
290,145,51930,1,0,0:0:0:0:
290,145,52109,1,0,0:0:0:0:
312,324,52288,2,0,L|216:324,1,85
172,324,52555,1,0,0:0:0:0:
128,316,52645,1,0,0:0:0:0:
56,232,52823,1,0,0:0:0:0:
312,324,53002,2,0,L|216:324,1,85
124,136,53359,2,0,L|172:112,2,42.5
216,80,53716,2,0,L|304:80,1,85
301,80,54073,1,0,0:0:0:0:
296,172,54252,1,0,0:0:0:0:
296,172,54341,1,0,0:0:0:0:
300,168,54430,2,0,L|428:172,1,127.5
432,160,54788,1,0,0:0:0:0:
300,256,54966,1,0,0:0:0:0:
56,104,55145,2,0,L|168:76,1,85
220,156,55502,1,0,0:0:0:0:
52,208,55680,1,0,0:0:0:0:
52,208,55770,1,0,0:0:0:0:
52,208,55859,2,0,L|144:216,1,85
216,128,56216,1,0,0:0:0:0:
248,216,56395,1,0,0:0:0:0:
264,300,56573,2,0,L|360:304,1,85
216,128,56930,1,0,0:0:0:0:
264,296,57109,1,0,0:0:0:0:
264,300,57198,1,0,0:0:0:0:
264,300,57287,2,0,L|360:304,1,85
340,88,57645,1,0,0:0:0:0:
340,88,57823,1,0,0:0:0:0:
340,88,58002,2,0,L|424:208,1,127.5
84,96,58359,2,0,L|208:88,1,85
168,90,58716,1,0,0:0:0:0:
168,90,58895,1,0,0:0:0:0:
84,96,59073,2,0,L|152:88,1,42.5
204,168,59252,1,0,0:0:0:0:
112,276,59430,2,0,L|204:292,2,85
208,288,59966,2,0,L|280:288,2,42.5
312,108,60323,1,0,0:0:0:0:
312,108,60412,1,0,0:0:0:0:
312,108,60501,1,0,0:0:0:0:
312,108,60591,1,0,0:0:0:0:
312,108,60680,1,0,0:0:0:0:
312,108,60770,1,0,0:0:0:0:
312,108,60859,2,0,L|408:208,1,127.5
404,228,61216,1,0,0:0:0:0:
372,336,61395,1,0,0:0:0:0:
68,76,61573,2,0,L|176:76,1,85
404,228,61930,1,0,0:0:0:0:
64,76,62109,1,0,0:0:0:0:
64,76,62198,1,0,0:0:0:0:
68,76,62287,2,0,L|176:76,1,85
80,168,62645,1,0,0:0:0:0:
80,168,62823,1,0,0:0:0:0:
100,168,63002,2,0,L|204:172,1,85
200,264,63270,1,0,0:0:0:0:
100,168,63359,2,0,L|204:172,1,85
72,248,63716,2,0,L|232:260,1,127.5
224,268,64073,1,0,0:0:0:0:
248,276,64252,1,0,0:0:0:0:
264,284,64430,2,0,L|360:284,1,85
224,268,64788,1,0,0:0:0:0:
192,108,64967,1,0,0:0:0:0:
192,108,65055,1,0,0:0:0:0:
52,76,65145,1,0,0:0:0:0:
184,112,65323,1,0,0:0:0:0:
52,76,65502,1,0,0:0:0:0:
52,76,65859,1,0,0:0:0:0:
52,76,66038,1,0,0:0:0:0:
184,108,66216,2,0,L|288:116,1,85
16,216,66573,2,0,L|176:208,1,127.5
184,208,66930,1,0,0:0:0:0:
296,196,67109,1,0,0:0:0:0:
152,88,67288,2,0,L|264:100,1,85
116,220,67645,2,0,L|232:220,1,85
96,216,68002,2,0,L|240:212,1,127.5
296,196,68359,1,0,0:0:0:0:
296,196,68538,1,0,0:0:0:0:
180,88,68716,2,0,L|296:96,1,85
180,148,69073,1,0,0:0:0:0:
180,148,69252,1,0,0:0:0:0:
180,88,69430,2,0,L|296:96,1,85
268,120,69788,1,0,0:0:0:0:
56,248,70145,1,0,0:0:0:0:
56,248,70323,1,0,0:0:0:0:
56,248,70502,1,0,0:0:0:0:
56,248,70680,2,0,L|236:240,1,170
310,251,71216,1,0,0:0:0:0:
160,144,71573,1,0,0:0:0:0:
280,136,71752,1,0,0:0:0:0:
168,240,71930,2,0,L|276:252,1,85
256,192,72288,12,0,76930,0:0:0:0:
160,164,77288,5,0,0:0:0:0:
304,160,77466,1,0,0:0:0:0:
168,248,77645,2,0,L|280:248,1,85
256,192,78002,12,0,83716,0:0:0:0:
120,216,83895,6,0,L|220:216,2,85
120,216,84609,6,0,L|220:216,2,85
120,216,85323,6,0,L|220:216,2,85
96,128,86038,1,0,0:0:0:0:
92,132,86217,2,0,L|184:132,1,85
177,132,86574,1,0,0:0:0:0:
120,216,86753,6,0,L|220:216,2,85
120,216,87466,6,0,L|220:216,2,85
140,112,88180,2,0,L|248:112,1,85
332,136,88537,1,0,0:0:0:0:
